osu file format v5

[General]
AudioFilename: Busta Rhymes -how_we do it over here (feat missy elliott).mp3
AudioLeadIn: 0
PreviewTime: -1
Countdown: 3
SampleSet: Normal
StackLeniency: 0.7
Mode: 0
LetterboxInBreaks: 1
SkinPreference:noized
EditorBookmarks: 21250,21931,22215,22386,22613,22784

[Metadata]
Title:How We Do It Over Here
Artist:Busta Rhymes
Creator:GrenioDancer
Version:Hard
Source:
Tags:Busta Rhymes How we do it over here

[Difficulty]
HPDrainRate:5
CircleSize:5
OverallDifficulty:8
SliderMultiplier:1.4
SliderTickRate:2

[Events]
//Background and Video events
0,0,"SOVAJ___Hip_Hop_Kult_u_r_by_gangstuck.jpg"
//Break Periods
2,56279,60690
2,88269,89837
//Storyboard Layer 0 (Background)
//Storyboard Layer 1 (Failing)
//Storyboard Layer 2 (Passing)
//Storyboard Layer 3 (Foreground)
//Storyboard Sound Samples
//Background Colour Transformations
3,100,163,162,255

[TimingPoints]
2102,606.397493557027,4,1,0,100,1
2102,606.397493557027,4,1,0,100,1
2102,606.397493557027,4,1,0,100,1
2102,606.397493557027,4,1,0,100,1
2102,606.397493557027,4,1,0,100,1
2102,606.397493557027,4,1,0,100,1
2102,606.397493557027,4,1,0,100,1
2102,606.397493557027,4,1,0,100,1
2102,606.397493557027,4,1,0,100,1
2102,606.397493557027,4,1,0,100,1

[Colours]
Combo1 : 128,128,255
Combo2 : 0,0,0
Combo3 : 0,0,128
Combo4 : 255,255,255

[HitObjects]
0,32,2102,2,0,B|0:256,1,210
64,32,3409,2,0,B|64:224,1,175
128,32,4602,2,0,B|128:224,1,175
192,32,5738,2,0,B|192:224,1,175
256,32,6875,2,0,B|256:224,1,175
320,96,8165,2,0,B|320:288,1,175
416,192,9378,2,0,B|416:384,1,175,4|0
352,192,10490,2,0,B|352:384,1,175
352,192,11703,2,0,B|352:384,1,175
288,192,12916,2,0,B|288:384,1,175
224,192,14128,2,0,B|224:384,1,175
160,192,15341,2,4,B|160:384,1,175
32,32,17386,6,0,B|192:128|96:224|288:160|256:288|448:224|64:288|480:352,1,560
32,32,20340,1,0
96,96,20965,1,0
32,160,21590,1,0
96,224,22159,1,0
32,288,22727,1,0
128,320,23465,1,0
224,320,24034,1,0
320,320,24538,1,0
288,256,25113,1,0
384,288,25751,1,0
384,192,26363,1,0
384,96,26988,1,0
384,0,27613,1,4
224,64,28238,5,0
160,128,28783,1,0
96,192,29431,1,0
96,192,30056,1,0
32,256,30625,1,0
256,256,31875,1,0
352,192,32500,1,0
384,160,33068,1,0
416,128,33636,1,0
352,32,34261,1,4
256,256,34715,6,0,B|256:64,2,175
256,320,36565,2,0,B|480:320,3,210,0|0|0|0
96,288,39715,1,4
96,224,40340,5,0
64,160,40965,1,0
128,128,41618,1,0
192,96,42124,1,0
256,64,42727,1,0
320,160,43352,1,0
320,256,44034,1,0
352,256,44602,1,0
384,256,45227,1,0
117,207,45965,6,4,B|110:232|238:328,5,157.5
256,192,49886,12,6,56079
32,0,61590,5,0
128,32,62102,1,0
64,128,62727,1,0
32,160,63068,1,0
0,192,63409,1,0
64,256,63977,1,0
96,288,64318,1,0
128,320,64602,1,0
256,288,65170,1,0
384,256,65773,5,0
352,160,66363,1,0
352,160,66647,1,0
352,160,66931,1,0
352,64,67556,1,0
288,0,68125,1,0
224,64,68693,1,0
224,128,69034,1,0
224,192,69375,1,0
224,320,70000,1,0
352,320,70625,1,0
416,256,71193,1,0
416,224,71534,1,0
416,192,71818,1,4
480,0,72500,5,0
480,128,73068,1,0
384,128,73636,1,0
320,160,73920,1,0
384,192,74261,1,0
288,256,74886,1,4
192,256,75397,5,0
96,256,76022,1,0
96,256,76363,1,0
96,256,76647,1,4
192,288,77386,5,0
256,256,77670,1,0
320,224,77954,1,0
288,320,78522,1,0
288,320,78750,1,0
288,320,79034,1,4
0,0,81079,6,0,B|352:224,1,396.666666666667
384,256,83258,2,0,B|224:352,1,163.333333333333
352,192,84431,1,0
416,160,84886,2,2,B|512:256,6,122.5
32,32,90737,1,12
128,0,91250,5,0
128,160,91931,1,0
96,224,92386,1,0
160,256,92670,1,0
128,320,93068,1,0
288,320,93750,1,0
384,320,94318,1,0
384,192,94829,1,0
384,192,95113,1,0
384,192,95454,1,0
384,64,96079,1,0
320,128,96647,1,0
288,160,96931,1,0
256,192,97215,1,4
192,256,97670,5,0
192,256,97897,1,0
288,256,98522,1,0
384,256,99147,1,0
448,192,99715,1,0
320,128,100000,1,0
448,64,100340,1,0
384,32,100965,1,0
288,32,101590,1,0
256,96,102102,1,0
256,96,102329,1,0
256,96,102727,1,0
64,192,103352,1,6
160,256,104090,5,0
160,256,104431,1,0
160,256,104715,1,0
160,256,105113,1,0
256,256,105795,1,0
352,256,106363,1,0
352,256,106647,1,0
352,256,106988,1,0
352,256,107272,1,0
416,256,107613,1,0
416,96,108238,1,6
256,192,109545,12,4,118522
96,32,119204,1,4
32,96,119715,1,4
96,128,120000,1,4
160,96,120284,1,4
96,192,120852,1,4
96,288,121477,1,4
224,288,122102,5,4
224,288,122386,1,4
224,288,122670,1,4
352,288,123352,1,4
480,288,123977,1,4
480,224,124545,1,4
480,192,124829,1,4
480,160,125113,1,4
384,160,125738,1,4
320,224,126363,5,4
256,128,126931,1,4
192,224,127272,1,4
128,128,127556,1,4
32,224,128181,1,4
32,288,128750,1,4
128,288,129375,1,4
128,288,129659,1,4
128,288,129943,1,4
256,288,130511,1,4
384,288,131136,1,4
384,192,131818,1,4
384,192,132102,1,4
384,96,132386,5,4
288,64,133011,1,4
224,128,133352,1,4
160,64,133636,1,4
160,160,134204,1,4
160,224,134602,1,4
160,288,134829,1,4
256,288,135454,1,4
288,288,135795,1,4
320,288,136022,1,4
416,160,136621,6,0,B|416:288,4,116.666666666667
381,93,139147,2,4,B|204:104,1,175
147,107,140454,2,4,B|-7:114,1,140
5,155,141477,2,4,B|124:275,1,157.5
149,243,142613,2,4,B|324:325,1,175
298,121,143920,2,4,B|338:296,1,175
231,122,145227,5,0
128,128,145738,1,4
128,192,146363,1,4
128,192,146647,1,4
128,192,146931,1,4
128,320,147613,1,4
288,320,148238,1,4
352,256,148806,1,4
384,224,149090,1,4
416,192,149375,1,4
352,128,150000,1,4
224,128,150681,5,4
128,128,151306,1,4
96,192,151590,1,4
128,256,151875,1,4
256,256,152443,1,4
320,256,153011,1,4
416,224,153636,1,4
448,160,153977,1,4
416,96,154261,1,4
352,160,154943,1,4
288,224,155454,1,4
160,320,156079,1,4
128,224,156363,1,4
96,128,156647,1,4
64,32,157329,1,4
256,192,157670,12,4,166988
