osu file format v5

[General]
AudioFilename: Busta Rhymes -how_we do it over here (feat missy elliott).mp3
AudioLeadIn: 0
PreviewTime: -1
Countdown: 3
SampleSet: Normal
StackLeniency: 0.7
Mode: 0
LetterboxInBreaks: 1
SkinPreference:noized
EditorBookmarks: 21250,21931,22215,22386,22613,22784

[Metadata]
Title:How We Do It Over Here
Artist:Busta Rhymes
Creator:GrenioDancer
Version:Easy
Source:
Tags:Busta Rhymes How we do it over here

[Difficulty]
HPDrainRate:4
CircleSize:3
OverallDifficulty:5
SliderMultiplier:1.4
SliderTickRate:2

[Events]
//Background and Video events
0,0,"SOVAJ___Hip_Hop_Kult_u_r_by_gangstuck.jpg"
//Break Periods
2,19734,21969
2,56279,60690
//Storyboard Layer 0 (Background)
//Storyboard Layer 1 (Failing)
//Storyboard Layer 2 (Passing)
//Storyboard Layer 3 (Foreground)
//Storyboard Sound Samples
//Background Colour Transformations
3,100,163,162,255

[TimingPoints]
2102,606.397493557027,4,1,0,100,1
2102,606.397493557027,4,1,0,100,1
2102,606.397493557027,4,1,0,100,1
2102,606.397493557027,4,1,0,100,1
2102,606.397493557027,4,1,0,100,1
2102,606.397493557027,4,1,0,100,1
2102,606.397493557027,4,1,0,100,1
2102,606.397493557027,4,1,0,100,1
2102,606.397493557027,4,1,0,100,1
2102,606.397493557027,4,1,0,100,1

[Colours]
Combo1 : 128,128,255
Combo2 : 0,0,0
Combo3 : 0,0,128
Combo4 : 255,255,255

[HitObjects]
0,0,2405,1,0
64,64,3466,1,0
128,128,4679,1,0
192,192,5740,1,0
256,256,7104,1,0
352,256,8165,1,0
416,320,9378,1,0
416,224,10591,1,0
416,128,11955,1,0
320,96,13168,1,0
192,128,14229,1,0
160,192,15594,1,0
128,256,16503,2,4,B|320:288,4,175
32,96,22719,5,0
96,128,23932,1,0
192,192,25145,1,0
288,256,26357,1,0
192,192,27570,1,0
96,128,28783,1,0
96,224,29996,1,0
160,288,31209,1,4
256,160,32421,5,0
192,192,33634,1,0
256,224,34847,1,0
192,256,36060,1,0
256,288,37273,1,0
256,224,38485,2,0,B|448:256,1,175
448,192,39698,2,0,B|320:64,1,175
288,128,40911,2,0,B|96:64,1,175
288,192,42124,2,0,B|128:224,1,140
32,192,43337,2,0,B|192:320,1,175
224,288,44549,2,0,B|416:256,1,175
416,192,45762,2,0,B|256:96,1,175
128,96,46975,2,0,B|32:256,1,175
64,288,48036,2,0,B|288:320,1,210
288,256,49552,2,0,B|160:160,1,140
256,192,51371,12,0,55464
64,128,60922,5,0
64,192,62135,1,0
160,256,63348,1,0
224,192,64560,1,0
288,256,65773,1,0
352,192,66986,1,0
416,256,68199,1,0
480,192,69412,1,0
480,288,70624,1,0
384,288,71837,1,0
288,288,72898,1,0
192,288,74263,1,4
96,128,75324,5,0
160,128,75627,1,0
256,128,76082,1,0
384,128,76688,1,0
384,192,77295,1,0
320,256,77750,1,0
256,256,78053,1,0
192,256,78356,1,0
64,256,79114,1,4
64,192,79720,5,0
64,96,80327,1,0
64,96,80630,1,0
64,96,80933,1,0
160,64,81540,1,0
256,64,82146,1,0
352,64,82752,1,0
416,64,83056,1,0
384,128,83359,1,0
224,64,83965,1,4
96,64,84572,5,0
96,160,85178,1,0
96,224,85481,1,0
96,288,85784,1,0
192,288,86391,1,0
288,288,86997,1,0
384,288,87604,1,0
384,288,87907,1,0
320,224,88210,1,0
224,160,88816,1,4
256,192,89878,12,0,98670
