osu file format v5

[General]
AudioFilename: KICK THE CAN - Copy.ogg
AudioLeadIn: 0
PreviewTime: -1
Countdown: 1
SampleSet: Normal
StackLeniency: 0.7
Mode: 0
LetterboxInBreaks: 1

[Editor]
Bookmarks: 6663
DistanceSpacing: 0.800000011920929
BeatDivisor: 2
GridSize: 16

[Metadata]
Title:Kick The Can
Artist:Bus Stop
Creator:NT1996
Version:Normal
Source:Dance Dance Revolution
Tags:Bus Stop Kick The Can DDR Dance Revolution Extreme

[Difficulty]
HPDrainRate:3
CircleSize:4
OverallDifficulty:4
SliderMultiplier:1.4
SliderTickRate:1

[Events]
//Background and Video events
0,0,"BusStop-KickTheCan.jpg"
//Break Periods
2,33096,45326
2,48096,48930
2,51430,52263
2,55179,55596
2,76430,81993
//Storyboard Layer 0 (Background)
//Storyboard Layer 1 (Fail)
//Storyboard Layer 2 (Pass)
//Storyboard Layer 3 (Foreground)
//Storyboard Sound Samples
//Background Colour Transformations
3,100,163,162,255

[TimingPoints]
1658,416.666666666667,4,1,0,100,1,0
19980,-100,4,1,0,100,0,1
32896,-100,4,1,0,100,0,0
63313,-100,4,1,0,100,0,1
76646,-100,4,1,0,100,0,0

[HitObjects]
224,64,6657,2,0,B|384:64,1,140,0|2
480,64,7491,1,0
480,176,7907,1,2
480,288,8324,2,0,B|288:288,1,140,0|2
224,288,9157,2,0,B|128:288,2,70,0|0|2
320,224,9991,2,0,B|320:64,1,140,0|2
400,0,10824,2,0,B|496:0,2,70,0|0|2
352,96,11658,2,0,B|352:256|352:256|160:256|160:256|160:128,1,420,0|0
160,80,13324,6,0,B|320:80,1,140,4|2
416,80,14158,1,0
416,192,14574,1,2
416,304,14991,2,0,B|224:304,1,140,0|2
160,288,15824,5,0
160,224,16033,1,0
160,160,16241,1,2
272,160,16658,1,0
272,224,16866,1,0
272,288,17074,1,2
384,288,17491,1,2
384,224,17699,1,2
384,160,17908,1,2
320,64,18324,2,4,B|160:64|160:64|160:288|160:288|352:288,1,560
448,288,20407,5,2
448,176,20824,1,0
384,176,21032,1,0
320,176,21241,1,2
256,272,21657,5,0
144,272,22074,1,2
144,160,22491,1,0
192,160,22699,1,0
240,160,22907,1,2
352,160,23324,5,0
464,160,23741,1,6
464,272,24157,1,2
352,272,24574,1,8
352,160,24991,2,0,B|288:160|288:160|288:96|288:96|416:96|416:96|416:224|416:224|320:224,1,420,0|2
448,304,26657,5,4
448,192,27074,1,2
336,192,27491,1,4
336,304,27907,1,8
336,192,28324,2,4,B|196:192,1,140
80,192,29157,1,2
192,192,29574,1,2
176,80,29991,5,0
192,192,30407,1,4
304,192,30824,1,2
192,192,31241,1,8
176,80,31657,2,4,B|316:80,1,140
432,80,32491,1,2
320,80,32907,1,2
208,128,46658,5,0
320,128,47074,1,4
320,240,47491,1,2
208,240,47908,1,8
256,112,49991,5,0
336,192,50408,1,2
256,272,50824,1,4
176,192,51241,1,8
320,128,53324,6,4,B|288:96|288:96|128:224|128:224|224:320|224:320|384:192,1,560
256,112,56658,5,0
336,192,57074,1,2
256,272,57491,1,4
176,192,57908,1,8
176,80,58324,5,0
288,80,58741,1,2
288,192,59158,1,4
176,192,59574,1,8
256,192,59991,12,0,62908
32,32,63324,5,0
144,32,63741,1,2
256,32,64158,2,0,B|352:32,1,70
384,32,64574,2,2,B|480:112,1,70
480,112,64991,5,0
368,112,65408,1,2
256,112,65824,2,0,B|160:112,1,70
128,112,66241,2,2,B|32:176,1,70
32,192,66658,5,0
144,192,67074,1,2
256,192,67491,2,0,B|352:192,1,70
384,192,67908,2,2,B|480:256,1,70
480,272,68324,5,0
368,272,68741,1,2
256,272,69158,1,4
144,272,69574,1,8
128,96,69991,6,0,B|192:32,1,70
128,96,70408,2,4,B|64:32,1,70
128,96,70824,2,2,B|64:160,1,70
128,96,71241,1,8
128,288,71658,6,0,B|208:368,1,70
128,288,72074,2,4,B|48:368,1,70
128,288,72491,2,2,B|64:224,1,70
128,288,72908,1,8
384,288,73324,6,0,B|448:224,1,70
384,288,73741,2,4,B|448:352,1,70
384,288,74158,2,2,B|320:352,1,70
384,288,74574,1,8
384,96,74991,6,0,B|320:32,1,70
384,96,75408,2,4,B|448:32,1,70
384,96,75824,2,2,B|448:160,1,70
384,96,76241,1,8
32,64,83324,5,0
32,176,83741,1,2
32,224,83949,1,0
32,272,84157,2,0,B|192:272,1,140,0|2
256,304,84991,5,0
256,208,85407,1,2
256,160,85616,1,0
256,112,85824,2,0,B|416:112,1,140,0|2
480,48,86657,5,0
480,160,87074,1,2
480,208,87282,1,0
480,256,87491,2,0,B|320:256,1,140,0|2
192,128,88324,6,0,B|288:128,1,70
320,128,88741,2,2,B|320:224,1,70
320,256,89157,2,4,B|224:256,1,70,4|2
192,256,89574,2,8,B|192:160,1,70
256,192,89991,12,0,91657
