osu file format v5

[General]
AudioFilename: KICK THE CAN - Copy.ogg
AudioLeadIn: 0
PreviewTime: -1
Countdown: 1
SampleSet: Normal
StackLeniency: 0.7
Mode: 0
LetterboxInBreaks: 1

[Editor]
Bookmarks: 6646
DistanceSpacing: 0.800000011920929
BeatDivisor: 2
GridSize: 16

[Metadata]
Title:Kick The Can
Artist:Bus Stop
Creator:NT1996
Version:Easy
Source:Dance Dance Revolution
Tags:Bus Stop Kick The Can DDR Dance Revolution Extreme

[Difficulty]
HPDrainRate:2
CircleSize:3
OverallDifficulty:2
SliderMultiplier:1.4
SliderTickRate:1

[Events]
//Background and Video events
0,0,"BusStop-KickTheCan.jpg"
//Break Periods
2,32680,45086
2,76013,81753
//Storyboard Layer 0 (Background)
//Storyboard Layer 1 (Fail)
//Storyboard Layer 2 (Pass)
//Storyboard Layer 3 (Foreground)
//Storyboard Sound Samples
//Background Colour Transformations
3,100,163,162,255

[TimingPoints]
1658,416.666666666667,4,1,0,100,1,0
19980,-100,4,1,0,100,0,1
32896,-100,4,1,0,100,0,0
63313,-100,4,1,0,100,0,1
76646,-100,4,1,0,100,0,0

[HitObjects]
128,64,6657,1,0
128,320,8324,1,2
384,320,9991,1,0
384,64,11658,1,2
256,192,12491,1,2
80,336,13324,6,4,B|80:48,1,280
256,64,14991,2,2,B|256:352,1,280
480,336,16658,1,0
480,112,17491,1,4
256,112,18324,2,4,B|192:112|192:112|192:16|192:16|320:16|320:16|320:112|320:112|320:176,1,420
208,176,19991,5,0
32,48,20824,5,2
32,160,21241,1,0
32,272,21657,1,4
256,272,22491,5,2
256,160,22907,1,0
256,48,23324,1,4
480,48,24157,5,2
480,160,24574,1,0
480,272,24991,1,4
256,192,25199,12,0,26658
368,80,27491,5,4
368,304,28324,1,2
160,304,29157,1,8
160,80,29991,1,0
384,80,30824,1,0
384,304,31657,5,2
272,304,32074,1,2
160,304,32491,1,2
256,96,46658,6,0,B|160:192|160:192|256:288|256:288|352:192,1,420
352,192,49991,6,2,B|256:96|256:96|160:192|160:192|256:288,1,420
256,96,53324,6,4,B|224:128|224:128|288:160|288:160|224:192|224:192|288:224|288:224|224:256|224:256|288:288|288:288|256:288,1,420
32,64,56658,5,0
256,64,57491,1,4
480,64,58324,1,2
256,64,59158,1,8
256,288,59991,5,0
144,288,60408,1,4
144,176,60824,1,2
256,176,61241,1,8
256,192,61658,12,0,62908
256,32,63324,5,4
256,256,64158,1,0
96,96,64991,5,2
208,96,65408,1,2
320,96,65824,1,2
416,288,66658,5,0
304,288,67074,1,0
192,288,67491,1,0
96,80,68324,5,4
208,80,68741,1,4
320,80,69158,1,4
256,288,69991,5,4
256,64,70824,1,0
32,32,71658,5,2
32,144,72074,1,2
32,32,72491,1,8
224,144,73324,5,0
224,256,73741,1,0
224,144,74158,1,4
432,224,74991,5,4
432,336,75408,1,8
432,224,75824,1,4
32,64,83324,6,0,B|480:64,1,420
480,176,84991,2,2,B|32:176,1,420
32,288,86657,2,4,B|192:288,1,140
288,288,87491,2,8,B|448:288,1,140
368,192,88324,5,4
144,192,89157,5,8
368,192,89991,5,4
256,192,90407,12,4,91657
