osu file format v9

[General]
AudioFilename: KICK THE CAN - Copy.ogg
AudioLeadIn: 0
PreviewTime: 6658
Countdown: 1
SampleSet: Normal
StackLeniency: 0.7
Mode: 0
LetterboxInBreaks: 1

[Editor]
Bookmarks: 6663,76658,83324,88324,89158,89991,90824,91658
DistanceSpacing: 1
BeatDivisor: 2
GridSize: 8

[Metadata]
Title:Kick The Can
Artist:Bus Stop
Creator:Emdyion
Version:Standard
Source:Dance Dance Revolution 4thMIX
Tags:DDR Extreme ShiroKitty cancan

[Difficulty]
HPDrainRate:3
CircleSize:4
OverallDifficulty:4
ApproachRate:5
SliderMultiplier:1.6
SliderTickRate:2

[Events]
//Background and Video events
0,0,"KICK THE CAN-bg.png"
//Break Periods
//Storyboard Layer 0 (Background)
//Storyboard Layer 1 (Fail)
//Storyboard Layer 2 (Pass)
//Storyboard Layer 3 (Foreground)
//Storyboard Sound Samples
//Background Colour Transformations
3,100,163,162,255

[TimingPoints]
15,416.666666666667,4,1,0,70,1,0
63351,-100,4,1,0,70,0,1
76473,-100,4,1,0,40,0,1
76605,-100,4,1,0,70,0,0
76684,-100,4,1,0,70,0,1
88324,-100,4,1,0,70,0,0
91658,-100,4,2,0,0,0,0

[Colours]
Combo1 : 0,0,255
Combo2 : 255,0,0
Combo3 : 192,192,192

[HitObjects]
176,32,6681,2,0,B|352:32,1,160,0|8
304,192,7515,1,0
368,240,7723,1,0
432,192,7931,1,8
336,320,8348,6,0,B|168:320,1,160,0|8
80,192,9181,1,0
144,240,9390,1,0
208,192,9598,1,8
256,40,10015,6,0,B|352:72|432:32,1,160,0|8
256,40,10848,2,0,B|160:72|80:32,1,160,0|8
152,192,11681,6,0,B|56:192,1,80,0|2
152,192,12098,2,0,B|104:280,1,80,8|2
152,192,12515,2,0,B|192:264,1,80,0|2
152,192,12931,2,0,B|248:192,1,80,8|2
256,112,13348,6,0,B|400:40|376:176,2,160,4|8|0
256,192,14390,1,0
256,272,14598,2,0,B|112:344|136:208,1,160,10|4
80,96,15431,5,8
128,32,15640,1,0
176,96,15848,1,2
336,96,16265,1,10
384,32,16473,1,0
432,96,16681,6,2,B|320:240,1,160,6|10
256,248,17306,1,0
178,222,17515,2,2,B|80:96,1,160,6|10
104,256,18348,5,4
256,312,18765,1,12
408,256,19181,1,4
176,40,20015,6,0,B|360:40,1,160,4|8
392,192,20848,1,0
472,192,21056,1,0
432,264,21265,1,8
336,136,21681,6,0,B|152:136,1,160,0|8
80,264,22515,1,0
40,192,22723,1,0
120,192,22931,1,8
208,328,23348,6,0,B|264:160,1,160,0|8
312,328,24181,2,0,B|256:160,1,160,0|8
320,120,24806,1,0
360,192,25015,6,0,B|456:192,1,80,0|2
360,192,25431,2,0,B|408:280,1,80,8|2
360,192,25848,2,0,B|320:264,1,80,0|2
360,192,26265,2,0,B|264:192,1,80,8|2
248,120,26681,6,0,B|144:120|144:256|248:256,1,160,4|8
256,192,27306,1,0
264,272,27515,2,0,B|368:272|368:136|264:136,1,160,0|10
480,112,28348,6,4,B|480:32|392:32|392:128,3,160,4|8|2|10
328,64,29806,1,0
264,120,30015,6,2,B|368:120|368:256|264:256,1,160,6|10
256,192,30640,1,0
248,272,30848,2,2,B|144:272|144:136|248:136,1,160,6|10
32,112,31681,6,4,B|32:32|120:32|120:128,3,160,4|12|4|8
136,272,33348,6,0,B|408:272,1,240
376,192,34181,1,0
256,88,34598,1,8
136,192,35015,1,0
56,56,35431,1,8
216,40,35848,5,0
296,40,36056,1,0
256,112,36265,1,8
416,112,36681,6,0,B|512:112|512:272|400:272,1,240
392,192,37515,1,0
256,112,37931,1,8
96,112,38348,6,0,B|0:112|0:272|112:272,1,240
120,192,39181,1,0
256,112,39598,1,8
320,264,40015,6,0,B|392:336|480:248,1,160,4|8
392,224,40640,1,0
464,184,40848,2,0,B|393:112|321:184,1,160,0|8
192,264,41681,6,0,B|120:336|32:248,1,160,4|8
120,224,42306,1,0
48,184,42515,2,0,B|118:112|190:184,1,160,0|8
256,32,43348,5,4
344,168,43765,1,8
256,304,44181,1,4
176,168,44598,1,8
256,192,45015,12,8,46265
416,192,46681,6,0,B|240:192,1,160,2|10
96,192,47515,2,0,B|272:192,1,160,2|10
392,112,48348,5,0
432,40,48556,1,0
352,40,48765,1,8
192,40,49181,1,0
32,40,49598,1,4
96,192,50015,6,0,B|272:192,1,160,2|10
416,192,50848,2,0,B|240:192,1,160,2|10
120,272,51681,5,0
80,344,51890,1,0
160,344,52098,1,8
320,344,52515,1,0
480,344,52931,1,4
408,192,53348,5,2
256,144,53765,1,10
104,192,54181,1,2
256,232,54598,1,10
328,88,55015,6,0,B|248:32|168:96,3,160,0|8|0|8
56,192,56681,5,4
112,344,57098,1,8
192,344,57306,1,0
256,296,57515,1,4
408,336,57931,5,8
408,256,58140,1,0
360,192,58348,1,4
400,40,58765,5,8
320,40,58973,1,0
256,88,59181,1,4
104,48,59598,5,8
104,128,59806,1,0
152,192,60015,1,4
256,192,60223,12,4,62515
256,40,63348,5,4
104,88,63765,1,8
216,200,64181,1,0
296,200,64390,1,0
256,128,64598,1,8
400,192,65015,6,0,B|488:352,2,160,0|8|0
360,264,66056,1,0
336,344,66265,1,8
176,344,66681,5,0
72,224,67098,1,8
152,224,67306,1,0
112,152,67515,1,0
256,80,67931,1,8
400,152,68348,5,0
360,224,68556,1,0
440,224,68765,1,8
344,352,69181,1,0
256,216,69598,1,8
168,352,70015,6,0,B|104:304|104:304|184:240,1,160,0|8
208,96,70848,2,0,B|256:32|256:32|320:112,1,160,0|8
344,253,71681,2,0,B|408:304|408:304|344:352,1,160,0|8
256,352,72306,1,0
256,272,72515,1,0
120,192,72931,1,8
256,104,73348,5,2
416,104,73765,1,8
336,240,74181,1,2
296,168,74390,1,0
376,168,74598,1,8
336,104,74806,1,0
336,24,75015,5,6
176,24,75431,1,10
40,112,75848,1,6
40,272,76265,2,0,B|40:176,1,80,8|0
120,192,76681,6,0,B|296:80,1,160,0|8
392,192,77515,2,0,B|216:304,1,160,0|8
176,280,78140,1,0
96,280,78348,6,0,B|32:192|120:112,2,160,2|10|2
256,280,79598,1,8
336,280,79806,1,0
416,280,80015,2,0,B|480:192|392:112,2,160,2|10|2
256,280,81265,1,8
256,120,81681,6,0,B|168:120,1,80,0|2
256,120,82098,2,0,B|208:40,1,80,8|2
256,120,82515,2,0,B|312:32,1,80,0|2
256,120,82931,2,0,B|352:120,1,80,8|2
376,184,83348,5,4
416,256,83556,1,0
336,256,83765,1,8
176,256,84181,1,0
96,256,84390,1,0
136,184,84598,1,8
112,24,85015,5,2
256,88,85431,1,10
400,24,85848,1,2
336,168,86265,1,8
176,168,86681,1,4
216,232,86890,5,0
296,232,87098,1,8
256,80,87515,1,4
392,168,87931,1,8
256,256,88348,6,0,B|256:168,1,80,0|2
256,256,88765,2,0,B|328:184,1,80,8|2
256,256,89181,2,0,B|352:256,1,80,0|2
256,256,89598,2,0,B|328:328,1,80,8|2
256,256,90015,2,0,B|256:352,1,80,0|2
256,256,90431,2,0,B|184:328,1,80,8|2
256,256,90848,2,0,B|176:256,1,80,0|0
256,256,91265,2,0,B|192:184,1,80,8|0
256,136,91681,5,4
