osu file format v9

[General]
AudioFilename: KICK THE CAN - Copy.ogg
AudioLeadIn: 0
PreviewTime: 6658
Countdown: 1
SampleSet: Normal
StackLeniency: 0.7
Mode: 0
LetterboxInBreaks: 1

[Editor]
Bookmarks: 6663,76658,83324,88324,89158,89991,90824,91658
DistanceSpacing: 0.9
BeatDivisor: 2
GridSize: 8

[Metadata]
Title:Kick The Can
Artist:Bus Stop
Creator:Emdyion
Version:Light
Source:Dance Dance Revolution 4thMIX
Tags:DDR Extreme ShiroKitty cancan

[Difficulty]
HPDrainRate:3
CircleSize:3
OverallDifficulty:3
ApproachRate:4
SliderMultiplier:1.6
SliderTickRate:1

[Events]
//Background and Video events
0,0,"KICK THE CAN-bg.png"
//Break Periods
//Storyboard Layer 0 (Background)
//Storyboard Layer 1 (Fail)
//Storyboard Layer 2 (Pass)
//Storyboard Layer 3 (Foreground)
//Storyboard Sound Samples
//Background Colour Transformations
3,100,163,162,255

[TimingPoints]
15,416.666666666667,4,1,0,70,1,0
46658,-200,4,1,0,70,0,0
54783,-100,4,1,0,70,0,0
63351,-100,4,1,0,70,0,1
76605,-100,4,1,0,70,0,0
76684,-100,4,1,0,70,0,1
88324,-100,4,1,0,70,0,0
91658,-200,4,2,0,0,0,0

[Colours]
Combo1 : 0,0,255
Combo2 : 255,0,0
Combo3 : 192,192,192

[HitObjects]
200,104,6681,2,0,B|120:32|24:136,2,160,0|8|0
256,240,7931,1,8
312,104,8348,2,0,B|392:32|488:136,2,160,0|8|0
256,240,9598,1,8
120,192,10015,5,0
184,64,10431,1,8
328,64,10848,1,0
392,192,11265,1,8
296,296,11681,6,0,B|200:296,3,80,0|2|8|2
216,224,12515,2,0,B|312:224,3,80,0|2|8|2
368,224,13348,5,4
448,104,13765,2,2,B|256:104,1,160,10|2
256,248,14598,2,0,B|256:344,2,80,8|0|4
224,104,15431,2,2,B|64:104,1,160,10|2
144,224,16265,1,8
256,192,16681,12,4,19181
472,48,20015,6,0,B|472:240,3,160,4|8|0|8
328,208,21681,2,2,B|328:40,3,160,2|10|2|10
184,48,23348,6,0,B|184:240,3,160,0|8|0|8
40,208,25015,2,2,B|40:40,3,160,2|10|2|10
128,160,26681,5,4
256,88,27098,1,8
384,160,27515,1,0
256,224,27931,1,10
384,288,28348,5,4
256,360,28765,1,8
128,288,29181,1,2
256,224,29598,1,10
120,168,30015,6,2,B|256:16|416:192,3,320,6|6|6|6
256,192,32931,5,8
176,312,33348,6,0,B|360:312,3,160,4|8|0|8
336,168,35015,2,0,B|152:168,3,160,0|8|0|8
48,104,36681,6,0,B|208:0,1,160,0|8
328,16,37515,2,0,B|462:103,1,160,0|8
376,224,38348,2,0,B|288:224,3,80,0|0|8|0
224,224,39181,2,0,B|136:224,3,80,2|0|10|0
80,192,40015,6,0,B|24:88|184:32,1,160,4|8
256,112,40848,2,0,B|256:16,2,80,0|0|8
387,58,41681,2,0,B|488:88|432:192,1,160,4|8
296,192,42515,2,0,B|192:192,2,80,0|0|8
416,272,43348,6,4,B|88:272,2,320
400,128,45431,1,4
256,128,45848,1,4
112,128,46265,1,8
216,32,46681,6,2,B|320:32,3,80,2|2|2|2
400,128,48348,5,4
256,160,48765,1,8
112,192,49181,1,4
72,328,49598,1,8
216,352,50015,6,2,B|320:352,3,80,2|2|2|2
400,256,51681,5,4
256,256,52098,1,8
112,256,52515,1,4
256,256,52931,1,8
384,192,53348,6,2,B|480:192,3,80,2|2|2|2
320,192,55015,5,4
256,64,55431,1,8
184,192,55848,1,4
256,320,56265,1,8
344,200,56681,6,0,B|240:72,1,160,0|8
176,200,57515,2,0,B|72:72,1,160,4|8
176,200,58348,6,0,B|280:72,1,160,4|8
344,200,59181,2,0,B|448:72,1,160,4|8
256,192,60015,12,4,62931
192,192,63348,6,0,B|56:72,2,160,4|8|0
256,320,64598,1,8
320,192,65015,2,2,B|456:72,2,160,2|10|0
256,320,66265,1,8
112,288,66681,6,0,B|64:176|224:192,1,160,4|8
328,192,67515,2,0,B|450:177|402:289,1,160,0|8
336,352,68348,2,0,B|168:352,2,160,0|8|0
392,248,69598,1,2
256,192,70015,5,4
328,72,70431,2,0,B|280:112|216:16|176:72,2,160,8|2|8
256,192,71681,1,4
184,312,72098,2,0,B|232:272|296:368|336:312,2,160,8|2|8
256,192,73348,12,4,76265
256,48,76681,6,0,B|432:48,2,160,4|8|2
256,192,77931,1,8
256,336,78348,2,0,B|80:336,2,160,4|8|2
256,192,79598,1,8
392,248,80015,5,0
328,376,80431,1,8
184,376,80848,1,2
120,248,81265,1,8
216,136,81681,6,0,B|312:136,3,80,4|2|8|2
296,208,82515,2,0,B|200:208,3,80,4|2|8|2
144,192,83348,5,0
256,280,83765,2,0,B|256:368,2,80,8|2|0
368,192,84598,1,2
368,192,85015,1,6
256,104,85431,2,0,B|256:16,2,80,8|2|0
144,192,86265,1,2
144,192,86681,1,6
256,280,87098,6,0,B|256:96,2,160,10|2|10
368,192,88348,1,4
256,192,88556,12,4,90848
256,112,91265,6,0,B|256:296,1,160,8|4
