osu file format v9

[General]
AudioFilename: KICK THE CAN - Copy.ogg
AudioLeadIn: 0
PreviewTime: 6658
Countdown: 1
SampleSet: Normal
StackLeniency: 0.7
Mode: 0
LetterboxInBreaks: 1

[Editor]
Bookmarks: 6663,29991,76658,83324,88324,89158,89991,90824,91658
DistanceSpacing: 0.8
BeatDivisor: 2
GridSize: 8

[Metadata]
Title:Kick The Can
Artist:Bus Stop
Creator:Emdyion
Version:Beginner
Source:Dance Dance Revolution 4thMIX
Tags:DDR Extreme ShiroKitty cancan

[Difficulty]
HPDrainRate:3
CircleSize:3
OverallDifficulty:3
ApproachRate:3
SliderMultiplier:1
SliderTickRate:1

[Events]
//Background and Video events
0,0,"KICK THE CAN-bg.png"
//Break Periods
//Storyboard Layer 0 (Background)
//Storyboard Layer 1 (Fail)
//Storyboard Layer 2 (Pass)
//Storyboard Layer 3 (Foreground)
//Storyboard Sound Samples
//Background Colour Transformations
3,100,163,162,255

[TimingPoints]
15,416.666666666667,4,1,0,70,1,0
54783,-100,4,1,0,70,0,0
63351,-100,4,1,0,70,0,1
76605,-100,4,1,0,70,0,0
76684,-100,4,1,0,70,0,1
88324,-100,4,1,0,70,0,0
91658,-200,4,2,0,0,0,0

[Colours]
Combo1 : 0,0,255
Combo2 : 255,0,0
Combo3 : 192,192,192

[HitObjects]
88,32,6681,1,4
88,192,7515,1,8
88,352,8348,1,0
408,352,10015,5,0
408,192,10848,1,8
408,32,11681,2,2,B|96:32,1,300
104,112,13348,5,4
256,152,14181,1,8
408,112,15015,1,0
96,192,16681,5,0
256,224,17515,1,8
416,192,18348,1,4
96,136,20015,6,4,B|208:-16|304:-16|432:168,1,400,4|0
256,192,22515,1,8
96,248,23348,6,0,B|208:400|304:400|432:216,1,400
256,192,25848,1,8
312,32,26681,6,4,B|464:144|464:240|280:368,1,400,4|0
256,192,29181,1,8
200,352,30015,6,0,B|48:240|48:144|232:16,1,400
256,192,32515,1,8
392,104,33348,6,0,B|304:32|208:32|96:120,1,300,0|8
120,184,35015,2,0,B|208:256|304:256|416:168,1,300,0|8
440,248,36681,2,0,B|352:344|168:344|56:240,1,400,0|0
72,176,38765,2,0,B|0:88,2,100,2|8|2
104,104,40015,6,0,B|424:104,1,300,4|8
400,184,41681,2,0,B|80:184,1,300,0|8
96,264,43348,5,4
256,296,44181,1,4
416,272,45015,1,4
336,272,45431,1,4
376,344,45848,1,4
416,272,46265,1,8
400,192,46681,6,2,B|88:192,1,300
104,112,48348,5,4
256,48,49181,1,4
336,56,49598,1,0
400,104,50015,6,2,B|480:272|264:368,1,300
256,288,51681,5,4
112,360,52515,1,4
40,328,52931,1,0
104,280,53348,6,2,B|24:112|240:16,1,300
256,96,55015,5,4
256,256,55848,1,4
256,256,56265,1,0
176,280,56681,6,4,B|96:192|192:80,1,200
336,104,58348,6,4,B|416:192|320:304,1,200
256,192,60015,12,4,62515
160,344,63348,6,0,B|384:344,1,200,4|8
416,288,64598,1,0
360,232,65015,6,0,B|136:232,1,200,0|8
88,192,66265,1,0
160,152,66681,6,0,B|384:152,1,200,0|8
416,96,67931,1,0
360,40,68348,6,2,B|136:40,2,200,2|2|6
416,192,70848,5,8
416,192,71265,1,0
416,192,71681,2,0,B|304:192|240:320,1,200,0|8
96,192,73348,2,0,B|208:192|272:320,1,200,0|8
256,136,75015,5,0
256,136,75431,1,0
256,136,75848,1,4
256,136,76265,1,8
288,64,76681,6,0,B|496:64,1,200,4|0
488,144,77931,1,8
408,144,78348,2,0,B|272:144,2,100,2|2|0
408,224,79598,1,8
408,304,80015,6,0,B|272:304,2,100,2|2|0
408,224,81265,1,8
360,160,81681,6,2,B|144:160,2,200,2|2|4
248,272,84181,5,0
168,272,84598,1,8
88,272,85015,2,0,B|16:352,2,100,2|2|0
88,192,86265,5,8
88,112,86681,2,0,B|16:32,2,100,2|2|0
88,192,87931,1,8
256,192,88348,12,4,91681
