osu file format v5

[General]
AudioFilename: Bus Gamer - Ending.mp3
AudioLeadIn: 0
AudioHash: b536b91d40d7a7f4458ef30a7659b2bf
PreviewTime: -1
Countdown: 1
SampleSet: Normal

[Metadata]
Title:Ending
Artist:Bus Gamer
Creator:EiJi
Version:Normal

[Difficulty]
HPDrainRate:5
CircleSize:5
OverallDifficulty:5
SliderMultiplier:1.2
SliderTickRate:2

[Events]
//Background and Video events
1,-50,"ed.avi"
//Break Periods
//Storyboard Layer 0 (Background)
//Storyboard Layer 1 (Failing)
//Storyboard Layer 2 (Passing)
//Storyboard Layer 3 (Foreground)
//Storyboard Sound Samples
//Background Colour Transformations
3,100,13,12,20

[TimingPoints]
5833,363.641641337386,4,1,0,100

[HitObjects]
96,136,5833,2,0,L|96:136|232:136,1,120
296,136,6560,1,0
296,136,6742,1,0
296,136,6923,1,0
376,136,7287,6,0,L|376:136|376:264,1,120
336,256,7833,2,0,L|336:256|208:256|200:248|200:184,1,180
200,168,8560,1,0
88,88,9469,5,0
88,88,9651,1,0
88,88,9833,1,0
168,88,10196,2,0,L|168:88|192:88|200:104|200:192,1,120
200,224,10742,2,0,L|200:224|232:224|240:216|240:72,1,180
280,80,11469,1,0
384,296,12378,5,0
384,296,12560,1,0
384,296,12742,1,0
296,296,13105,2,0,L|296:296|160:296,1,120
176,208,13833,2,0,L|176:208|296:208,1,120
296,120,14560,2,0,L|296:120|176:120|160:128|160:184,1,180
160,296,15651,1,0
256,192,16014,12,0,17469
112,64,18924,2,0,L|112:64|112:200,1,120
152,184,19469,2,0,L|152:184|344:184,1,180
328,144,20196,1,0
160,264,21105,5,0
160,264,21287,1,0
160,264,21469,1,0
240,264,21833,1,0
280,264,22015,2,0,L|280:264|344:264|352:240|368:200,1,120
400,88,22924,1,0
256,192,23105,12,0,24015
104,112,24742,6,0,L|104:112|240:112,2,120
168,160,25833,1,0
232,208,26196,2,0,L|232:208|88:208|88:216|88:256,1,180
216,256,27287,1,0
296,256,27651,1,0
152,56,29106,6,0,L|152:56|48:128,1,120
104,192,29833,2,0,L|104:192|200:120,1,120
256,184,30560,2,0,L|256:184|152:264,1,120
128,280,31106,1,0
336,304,32015,5,0
400,248,32378,1,0
336,192,32742,1,0
280,256,33106,1,0
216,200,33469,1,0
272,136,33833,1,0
272,136,34015,1,0
168,320,34924,5,0
232,264,35287,2,0,L|232:264|144:168,1,120
216,120,36015,1,0
280,64,36378,2,0,L|280:64|368:160,1,120
384,184,36924,2,0,L|384:184|208:288,1,180
256,192,37833,12,0,42015
160,184,43106,2,0,L|160:184|160:104,3,60
240,128,44015,1,0
280,128,44197,2,0,L|280:128|280:256,2,120
432,328,46015,6,0,L|432:328|368:328,3,60
288,328,46924,1,0
248,328,47106,2,0,L|248:328|112:328,2,120
80,88,49106,5,0
136,152,49469,2,0,L|136:152|216:248,1,120
240,272,50015,1,0
368,272,50560,6,0,L|368:272|512:272,2,120
328,272,51470,1,0
200,272,52015,6,0,L|200:272|72:272,2,120
240,272,52924,1,0
320,272,53288,2,0,L|320:272|176:272,1,120
304,40,54742,6,0,L|304:40|304:104,3,60
304,184,55651,1,0
304,224,55833,2,0,L|304:224|160:224,2,120
56,264,57651,6,0,L|56:264|128:264,3,60
200,264,58561,1,0
240,264,58742,2,0,L|240:264|368:264,1,120
440,264,59470,1,0
144,264,60742,5,0
224,264,61106,1,0
304,264,61470,1,0
344,264,61651,1,0
352,136,62197,5,0
264,136,62561,1,0
176,136,62924,1,0
136,136,63106,1,0
136,280,63652,6,0,L|136:280|216:280,2,60
136,184,64379,1,0
184,184,64561,2,0,L|184:184|304:184,1,120
400,184,65288,2,0,L|400:184|400:280|400:296|392:304|312:304,1,180
288,304,66015,2,0,L|288:304|248:304|240:296|240:216,1,120
368,160,66924,6,0,L|368:160|296:160|288:160|280:152|280:96,1,120
184,112,67652,1,0
88,112,68015,1,0
88,208,68379,2,0,L|88:208|88:256|96:264|160:264,1,120
248,264,69106,1,0
344,264,69470,1,0
256,192,69833,12,0,72015
128,96,72743,2,0,L|128:96|256:96,2,120
128,192,73833,2,0,L|128:192|128:320,2,120
128,96,74924,2,0,L|128:96|-16:96,2,120
320,104,76379,2,0,L|320:104|320:120|320:352,2,240
128,64,78561,5,0
128,112,78743,2,0,L|128:112|128:184,1,60
128,264,79288,5,0
176,264,79470,2,0,L|176:264|240:264,5,60
328,264,80743,5,0
376,264,80924,2,0,L|376:264|448:264,1,60
256,192,81470,12,0,87288
