osu file format v13

[General]
AudioFilename: The fancy of Four Leaf Clover(Piano ver.).mp3
AudioLeadIn: 0
PreviewTime: 79055
Countdown: 1
SampleSet: None
StackLeniency: 0.7
Mode: 0
LetterboxInBreaks: 1
WidescreenStoryboard: 1

[Editor]
DistanceSpacing: 1
BeatDivisor: 4
GridSize: 8
TimelineZoom: 1

[Metadata]
Title:The fancy of Four Leaf Clover
TitleUnicode:四叶草的幻想
Artist:Bury
ArtistUnicode:埋葬
Creator:Elinia
Version:AR9.7 OD9
Source:
Tags:piano jump practice si ye cao de huan xiang siyecao huanxiang
BeatmapID:445119
BeatmapSetID:180708

[Difficulty]
HPDrainRate:8
CircleSize:4
OverallDifficulty:9
ApproachRate:9.7
SliderMultiplier:2.5
SliderTickRate:1

[Events]
//Background and Video events
//Break Periods
//Storyboard Layer 0 (Background)
//Storyboard Layer 1 (Fail)
//Storyboard Layer 2 (Pass)
//Storyboard Layer 3 (Foreground)
//Storyboard Sound Samples
//Background Colour Transformations
3,100,163,162,255

[TimingPoints]
2405.82472852095,600,4,2,0,70,1,0
79205,-100,4,2,0,70,0,1
103205,-100,4,2,0,70,0,0
151205,-100,4,2,0,70,0,1
184805,-100,4,2,0,70,0,0

[HitObjects]
144,104,2405,5,0,0:0:0:0:
48,208,2555,1,0,0:0:0:0:
144,104,2705,1,0,0:0:0:0:
72,256,2855,1,0,0:0:0:0:
168,344,3005,2,0,P|224:360|296:360,1,125
472,64,3605,2,0,P|480:136|464:200,1,125
376,272,4205,1,0,0:0:0:0:
196,251,4805,6,0,P|208:312|248:360,1,125
344,256,5405,1,0,0:0:0:0:
312,128,5705,1,0,0:0:0:0:
400,32,6005,2,0,P|448:80|472:144,1,125
328,192,6605,1,0,0:0:0:0:
216,88,7205,5,0,0:0:0:0:
360,112,7355,1,0,0:0:0:0:
216,88,7505,1,0,0:0:0:0:
376,168,7655,1,0,0:0:0:0:
456,232,7805,2,0,P|432:296|376:344,1,125
72,224,8405,5,0,0:0:0:0:
216,320,8555,1,0,0:0:0:0:
120,224,8705,1,0,0:0:0:0:
216,320,8855,1,0,0:0:0:0:
288,176,9005,2,0,P|344:224|360:280,1,125
280,320,9605,5,0,0:0:0:0:
384,56,9905,1,0,0:0:0:0:
104,96,10205,1,0,0:0:0:0:
104,96,10805,5,0,0:0:0:0:
152,296,11105,1,0,0:0:0:0:
312,160,11405,1,0,0:0:0:0:
440,72,12005,5,0,0:0:0:0:
272,112,12155,1,0,0:0:0:0:
440,72,12305,1,0,0:0:0:0:
312,160,12455,1,0,0:0:0:0:
480,216,12605,2,0,P|456:288|408:328,1,125
160,344,13205,2,0,P|176:284|218:239,1,125
480,216,13805,2,0,P|456:288|408:328,1,125
240,336,14405,5,0,0:0:0:0:
126,283,14705,1,0,0:0:0:0:
179,169,15005,1,0,0:0:0:0:
292,222,15305,1,0,0:0:0:0:
240,336,15605,5,0,0:0:0:0:
409,280,15905,1,0,0:0:0:0:
348,113,16205,1,0,0:0:0:0:
264,144,16355,1,0,0:0:0:0:
179,169,16505,1,0,0:0:0:0:
64,104,16805,5,0,0:0:0:0:
64,280,16955,1,0,0:0:0:0:
120,136,17105,1,0,0:0:0:0:
64,280,17255,1,0,0:0:0:0:
256,280,17405,1,0,0:0:0:0:
448,280,17705,1,0,0:0:0:0:
352,112,18005,1,0,0:0:0:0:
256,280,18605,1,0,0:0:0:0:
200,40,19205,5,0,0:0:0:0:
360,56,19805,5,0,0:0:0:0:
360,328,20105,1,0,0:0:0:0:
113,192,20405,1,0,0:0:0:0:
256,192,20443,12,0,21605,0:0:0:0:
168,216,21905,5,0,0:0:0:0:
257,172,22055,1,0,0:0:0:0:
256,72,22205,1,0,0:0:0:0:
257,172,22355,1,0,0:0:0:0:
344,216,22505,1,0,0:0:0:0:
257,172,22655,1,0,0:0:0:0:
168,216,22805,1,0,0:0:0:0:
344,216,22955,1,0,0:0:0:0:
257,172,23105,1,0,0:0:0:0:
256,72,23255,1,0,0:0:0:0:
257,172,23405,1,0,0:0:0:0:
256,72,23555,1,0,0:0:0:0:
256,272,23705,1,0,0:0:0:0:
256,72,23855,1,0,0:0:0:0:
256,272,24005,1,0,0:0:0:0:
440,32,24305,5,0,0:0:0:0:
333,121,24455,1,0,0:0:0:0:
464,168,24605,1,0,0:0:0:0:
256,72,25055,5,0,0:0:0:0:
256,272,25205,1,0,0:0:0:0:
72,32,25505,5,0,0:0:0:0:
179,121,25655,1,0,0:0:0:0:
48,168,25805,1,0,0:0:0:0:
120,304,25955,1,0,0:0:0:0:
104,176,26105,1,0,0:0:0:0:
120,304,26255,1,0,0:0:0:0:
272,296,26405,5,0,0:0:0:0:
424,261,26555,1,0,0:0:0:0:
424,104,26705,1,0,0:0:0:0:
424,104,26855,1,0,0:0:0:0:
272,296,27005,5,0,0:0:0:0:
424,261,27155,1,0,0:0:0:0:
424,104,27305,1,0,0:0:0:0:
272,152,27455,1,0,0:0:0:0:
272,296,27605,5,0,0:0:0:0:
424,261,27755,1,0,0:0:0:0:
424,104,27905,1,0,0:0:0:0:
424,104,28055,1,0,0:0:0:0:
272,296,28205,5,0,0:0:0:0:
424,261,28355,1,0,0:0:0:0:
424,104,28505,1,0,0:0:0:0:
272,152,28655,1,0,0:0:0:0:
160,272,28805,5,0,0:0:0:0:
200,128,28955,1,0,0:0:0:0:
200,128,29105,1,0,0:0:0:0:
160,272,29255,1,0,0:0:0:0:
336,64,29405,1,0,0:0:0:0:
424,328,29705,1,0,0:0:0:0:
328,264,30005,5,0,0:0:0:0:
184,216,30155,1,0,0:0:0:0:
184,216,30305,1,0,0:0:0:0:
328,264,30455,1,0,0:0:0:0:
176,96,30605,1,0,0:0:0:0:
88,304,30905,2,0,L|128:352,1,62.5
64,176,31205,5,0,0:0:0:0:
456,32,31505,1,0,0:0:0:0:
64,176,32105,5,0,0:0:0:0:
128,224,32405,1,0,0:0:0:0:
456,32,32705,1,0,0:0:0:0:
128,224,33305,5,0,0:0:0:0:
168,288,33605,1,0,0:0:0:0:
456,32,33905,1,0,0:0:0:0:
184,368,34505,5,0,0:0:0:0:
128,224,34805,1,0,0:0:0:0:
456,32,35105,1,0,0:0:0:0:
216,152,35405,1,0,0:0:0:0:
448,296,35705,1,0,0:0:0:0:
216,304,36005,5,0,0:0:0:0:
56,32,36305,1,0,0:0:0:0:
216,304,36905,5,0,0:0:0:0:
344,320,37205,1,0,0:0:0:0:
80,136,37505,1,0,0:0:0:0:
344,320,38105,5,0,0:0:0:0:
472,344,38405,1,0,0:0:0:0:
176,56,39005,5,0,0:0:0:0:
472,344,39305,1,0,0:0:0:0:
344,320,39605,1,0,0:0:0:0:
120,64,40205,5,0,0:0:0:0:
120,64,40505,5,0,0:0:0:0:
120,64,40655,1,0,0:0:0:0:
16,256,40805,5,0,0:0:0:0:
120,64,40955,1,0,0:0:0:0:
80,291,41105,5,0,0:0:0:0:
120,64,41255,1,0,0:0:0:0:
152,288,41405,5,0,0:0:0:0:
120,64,41555,1,0,0:0:0:0:
216,256,41705,5,0,0:0:0:0:
120,64,41855,1,0,0:0:0:0:
216,256,42005,5,0,0:0:0:0:
189,41,42155,1,0,0:0:0:0:
216,256,42305,5,0,0:0:0:0:
261,45,42455,1,0,0:0:0:0:
216,256,42605,5,0,0:0:0:0:
324,82,42755,1,0,0:0:0:0:
216,256,42905,5,0,0:0:0:0:
370,139,43055,1,0,0:0:0:0:
312,232,43205,5,0,0:0:0:0:
416,368,43355,1,0,0:0:0:0:
352,208,43505,1,0,0:0:0:0:
384,56,43655,1,0,0:0:0:0:
256,208,43805,5,0,0:0:0:0:
400,312,43955,1,0,0:0:0:0:
288,176,44105,1,0,0:0:0:0:
272,16,44255,1,0,0:0:0:0:
192,216,44405,5,0,0:0:0:0:
352,272,44555,1,0,0:0:0:0:
208,176,44705,1,0,0:0:0:0:
144,16,44855,1,0,0:0:0:0:
136,248,45005,5,0,0:0:0:0:
272,304,45155,1,0,0:0:0:0:
128,192,45305,1,0,0:0:0:0:
0,88,45455,1,0,0:0:0:0:
136,16,45605,5,0,0:0:0:0:
32,152,45755,1,0,0:0:0:0:
136,288,45905,1,0,0:0:0:0:
184,64,46055,1,0,0:0:0:0:
184,64,46205,5,0,0:0:0:0:
80,200,46355,1,0,0:0:0:0:
184,336,46505,1,0,0:0:0:0:
232,112,46655,1,0,0:0:0:0:
232,112,46805,5,0,0:0:0:0:
128,248,46955,1,0,0:0:0:0:
232,384,47105,1,0,0:0:0:0:
280,160,47255,1,0,0:0:0:0:
400,48,47405,5,0,0:0:0:0:
480,176,47555,1,0,0:0:0:0:
424,312,47705,1,0,0:0:0:0:
336,192,47855,1,0,0:0:0:0:
232,40,48005,5,0,0:0:0:0:
96,112,48155,1,0,0:0:0:0:
240,192,48305,1,0,0:0:0:0:
152,320,48455,1,0,0:0:0:0:
184,104,48605,5,0,0:0:0:0:
376,144,48755,1,0,0:0:0:0:
240,192,48905,1,0,0:0:0:0:
312,336,49055,1,0,0:0:0:0:
280,152,49205,5,0,0:0:0:0:
240,352,49355,1,0,0:0:0:0:
80,264,49505,1,0,0:0:0:0:
80,264,49655,1,0,0:0:0:0:
344,168,49805,5,0,0:0:0:0:
184,312,49955,1,0,0:0:0:0:
56,168,50105,1,0,0:0:0:0:
16,368,50255,1,0,0:0:0:0:
496,256,50405,5,0,0:0:0:0:
392,64,50555,1,0,0:0:0:0:
432,291,50705,5,0,0:0:0:0:
392,64,50855,1,0,0:0:0:0:
360,288,51005,5,0,0:0:0:0:
392,64,51155,1,0,0:0:0:0:
296,256,51305,5,0,0:0:0:0:
392,64,51455,1,0,0:0:0:0:
296,256,51605,5,0,0:0:0:0:
323,41,51755,1,0,0:0:0:0:
296,256,51905,5,0,0:0:0:0:
251,45,52055,1,0,0:0:0:0:
296,256,52205,5,0,0:0:0:0:
188,82,52355,1,0,0:0:0:0:
296,256,52505,5,0,0:0:0:0:
142,139,52655,1,0,0:0:0:0:
200,232,52805,5,0,0:0:0:0:
96,368,52955,1,0,0:0:0:0:
160,208,53105,1,0,0:0:0:0:
128,56,53255,1,0,0:0:0:0:
256,208,53405,5,0,0:0:0:0:
112,312,53555,1,0,0:0:0:0:
224,176,53705,1,0,0:0:0:0:
240,16,53855,1,0,0:0:0:0:
320,216,54005,5,0,0:0:0:0:
160,272,54155,1,0,0:0:0:0:
304,176,54305,1,0,0:0:0:0:
368,16,54455,1,0,0:0:0:0:
376,248,54605,5,0,0:0:0:0:
240,304,54755,1,0,0:0:0:0:
384,192,54905,1,0,0:0:0:0:
512,88,55055,1,0,0:0:0:0:
376,16,55205,5,0,0:0:0:0:
480,152,55355,1,0,0:0:0:0:
376,288,55505,1,0,0:0:0:0:
328,64,55655,1,0,0:0:0:0:
328,64,55805,5,0,0:0:0:0:
432,200,55955,1,0,0:0:0:0:
328,336,56105,1,0,0:0:0:0:
280,112,56255,1,0,0:0:0:0:
280,112,56405,5,0,0:0:0:0:
384,248,56555,1,0,0:0:0:0:
280,384,56705,1,0,0:0:0:0:
232,160,56855,1,0,0:0:0:0:
112,48,57005,5,0,0:0:0:0:
32,176,57155,1,0,0:0:0:0:
88,312,57305,1,0,0:0:0:0:
176,192,57455,1,0,0:0:0:0:
280,40,57605,5,0,0:0:0:0:
416,112,57755,1,0,0:0:0:0:
272,192,57905,1,0,0:0:0:0:
360,320,58055,1,0,0:0:0:0:
328,104,58205,5,0,0:0:0:0:
136,144,58355,1,0,0:0:0:0:
272,192,58505,1,0,0:0:0:0:
200,336,58655,1,0,0:0:0:0:
232,152,58805,5,0,0:0:0:0:
272,352,58955,1,0,0:0:0:0:
432,264,59105,1,0,0:0:0:0:
432,264,59255,1,0,0:0:0:0:
168,168,59405,5,0,0:0:0:0:
328,312,59555,1,0,0:0:0:0:
456,168,59705,1,0,0:0:0:0:
496,368,59855,1,0,0:0:0:0:
256,320,60005,6,0,L|256:256,1,62.5
128,192,60305,2,0,L|192:192,1,62.5
256,64,60605,2,0,L|256:128,1,62.5
384,192,60905,2,0,L|320:192,1,62.5
384,320,61205,6,0,L|336:272,1,62.5
384,64,61505,2,0,L|336:112,1,62.5
128,64,61805,2,0,L|176:112,1,62.5
128,320,62105,2,0,L|176:272,1,62.5
440,192,62405,5,0,0:0:0:0:
504,320,62555,1,0,0:0:0:0:
376,192,62705,1,0,0:0:0:0:
312,64,62855,1,0,0:0:0:0:
320,192,63005,5,0,0:0:0:0:
384,320,63155,1,0,0:0:0:0:
256,192,63305,1,0,0:0:0:0:
192,64,63455,1,0,0:0:0:0:
72,192,63605,5,0,0:0:0:0:
8,320,63755,1,0,0:0:0:0:
136,192,63905,1,0,0:0:0:0:
200,64,64055,1,0,0:0:0:0:
192,192,64205,5,0,0:0:0:0:
128,320,64355,1,0,0:0:0:0:
256,192,64505,1,0,0:0:0:0:
320,64,64655,1,0,0:0:0:0:
368,80,64805,5,0,0:0:0:0:
368,304,64955,1,0,0:0:0:0:
144,304,65105,1,0,0:0:0:0:
144,80,65255,1,0,0:0:0:0:
144,80,65405,5,0,0:0:0:0:
144,304,65555,1,0,0:0:0:0:
368,304,65705,1,0,0:0:0:0:
368,80,65855,1,0,0:0:0:0:
368,80,66005,5,0,0:0:0:0:
368,304,66155,1,0,0:0:0:0:
144,304,66305,1,0,0:0:0:0:
144,80,66455,1,0,0:0:0:0:
144,80,66605,5,0,0:0:0:0:
144,304,66755,1,0,0:0:0:0:
368,304,66905,1,0,0:0:0:0:
368,80,67055,1,0,0:0:0:0:
256,40,67205,5,0,0:0:0:0:
408,192,67355,1,0,0:0:0:0:
256,344,67505,1,0,0:0:0:0:
104,192,67655,1,0,0:0:0:0:
256,40,67805,5,0,0:0:0:0:
408,192,67955,1,0,0:0:0:0:
256,344,68105,1,0,0:0:0:0:
104,192,68255,1,0,0:0:0:0:
256,40,68405,5,0,0:0:0:0:
104,192,68555,1,0,0:0:0:0:
256,344,68705,1,0,0:0:0:0:
408,192,68855,1,0,0:0:0:0:
256,40,69005,5,0,0:0:0:0:
104,192,69155,1,0,0:0:0:0:
256,344,69305,2,0,L|312:304,1,62.5
48,328,69605,5,0,0:0:0:0:
176,40,69755,1,0,0:0:0:0:
112,288,69905,5,0,0:0:0:0:
176,40,70055,1,0,0:0:0:0:
152,224,70205,5,0,0:0:0:0:
176,40,70355,1,0,0:0:0:0:
162,148,70505,5,0,0:0:0:0:
176,40,70655,1,0,0:0:0:0:
162,148,70805,5,0,0:0:0:0:
176,40,70955,1,0,0:0:0:0:
152,224,71105,5,0,0:0:0:0:
176,40,71255,1,0,0:0:0:0:
178,296,71405,5,0,0:0:0:0:
176,40,71555,1,0,0:0:0:0:
234,349,71705,5,0,0:0:0:0:
176,40,71855,1,0,0:0:0:0:
152,336,72005,5,0,0:0:0:0:
424,136,72155,1,0,0:0:0:0:
87,136,72305,1,0,0:0:0:0:
360,336,72455,1,0,0:0:0:0:
256,14,72605,1,0,0:0:0:0:
360,336,73205,5,0,0:0:0:0:
88,136,73355,1,0,0:0:0:0:
424,136,73505,1,0,0:0:0:0:
152,336,73655,1,0,0:0:0:0:
255,14,73805,1,0,0:0:0:0:
176,64,74405,5,0,0:0:0:0:
256,160,74555,1,0,0:0:0:0:
128,272,74705,1,0,0:0:0:0:
224,192,74855,1,0,0:0:0:0:
256,224,75005,1,0,0:0:0:0:
336,320,75155,1,0,0:0:0:0:
288,192,75305,1,0,0:0:0:0:
384,112,75455,1,0,0:0:0:0:
176,64,75605,6,0,L|104:40,1,62.5
128,272,75905,2,0,L|104:344,1,62.5
336,320,76205,2,0,L|408:344,1,62.5
384,112,76505,2,0,L|408:40,1,62.5
336,64,76805,5,0,0:0:0:0:
256,160,76955,1,0,0:0:0:0:
384,272,77105,1,0,0:0:0:0:
288,192,77255,1,0,0:0:0:0:
256,224,77405,1,0,0:0:0:0:
176,320,77555,1,0,0:0:0:0:
224,192,77705,1,0,0:0:0:0:
128,112,77855,1,0,0:0:0:0:
336,64,78005,6,0,L|408:40,1,62.5
384,272,78305,2,0,L|408:344,1,62.5
176,320,78605,2,0,L|104:344,1,62.5
128,112,78905,2,0,L|104:40,1,62.5
432,64,79205,5,0,0:0:0:0:
368,304,79355,1,0,0:0:0:0:
272,104,79505,1,0,0:0:0:0:
312,344,79655,1,0,0:0:0:0:
64,104,79805,1,0,0:0:0:0:
16,240,79955,1,0,0:0:0:0:
64,376,80105,1,0,0:0:0:0:
200,328,80255,1,0,0:0:0:0:
256,232,80405,5,0,0:0:0:0:
496,320,80555,1,0,0:0:0:0:
352,272,80705,1,0,0:0:0:0:
280,40,80855,1,0,0:0:0:0:
488,88,81005,1,0,0:0:0:0:
360,40,81155,1,0,0:0:0:0:
312,168,81305,1,0,0:0:0:0:
440,216,81455,1,0,0:0:0:0:
320,344,81605,6,0,L|256:320,1,62.5
96,304,81905,1,0,0:0:0:0:
16,96,82055,1,0,0:0:0:0:
152,32,82205,1,0,0:0:0:0:
56,216,82355,1,0,0:0:0:0:
256,168,82505,1,0,0:0:0:0:
192,352,82655,1,0,0:0:0:0:
368,184,82805,5,0,0:0:0:0:
440,352,82955,1,0,0:0:0:0:
360,248,83105,1,0,0:0:0:0:
424,64,83255,1,0,0:0:0:0:
264,120,83405,1,0,0:0:0:0:
296,296,83555,1,0,0:0:0:0:
112,176,83705,1,0,0:0:0:0:
240,352,83855,1,0,0:0:0:0:
392,320,84005,5,0,0:0:0:0:
488,136,84155,1,0,0:0:0:0:
472,264,84305,1,0,0:0:0:0:
320,104,84455,1,0,0:0:0:0:
120,56,84605,1,0,0:0:0:0:
184,248,84755,1,0,0:0:0:0:
216,144,84905,1,0,0:0:0:0:
192,360,85055,1,0,0:0:0:0:
48,296,85205,5,0,0:0:0:0:
240,232,85355,1,0,0:0:0:0:
80,168,85505,1,0,0:0:0:0:
224,32,85655,1,0,0:0:0:0:
456,24,85805,1,0,0:0:0:0:
312,144,85955,1,0,0:0:0:0:
464,144,86105,1,0,0:0:0:0:
432,304,86255,1,0,0:0:0:0:
248,344,86405,6,0,L|200:296,1,62.5
48,240,86705,1,0,0:0:0:0:
168,48,86855,1,0,0:0:0:0:
176,168,87005,1,0,0:0:0:0:
328,296,87155,1,0,0:0:0:0:
288,168,87305,1,0,0:0:0:0:
392,344,87455,1,0,0:0:0:0:
456,248,87605,6,0,L|480:312,1,62.5
360,192,87905,1,0,0:0:0:0:
440,32,88055,1,0,0:0:0:0:
288,64,88205,1,0,0:0:0:0:
248,256,88355,1,0,0:0:0:0:
80,144,88505,1,0,0:0:0:0:
120,336,88655,1,0,0:0:0:0:
400,344,88805,5,0,0:0:0:0:
408,48,89105,1,0,0:0:0:0:
104,48,89405,1,0,0:0:0:0:
112,344,89705,1,0,0:0:0:0:
400,344,90005,5,0,0:0:0:0:
112,344,90305,1,0,0:0:0:0:
104,48,90605,1,0,0:0:0:0:
408,48,90905,1,0,0:0:0:0:
464,240,91205,5,0,0:0:0:0:
296,344,91355,1,0,0:0:0:0:
352,216,91505,1,0,0:0:0:0:
296,40,91655,1,0,0:0:0:0:
48,32,91805,1,0,0:0:0:0:
216,112,91955,1,0,0:0:0:0:
88,152,92105,1,0,0:0:0:0:
56,320,92255,1,0,0:0:0:0:
216,280,92405,6,0,L|288:304,1,62.5
400,168,92705,1,0,0:0:0:0:
480,336,92855,1,0,0:0:0:0:
448,200,93005,1,0,0:0:0:0:
472,48,93155,1,0,0:0:0:0:
448,200,93305,1,0,0:0:0:0:
360,312,93455,1,0,0:0:0:0:
256,192,93605,5,0,0:0:0:0:
256,72,93755,1,0,0:0:0:0:
256,192,93905,1,0,0:0:0:0:
256,312,94055,1,0,0:0:0:0:
256,192,94205,5,0,0:0:0:0:
256,72,94355,1,0,0:0:0:0:
256,192,94505,1,0,0:0:0:0:
256,312,94655,1,0,0:0:0:0:
256,72,94805,5,0,0:0:0:0:
256,192,94955,1,0,0:0:0:0:
256,312,95105,1,0,0:0:0:0:
256,72,95255,1,0,0:0:0:0:
256,72,95405,5,0,0:0:0:0:
256,192,95555,1,0,0:0:0:0:
256,312,95705,1,0,0:0:0:0:
256,72,95855,1,0,0:0:0:0:
176,128,96005,5,0,0:0:0:0:
56,176,96155,1,0,0:0:0:0:
112,72,96305,5,0,0:0:0:0:
256,192,96455,1,0,0:0:0:0:
128,248,96605,1,0,0:0:0:0:
240,144,96755,1,0,0:0:0:0:
352,248,96905,1,0,0:0:0:0:
232,360,97055,1,0,0:0:0:0:
352,248,97205,5,0,0:0:0:0:
384,72,97355,1,0,0:0:0:0:
408,192,97505,1,0,0:0:0:0:
384,72,97655,1,0,0:0:0:0:
352,248,97805,5,0,0:0:0:0:
232,360,97955,1,0,0:0:0:0:
352,248,98105,1,0,0:0:0:0:
384,72,98255,1,0,0:0:0:0:
256,119,98405,5,0,0:0:0:0:
193,228,98555,1,0,0:0:0:0:
318,228,98705,1,0,0:0:0:0:
256,64,99005,5,0,0:0:0:0:
145,256,99155,1,0,0:0:0:0:
366,256,99305,1,0,0:0:0:0:
256,64,99455,1,0,0:0:0:0:
193,155,99605,5,0,0:0:0:0:
318,155,99755,1,0,0:0:0:0:
255,264,99905,1,0,0:0:0:0:
193,155,100055,1,0,0:0:0:0:
256,64,100205,5,0,0:0:0:0:
366,256,100355,1,0,0:0:0:0:
145,256,100505,1,0,0:0:0:0:
256,64,100655,1,0,0:0:0:0:
96,40,100805,5,0,0:0:0:0:
68,189,100955,1,0,0:0:0:0:
211,136,101105,1,0,0:0:0:0:
336,48,101405,5,0,0:0:0:0:
481,88,101555,1,0,0:0:0:0:
376,194,101705,1,0,0:0:0:0:
137,208,102005,5,0,0:0:0:0:
212,340,102155,1,0,0:0:0:0:
288,208,102305,1,0,0:0:0:0:
416,96,102605,5,0,0:0:0:0:
432,280,102755,1,0,0:0:0:0:
368,144,102905,1,0,0:0:0:0:
432,280,103055,1,0,0:0:0:0:
320,336,103205,6,0,P|256:320|208:280,1,125
128,88,103805,1,0,0:0:0:0:
128,88,104105,1,0,0:0:0:0:
72,304,104405,2,0,P|80:264|96:232,1,62.5
176,112,104705,1,0,0:0:0:0:
365,162,104855,1,0,0:0:0:0:
226,301,105005,1,0,0:0:0:0:
256,192,105305,1,0,0:0:0:0:
360,128,105605,5,0,0:0:0:0:
464,208,105755,2,0,P|480:184|488:152,1,62.5
424,32,106055,1,0,0:0:0:0:
248,56,106205,2,0,L|216:64,4,20.8333333333333
96,312,106805,5,0,0:0:0:0:
352,264,107105,1,0,0:0:0:0:
208,72,107405,1,0,0:0:0:0:
320,48,108005,5,0,0:0:0:0:
448,112,108155,1,0,0:0:0:0:
320,48,108305,1,0,0:0:0:0:
464,168,108455,1,0,0:0:0:0:
408,264,108605,2,0,P|360:312|304:336,1,125
112,184,109205,2,0,P|88:256|96:312,1,125
256,136,109805,1,0,0:0:0:0:
464,32,110405,6,0,P|480:104|472:176,1,125
376,264,111005,1,0,0:0:0:0:
328,128,111305,1,0,0:0:0:0:
176,32,111605,2,0,P|136:88|120:144,1,125
152,288,112205,1,0,0:0:0:0:
312,176,112805,5,0,0:0:0:0:
176,232,112955,1,0,0:0:0:0:
312,176,113105,1,0,0:0:0:0:
216,272,113255,1,0,0:0:0:0:
264,368,113405,2,0,P|336:360|392:336,1,125
424,56,114005,5,0,0:0:0:0:
448,208,114155,1,0,0:0:0:0:
376,56,114305,1,0,0:0:0:0:
448,208,114455,1,0,0:0:0:0:
288,136,114605,2,0,P|224:128|168:88,1,125
136,304,115205,5,0,0:0:0:0:
412,239,115505,1,0,0:0:0:0:
219,32,115805,1,0,0:0:0:0:
219,32,116405,5,0,0:0:0:0:
72,128,116705,1,0,0:0:0:0:
232,200,117005,1,0,0:0:0:0:
432,56,117605,5,0,0:0:0:0:
296,104,117755,1,0,0:0:0:0:
432,56,117905,1,0,0:0:0:0:
288,160,118055,1,0,0:0:0:0:
256,280,118205,2,0,P|304:320|368:336,1,125
408,128,118805,2,0,P|360:88|296:72,1,125
80,104,119405,2,0,P|128:144|192:160,1,125
256,216,120005,5,0,0:0:0:0:
320,48,120305,1,0,0:0:0:0:
488,112,120605,1,0,0:0:0:0:
424,280,120905,1,0,0:0:0:0:
256,216,121205,5,0,0:0:0:0:
192,48,121505,1,0,0:0:0:0:
24,112,121805,1,0,0:0:0:0:
55,197,121955,1,0,0:0:0:0:
88,280,122105,1,0,0:0:0:0:
144,104,122405,5,0,0:0:0:0:
88,280,122555,1,0,0:0:0:0:
184,144,122705,1,0,0:0:0:0:
88,280,122855,1,0,0:0:0:0:
256,280,123005,1,0,0:0:0:0:
424,280,123305,1,0,0:0:0:0:
256,56,123605,1,0,0:0:0:0:
256,280,124205,1,0,0:0:0:0:
376,176,124805,5,0,0:0:0:0:
416,48,124955,1,0,0:0:0:0:
376,176,125105,1,0,0:0:0:0:
408,304,125255,1,0,0:0:0:0:
296,360,125405,2,0,P|264:304|256:240,1,125
80,192,126005,5,0,0:0:0:0:
192,136,126155,1,0,0:0:0:0:
256,40,126305,1,0,0:0:0:0:
320,136,126455,1,0,0:0:0:0:
432,192,126605,2,0,P|432:264|408:328,1,125
240,288,127205,5,0,0:0:0:0:
162,149,127355,1,0,0:0:0:0:
311,92,127505,1,0,0:0:0:0:
162,149,127655,1,0,0:0:0:0:
240,288,127805,5,0,0:0:0:0:
120,184,127955,1,0,0:0:0:0:
240,80,128105,1,0,0:0:0:0:
120,184,128255,1,0,0:0:0:0:
240,288,128405,5,0,0:0:0:0:
91,231,128555,1,0,0:0:0:0:
168,92,128705,1,0,0:0:0:0:
288,16,128855,1,0,0:0:0:0:
360,216,129005,1,0,0:0:0:0:
272,288,129605,5,0,0:0:0:0:
350,149,129755,1,0,0:0:0:0:
201,92,129905,1,0,0:0:0:0:
350,149,130055,1,0,0:0:0:0:
272,288,130205,5,0,0:0:0:0:
392,184,130355,1,0,0:0:0:0:
272,80,130505,1,0,0:0:0:0:
392,184,130655,1,0,0:0:0:0:
272,288,130805,5,0,0:0:0:0:
421,231,130955,1,0,0:0:0:0:
344,92,131105,1,0,0:0:0:0:
272,288,131255,1,0,0:0:0:0:
421,231,131405,1,0,0:0:0:0:
421,231,131705,5,0,0:0:0:0:
328,352,131855,1,0,0:0:0:0:
152,328,132005,5,0,0:0:0:0:
64,200,132155,1,0,0:0:0:0:
104,32,132305,1,0,0:0:0:0:
32,144,132455,1,0,0:0:0:0:
152,328,132605,5,0,0:0:0:0:
113,177,132755,1,0,0:0:0:0:
208,33,132905,1,0,0:0:0:0:
102,114,133055,1,0,0:0:0:0:
152,328,133205,5,0,0:0:0:0:
166,173,133355,1,0,0:0:0:0:
305,70,133505,1,0,0:0:0:0:
472,32,133655,1,0,0:0:0:0:
384,136,133805,1,0,0:0:0:0:
472,256,133955,1,0,0:0:0:0:
336,280,134105,1,0,0:0:0:0:
424,376,134255,1,0,0:0:0:0:
256,368,134405,5,0,0:0:0:0:
360,240,134555,1,0,0:0:0:0:
360,64,134705,1,0,0:0:0:0:
304,208,134855,1,0,0:0:0:0:
198,323,135005,5,0,0:0:0:0:
224,160,135155,1,0,0:0:0:0:
136,7,135305,1,0,0:0:0:0:
220,106,135455,1,0,0:0:0:0:
128,304,135605,5,0,0:0:0:0:
360,240,135905,1,0,0:0:0:0:
192,88,136205,1,0,0:0:0:0:
448,176,136805,5,0,0:0:0:0:
56,32,137105,1,0,0:0:0:0:
448,176,137705,5,0,0:0:0:0:
384,224,138005,1,0,0:0:0:0:
56,32,138305,1,0,0:0:0:0:
384,224,138905,5,0,0:0:0:0:
344,288,139205,1,0,0:0:0:0:
56,32,139505,1,0,0:0:0:0:
328,368,140105,5,0,0:0:0:0:
384,224,140405,1,0,0:0:0:0:
56,32,140705,1,0,0:0:0:0:
296,152,141005,1,0,0:0:0:0:
64,296,141305,1,0,0:0:0:0:
296,304,141605,5,0,0:0:0:0:
456,32,141905,1,0,0:0:0:0:
296,304,142505,5,0,0:0:0:0:
168,320,142805,1,0,0:0:0:0:
456,32,143105,1,0,0:0:0:0:
168,320,143705,5,0,0:0:0:0:
40,344,144005,1,0,0:0:0:0:
320,24,144305,1,0,0:0:0:0:
80,216,144905,5,0,0:0:0:0:
232,256,145205,1,0,0:0:0:0:
504,16,145505,1,0,0:0:0:0:
368,96,145805,5,0,0:0:0:0:
504,208,145955,1,0,0:0:0:0:
376,224,146105,2,0,L|352:288,1,62.5
336,64,146405,5,0,0:0:0:0:
256,160,146555,1,0,0:0:0:0:
384,272,146705,1,0,0:0:0:0:
288,192,146855,1,0,0:0:0:0:
256,224,147005,1,0,0:0:0:0:
176,320,147155,1,0,0:0:0:0:
224,192,147305,1,0,0:0:0:0:
128,112,147455,1,0,0:0:0:0:
336,64,147605,6,0,L|408:40,1,62.5
384,272,147905,2,0,L|408:344,1,62.5
176,320,148205,2,0,L|104:344,1,62.5
128,112,148505,2,0,L|104:40,1,62.5
176,64,148805,5,0,0:0:0:0:
256,160,148955,1,0,0:0:0:0:
128,272,149105,1,0,0:0:0:0:
224,192,149255,1,0,0:0:0:0:
256,224,149405,1,0,0:0:0:0:
336,320,149555,1,0,0:0:0:0:
288,192,149705,1,0,0:0:0:0:
384,112,149855,1,0,0:0:0:0:
176,64,150005,6,0,L|104:40,1,62.5
128,272,150305,2,0,L|104:344,1,62.5
336,320,150605,2,0,L|408:344,1,62.5
384,112,150905,2,0,L|408:40,1,62.5
408,224,151205,5,0,0:0:0:0:
256,328,151355,1,0,0:0:0:0:
408,288,151505,1,0,0:0:0:0:
312,120,151655,1,0,0:0:0:0:
160,32,151805,1,0,0:0:0:0:
120,192,151955,1,0,0:0:0:0:
32,128,152105,1,0,0:0:0:0:
88,312,152255,1,0,0:0:0:0:
248,328,152405,5,0,0:0:0:0:
120,192,152555,1,0,0:0:0:0:
56,288,152705,1,0,0:0:0:0:
56,80,152855,1,0,0:0:0:0:
272,40,153005,1,0,0:0:0:0:
344,208,153155,1,0,0:0:0:0:
408,80,153305,1,0,0:0:0:0:
408,280,153455,1,0,0:0:0:0:
272,336,153605,5,0,0:0:0:0:
88,264,153755,1,0,0:0:0:0:
192,216,153905,1,0,0:0:0:0:
136,32,154055,1,0,0:0:0:0:
320,48,154205,1,0,0:0:0:0:
472,80,154355,1,0,0:0:0:0:
448,240,154505,1,0,0:0:0:0:
288,208,154655,1,0,0:0:0:0:
128,160,154805,5,0,0:0:0:0:
32,312,154955,1,0,0:0:0:0:
120,224,155105,1,0,0:0:0:0:
32,32,155255,1,0,0:0:0:0:
232,40,155405,1,0,0:0:0:0:
272,240,155555,1,0,0:0:0:0:
344,120,155705,1,0,0:0:0:0:
264,304,155855,1,0,0:0:0:0:
456,272,156005,5,0,0:0:0:0:
424,80,156155,1,0,0:0:0:0:
352,352,156305,1,0,0:0:0:0:
408,176,156455,1,0,0:0:0:0:
264,48,156605,1,0,0:0:0:0:
128,192,156755,1,0,0:0:0:0:
248,152,156905,1,0,0:0:0:0:
200,328,157055,1,0,0:0:0:0:
80,344,157205,5,0,0:0:0:0:
8,176,157355,1,0,0:0:0:0:
96,224,157505,1,0,0:0:0:0:
208,88,157655,1,0,0:0:0:0:
376,48,157805,1,0,0:0:0:0:
360,248,157955,1,0,0:0:0:0:
432,200,158105,1,0,0:0:0:0:
480,360,158255,1,0,0:0:0:0:
296,344,158405,6,0,L|264:280,1,62.5
144,288,158705,1,0,0:0:0:0:
104,56,158855,1,0,0:0:0:0:
208,144,159005,1,0,0:0:0:0:
368,184,159155,1,0,0:0:0:0:
456,96,159305,1,0,0:0:0:0:
424,304,159455,1,0,0:0:0:0:
248,272,159605,5,0,0:0:0:0:
64,320,159755,1,0,0:0:0:0:
248,272,159905,1,0,0:0:0:0:
304,72,160055,1,0,0:0:0:0:
88,120,160205,1,0,0:0:0:0:
144,320,160355,1,0,0:0:0:0:
176,168,160505,1,0,0:0:0:0:
272,360,160655,1,0,0:0:0:0:
424,280,160805,6,0,L|360:264,1,62.5
200,312,161105,1,0,0:0:0:0:
296,168,161255,1,0,0:0:0:0:
120,40,161405,1,0,0:0:0:0:
224,200,161555,1,0,0:0:0:0:
384,96,161705,1,0,0:0:0:0:
336,280,161855,1,0,0:0:0:0:
104,328,162005,5,0,0:0:0:0:
40,176,162155,1,0,0:0:0:0:
176,208,162305,1,0,0:0:0:0:
216,48,162455,1,0,0:0:0:0:
472,40,162605,1,0,0:0:0:0:
320,160,162755,2,0,L|384:208,1,62.5,0|0,0:0|0:0,0:0:0:0:
464,232,163055,5,0,0:0:0:0:
296,304,163205,1,0,0:0:0:0:
296,304,163655,5,0,0:0:0:0:
464,232,163805,1,0,0:0:0:0:
464,232,164255,5,0,0:0:0:0:
296,304,164405,1,0,0:0:0:0:
296,304,164855,5,0,0:0:0:0:
112,280,165005,1,0,0:0:0:0:
112,280,165455,5,0,0:0:0:0:
256,72,165605,5,0,0:0:0:0:
168,216,165755,1,0,0:0:0:0:
257,172,165905,1,0,0:0:0:0:
344,216,166055,1,0,0:0:0:0:
168,216,166205,5,0,0:0:0:0:
257,172,166355,1,0,0:0:0:0:
344,216,166505,1,0,0:0:0:0:
257,172,166655,1,0,0:0:0:0:
168,216,166805,5,0,0:0:0:0:
257,172,166955,1,0,0:0:0:0:
256,272,167105,1,0,0:0:0:0:
168,216,167255,1,0,0:0:0:0:
256,72,167405,5,0,0:0:0:0:
257,172,167555,1,0,0:0:0:0:
344,216,167705,1,0,0:0:0:0:
257,172,167855,1,0,0:0:0:0:
256,72,168005,5,0,0:0:0:0:
168,216,168155,1,0,0:0:0:0:
257,172,168305,1,0,0:0:0:0:
344,216,168455,1,0,0:0:0:0:
168,216,168605,5,0,0:0:0:0:
257,172,168755,1,0,0:0:0:0:
344,216,168905,1,0,0:0:0:0:
257,172,169055,1,0,0:0:0:0:
256,272,169205,5,0,0:0:0:0:
168,216,169355,1,0,0:0:0:0:
257,172,169505,1,0,0:0:0:0:
256,72,169655,1,0,0:0:0:0:
256,272,169805,5,0,0:0:0:0:
256,72,169955,1,0,0:0:0:0:
257,172,170105,1,0,0:0:0:0:
256,72,170255,1,0,0:0:0:0:
256,72,170405,5,0,0:0:0:0:
168,216,170555,1,0,0:0:0:0:
257,172,170705,1,0,0:0:0:0:
344,216,170855,1,0,0:0:0:0:
168,216,171005,5,0,0:0:0:0:
257,172,171155,1,0,0:0:0:0:
344,216,171305,1,0,0:0:0:0:
257,172,171455,1,0,0:0:0:0:
256,272,171605,5,0,0:0:0:0:
168,216,171755,1,0,0:0:0:0:
257,172,171905,1,0,0:0:0:0:
344,216,172055,1,0,0:0:0:0:
257,172,172205,5,0,0:0:0:0:
344,216,172355,1,0,0:0:0:0:
168,216,172505,1,0,0:0:0:0:
257,172,172655,1,0,0:0:0:0:
256,72,172805,5,0,0:0:0:0:
168,216,172955,1,0,0:0:0:0:
257,172,173105,1,0,0:0:0:0:
344,216,173255,1,0,0:0:0:0:
168,216,173405,5,0,0:0:0:0:
344,216,173555,1,0,0:0:0:0:
257,172,173705,1,0,0:0:0:0:
344,216,173855,1,0,0:0:0:0:
256,272,174005,5,0,0:0:0:0:
168,216,174155,1,0,0:0:0:0:
344,216,174305,1,0,0:0:0:0:
256,72,174455,1,0,0:0:0:0:
344,216,174605,5,0,0:0:0:0:
256,72,174755,1,0,0:0:0:0:
168,216,174905,1,0,0:0:0:0:
256,72,175055,1,0,0:0:0:0:
368,96,175205,5,0,0:0:0:0:
288,336,175355,1,0,0:0:0:0:
115,147,175505,1,0,0:0:0:0:
224,48,175805,5,0,0:0:0:0:
395,240,175955,1,0,0:0:0:0:
147,291,176105,1,0,0:0:0:0:
395,240,176255,1,0,0:0:0:0:
368,96,176405,5,0,0:0:0:0:
288,336,176555,1,0,0:0:0:0:
115,147,176705,1,0,0:0:0:0:
368,96,176855,1,0,0:0:0:0:
224,48,177005,5,0,0:0:0:0:
147,291,177155,1,0,0:0:0:0:
395,240,177305,1,0,0:0:0:0:
368,96,177605,5,0,0:0:0:0:
115,147,177755,1,0,0:0:0:0:
288,336,177905,1,0,0:0:0:0:
224,48,178205,5,0,0:0:0:0:
115,147,178505,5,0,0:0:0:0:
288,336,178655,1,0,0:0:0:0:
368,96,178805,1,0,0:0:0:0:
147,291,179105,5,0,0:0:0:0:
395,240,179255,1,0,0:0:0:0:
224,48,179405,1,0,0:0:0:0:
395,240,179555,1,0,0:0:0:0:
147,291,179705,1,0,0:0:0:0:
360,224,180005,5,0,0:0:0:0:
359,321,180155,1,0,0:0:0:0:
443,271,180305,1,0,0:0:0:0:
120,64,180605,5,0,0:0:0:0:
360,224,181205,5,0,0:0:0:0:
359,321,181355,1,0,0:0:0:0:
443,271,181505,1,0,0:0:0:0:
120,176,181805,5,0,0:0:0:0:
360,224,182405,5,0,0:0:0:0:
359,321,182555,1,0,0:0:0:0:
443,271,182705,1,0,0:0:0:0:
376,176,183005,5,0,0:0:0:0:
375,273,183155,1,0,0:0:0:0:
459,223,183305,1,0,0:0:0:0:
152,64,183605,5,0,0:0:0:0:
56,136,183755,1,0,0:0:0:0:
152,64,183905,1,0,0:0:0:0:
152,192,184205,5,0,0:0:0:0:
96,304,184355,1,0,0:0:0:0:
152,192,184505,1,0,0:0:0:0:
216,304,184805,5,0,0:0:0:0:
368,232,185405,1,0,0:0:0:0:
296,80,186005,1,0,0:0:0:0:
144,152,186605,1,0,0:0:0:0:
256,192,187205,1,0,0:0:0:0:
