osu file format v5

[General]
AudioFilename: Tender Crisp Bacon Cheddar Ranch.mp3
AudioLeadIn: 993
PreviewTime: -1
Countdown: 1
SampleSet: Normal

[Metadata]
Title:Tendercrisp Bacon Cheddar Ranch
Artist:Burger King
Creator:kingcobra52
Version:Hard

[Difficulty]
HPDrainRate:6
CircleSize:6
OverallDifficulty:6
SliderMultiplier:1.4
SliderTickRate:1

[Events]
//Background and Video events
1,0,"Hootie_s_Burger_King_Commercial.avi"
//Break Periods
//Storyboard Layer 0 (Background)
//Storyboard Layer 1 (Failing)
//Storyboard Layer 2 (Passing)
//Storyboard Layer 3 (Foreground)
//Storyboard Sound Samples
//Background Colour Transformations
3,100,163,162,255

[TimingPoints]
974,643.0981181151,4,1,0,60

[Colours]
Combo1 : 255,128,0
Combo2 : 242,242,242
Combo3 : 255,0,0

[HitObjects]
256,104,491,1,0
256,168,813,2,0,B|256:216,1,35
232,264,1295,1,0
280,312,1617,1,0
328,272,1938,1,0
360,288,2099,2,0,B|381:351|396:287,2,70
400,192,3224,1,0
424,168,3385,1,0
432,136,3546,2,0,B|465:85|408:80,1,70
352,80,4189,1,2
304,32,4511,1,2
256,80,4832,1,2
56,48,5797,1,0
56,112,6118,2,0,B|56:184,1,70
56,248,6761,1,0
120,248,7083,2,0,B|184:248,1,35
184,248,7404,5,0
224,296,7726,1,0
248,320,7887,1,0
344,232,8530,1,0
344,200,8691,2,2,B|288:200,2,35
344,128,9334,1,2
312,64,9655,1,2
248,40,9977,1,2
32,136,11102,5,0
32,168,11263,1,0
64,168,11424,1,0
64,136,11585,1,0
128,152,11906,1,0
200,160,12228,1,0
264,176,12549,2,0,B|320:144,1,35
352,128,13032,1,0
416,248,13675,1,0
432,216,13835,2,2,B|475:179|448:76|424:56,2,140
304,64,16086,5,0
240,72,16408,2,0,B|176:120,2,70
264,96,17212,1,0
264,128,17373,1,0
240,192,17694,1,0
72,304,18659,1,0
136,304,18980,2,2,B|136:200,1,70
136,168,19623,2,2,B|136:88,1,70
136,32,20266,1,2
336,32,21231,5,0
400,40,21553,1,0
416,64,21713,1,0
456,152,22196,1,0
432,216,22517,1,0
384,264,22839,1,2
352,264,23000,1,2
184,272,23803,5,0
128,240,24125,1,0
112,208,24286,1,0
120,104,24768,1,2
168,56,25090,1,2
232,72,25411,1,2
344,312,26697,6,0,B|192:312,1,140
168,312,27501,1,0
152,272,27662,1,0
168,232,27823,1,0
200,232,27984,2,2,B|288:232,1,70
304,232,28466,1,2
304,128,28948,6,0,B|352:152,2,35
360,160,29591,1,0
408,200,29913,1,0
416,264,30234,1,0
424,328,30556,2,2,C|443:280|475:320|480:280,1,140
440,160,31842,6,0,B|408:104,1,35
408,96,32164,1,0
352,56,32485,1,0
288,40,32807,2,0,B|248:40,1,35
216,40,33128,1,0
184,56,33289,1,0
160,80,33450,1,0
136,104,33611,1,0
40,96,34093,1,0
40,160,34415,2,2,B|88:278|182:315|282:282|334:227|350:155,1,420
440,192,36826,5,0
440,160,36987,1,0
432,96,37309,1,0
384,48,37630,1,0
312,48,37952,1,0
240,48,38273,2,0,B|192:48,1,35
136,48,38756,1,0
48,112,39238,1,0
80,136,39399,1,0
64,168,39559,5,0
48,232,39881,5,2
80,288,40202,5,2
136,320,40524,5,2
200,328,40846,5,2
264,328,41167,2,2,B|344:328,1,70
392,288,41810,6,0,B|448:224,1,70
480,184,42453,1,0
464,120,42775,1,0
416,72,43096,1,0
352,40,43418,1,0
288,32,43740,1,0
224,48,44061,1,0
168,72,44383,1,0
144,96,44543,1,0
160,120,44704,2,2,C|271:92|231:252|334:172,1,420
464,200,46955,5,0
472,256,47277,1,0
432,312,47598,1,0
368,328,47920,1,0
312,296,48241,1,0
240,288,48563,2,0,B|192:288,1,35
136,288,49045,1,0
104,224,49367,1,0
200,216,49849,6,2,C|265:109|198:119|232:16,1,280
88,144,51939,6,0,B|48:176,2,35
112,168,52421,1,0
136,192,52582,1,0
184,240,52904,1,0
248,312,53386,1,0
280,296,53547,1,0
312,280,53708,1,2
368,248,54029,1,0
424,216,54351,1,0
392,152,54672,6,0,B|368:96,1,35
368,88,54994,1,0
296,88,55315,1,0
264,64,55476,1,0
200,32,55798,1,0
144,72,56119,5,0
104,64,56280,1,2
64,120,56601,1,2
104,168,56923,1,2
168,200,57245,1,2
232,216,57566,2,0,B|304:192|390:230|402:292|284:350|172:316|232:216,1,350
280,256,59495,5,4
