osu file format v5

[General]
AudioFilename: Tender Crisp Bacon Cheddar Ranch.mp3
AudioLeadIn: 993
PreviewTime: -1
Countdown: 1
SampleSet: Normal

[Metadata]
Title:Tendercrisp Bacon Cheddar Ranch
Artist:Burger King
Creator:kingcobra52
Version:Easy

[Difficulty]
HPDrainRate:4
CircleSize:4
OverallDifficulty:4
SliderMultiplier:1.4
SliderTickRate:1

[Events]
//Background and Video events
1,0,"Hootie_s_Burger_King_Commercial.avi"
//Break Periods
//Storyboard Layer 0 (Background)
//Storyboard Layer 1 (Failing)
//Storyboard Layer 2 (Passing)
//Storyboard Layer 3 (Foreground)
//Storyboard Sound Samples
//Background Colour Transformations
3,100,163,162,255

[TimingPoints]
974,643.0981181151,4,1,0,60

[Colours]
Combo1 : 255,128,0
Combo2 : 242,242,242
Combo3 : 255,0,0

[HitObjects]
112,104,491,1,0
168,104,813,2,0,B|208:104,1,35
312,104,1617,1,0
416,104,2260,2,0,B|488:149|416:192,1,105
296,184,3546,2,2,B|236:114|160:192,2,140
144,184,5797,1,0
144,240,6118,2,0,B|240:240,1,70
272,240,6761,1,0
376,240,7404,5,0
376,128,8048,1,0
264,128,8691,2,2,B|192:128,4,70
256,328,11263,5,0
256,216,11906,1,0
256,104,12549,1,0
256,216,13192,1,0
312,128,13835,2,2,B|280:86|204:89|184:136,2,140
104,80,16408,5,0
176,152,17051,1,0
248,232,17694,1,0
432,336,18980,2,2,B|432:40,1,280
232,80,21553,5,0
176,184,22196,1,0
232,280,22839,1,0
456,288,24125,5,0
384,200,24768,1,2
448,104,25411,1,2
232,144,26697,6,0,B|80:144,1,140
88,256,27984,2,2,B|224:256,1,105
264,128,29270,5,0
328,216,29913,1,0
400,296,30556,2,2,C|381:344|349:304|344:344,1,140
240,312,31842,5,0
160,240,32485,1,0
160,128,33128,1,0
264,128,33772,1,0
360,168,34415,2,2,B|344:240|292:295|192:328|98:291|48:168,1,420
64,64,36987,5,0
144,136,37630,1,0
224,72,38273,1,0
304,144,38916,1,0
376,64,39559,5,2
456,144,40202,5,2
376,224,40846,1,2
216,232,41810,2,0,B|144:232,1,70
96,144,42775,1,0
192,88,43418,1,0
296,112,44061,1,0
400,144,44704,6,2,C|480:248|320:208|352:328,1,420
240,296,47277,1,0
152,232,47920,1,0
152,128,48563,5,0
256,128,49206,1,0
320,216,49849,6,2,C|385:109|318:119|352:16,1,280
168,168,52421,5,0
216,264,53064,1,0
312,312,53708,1,0
416,280,54351,1,0
432,176,54994,5,0
384,80,55637,1,0
280,56,56280,5,2
264,104,56601,1,2
208,88,56923,1,2
192,192,57566,2,4,B|264:168|396:198|404:281|242:365|132:292|192:192,1,420
