osu file format v9

[General]
AudioFilename: Minna Daisuki (TV Size).mp3
AudioLeadIn: 1000
PreviewTime: 50213
Countdown: 0
SampleSet: Normal
StackLeniency: 0.7
Mode: 0
LetterboxInBreaks: 0

[Editor]
DistanceSpacing: 1
BeatDivisor: 3
GridSize: 4

[Metadata]
Title:Minna Daisuki (TV Size)
Artist:Buono!
Creator:Kawayi Rika
Version:TuHard
Source:Shugo Chara
Tags:Star Stream tutuhaha Miya No_Gu spboxer3 opening

[Difficulty]
HPDrainRate:6
CircleSize:4
OverallDifficulty:6
ApproachRate:7
SliderMultiplier:1.4
SliderTickRate:1

[Events]
//Background and Video events
0,0,"BG.jpg"
Video,320,"Minna Daisuki (TV Size).avi"
//Break Periods
//Storyboard Layer 0 (Background)
//Storyboard Layer 1 (Fail)
//Storyboard Layer 2 (Pass)
//Storyboard Layer 3 (Foreground)
//Storyboard Sound Samples
//Background Colour Transformations
3,100,163,162,255

[TimingPoints]
82,338.983050847458,4,1,1,50,1,0
6861,-100,4,2,1,80,0,0
15336,-100,4,1,1,50,0,0
15562,-100,4,2,1,80,0,0
16014,-100,4,1,1,50,0,0
30929,-100,4,2,1,80,0,0
31042,-100,4,1,1,50,0,0
33528,-100,4,2,1,80,0,0
33980,-100,4,1,1,50,0,0
38952,-100,4,2,1,50,0,0
39065,-100,4,2,1,80,0,0
39291,-100,4,1,1,50,0,0
50251,-83.3333333333333,4,2,1,100,0,1
55336,-83.3333333333333,4,2,1,60,0,1
55675,-83.3333333333333,4,2,1,100,0,1
58726,-83.3333333333333,4,1,1,70,0,1
58952,-83.3333333333333,4,2,1,100,0,1
59404,-83.3333333333333,4,1,1,70,0,1
59630,-83.3333333333333,4,2,1,100,0,1
60760,-83.3333333333333,4,2,1,60,0,1
61099,-83.3333333333333,4,2,1,100,0,1
66183,-83.3333333333333,4,2,1,60,0,1
66296,-83.3333333333333,4,2,1,100,0,1
71946,-100,4,2,1,70,0,0
80082,-100,4,1,1,50,0,0

[Colours]
Combo1 : 61,255,45
Combo2 : 247,40,236
Combo3 : 24,134,224

[HitObjects]
48,92,1099,1,0
96,224,1437,2,0,B|112:272,5,46.6666666666667
156,268,2115,2,0,B|208:312|300:288,1,140,8|2
416,160,2793,6,0,B|400:112,5,46.6666666666667
356,116,3471,2,0,B|304:72|212:96,1,140,8|2
84,64,4149,6,0,B|84:144|28:204,1,140,0|4
148,280,4827,2,0,B|260:280,1,93.3333333333333
288,288,5166,2,0,B|324:212|416:192,1,140,4|2
376,60,5844,1,2
136,60,6183,1,2
256,216,6522,1,6
168,348,6861,6,0,B|84:336|52:252,1,140,2|8
40,124,7539,2,0,B|128:184,1,93.3333333333333,0|0
164,164,7878,2,0,B|196:96|292:80,1,140,8|2
408,52,8556,1,8
428,192,8895,1,0
344,304,9234,5,8
208,336,9573,2,0,B|200:288|132:248,1,93.3333333333333,2|0
108,272,9912,2,0,B|36:136,2,140,8|0|8
176,148,10929,2,0,B|228:132|260:88,1,93.3333333333333,2|0
272,56,11268,2,0,B|337:179,2,140,8|0|8
132,48,12285,6,0,B|64:100|68:184,1,140,2|8
72,308,12963,2,0,B|152:240,1,93.3333333333333
160,204,13302,2,0,B|224:216|264:304,1,140,8|2
388,352,13980,1,8
476,244,14319,1,0
412,120,14658,1,8
284,64,14997,6,0,B|240:52|176:72,1,93.3333333333333,2|0
144,56,15336,2,0,B|152:104|120:152,1,93.3333333333333,8|0
80,132,15675,2,0,B|168:252|172:252,1,140,2|8
256,348,16353,1,4
256,348,16692,1,0
320,224,17031,2,0,B|348:164,2,46.6666666666667,4|0|0
340,264,17370,6,0,B|392:304|480:292,1,140,0|4
424,160,18048,1,0
292,120,18387,2,0,B|276:64|224:40,1,93.3333333333333
192,32,18726,2,0,B|96:160,2,140,0|0|8
208,172,19743,2,0,B|168:232|64:240,1,140,0|8
224,280,20421,6,0,B|256:320|308:328,1,93.3333333333333,0|0
348,344,20760,2,0,B|308:184,2,140
460,264,21776,2,0,B|476:208|448:156,1,93.3333333333333
428,136,22115,2,0,B|344:60,1,93.3333333333333,8|0
332,32,22454,2,0,B|304:96|216:112,1,140,0|8
88,76,23132,5,0
88,76,23471,1,8
56,212,23810,1,0
56,212,24149,1,8
172,292,24488,2,0,B|228:336|336:316,1,140,0|8
256,188,25166,2,0,B|232:132,2,46.6666666666667,8|0|0
296,212,25505,6,0,B|376:196|424:132,2,140,0|0|0
308,72,26522,2,0,B|240:36|156:64,1,140,4|0
44,116,27200,2,0,B|108:196,1,93.3333333333333
100,236,27539,2,0,B|168:200|248:224,1,140,0|4
235,220,28217,1,8
336,320,28556,5,0
336,320,28895,1,0
464,268,29234,2,0,B|440:200|336:172,1,140
332,44,29912,2,0,B|304:88|236:96,1,93.3333333333333
232,52,30251,2,0,B|108:140,1,140,8|0
40,248,30929,1,8
172,200,31268,6,0,B|192:248|252:268,1,93.3333333333333
244,308,31607,2,0,B|288:252|384:256,2,140
380,340,32624,2,0,B|428:324|456:272,1,93.3333333333333
488,256,32963,2,0,B|408:160,1,93.3333333333333,8|0
384,196,33302,2,0,B|336:144|352:48,1,140,0|8
208,68,33980,5,0
208,68,34319,1,8
96,152,34658,1,0
96,152,34997,1,8
124,288,35336,2,0,B|164:240|256:240,1,140,0|8
292,108,36014,2,0,B|320:48,2,46.6666666666667,8|0|0
312,152,36353,6,0,B|352:208|452:216,1,140
352,328,37031,1,8
212,348,37370,2,0,B|232:236,1,93.3333333333333
184,240,37709,2,0,B|120:200|116:96,2,140,8|0|8
212,104,38726,2,0,B|240:48,2,46.6666666666667,8|0|0
248,132,39065,6,0,B|404:132,1,140,4|0
364,272,39743,2,0,B|252:272,1,93.3333333333333
232,244,40082,1,0
232,244,40421,1,0
116,160,40760,2,0,B|232:160,1,93.3333333333333
248,132,41098,2,0,B|316:108|352:36,2,140,0|0|0
312,256,42115,5,0
428,180,42454,1,0
436,320,42793,1,0
312,256,43132,1,0
360,124,43471,2,0,B|340:72|276:44,1,93.3333333333333
260,32,43810,2,0,B|172:96,1,93.3333333333333
140,68,44149,2,0,B|120:144|32:176,1,140
144,276,44827,6,0,B|180:352|272:344,2,140
256,192,45844,1,0
368,108,46183,2,0,B|332:32|240:40,2,140
256,192,47200,2,0,B|144:192,1,93.3333333333333
144,148,47539,5,0
68,268,47878,1,0
188,340,48217,1,0
328,340,48556,1,0
444,268,48895,2,0,B|456:216|424:172,1,93.3333333333333
380,180,49234,2,0,B|344:76,1,93.3333333333333
320,56,49573,2,0,B|272:120|180:124,1,140
48,192,50251,5,2
48,192,50590,1,8
140,332,50929,1,0
140,332,51268,1,8
236,192,51607,2,0,B|256:136|320:112,1,112.000002670288,2|0
336,64,51946,2,0,B|400:224,2,168.000004005432,8|0|8
172,100,52963,6,0,B|76:100|24:180,1,168.000004005432,2|8
52,340,53641,2,0,B|148:340|200:260,1,168.000004005432,2|8
276,120,54319,2,0,B|304:168|368:184,1,112.000002670288,2|0
400,140,54658,2,0,B|385:193|419:250,1,112.000002670288,8|0
472,232,54997,2,0,B|320:344,1,168.000004005432,2|12
168,316,55675,5,2
168,316,56014,1,8
56,192,56353,2,0,B|32:136|56:76,1,112.000002670288,0|0
92,40,56692,1,8
212,160,57031,1,2
212,160,57370,1,8
292,308,57709,2,0,B|328:256|412:252,1,112.000002670288
444,264,58048,1,8
416,100,58387,5,2
260,36,58726,2,0,B|224:76|148:76,1,112.000002670288,0|0
108,52,59065,1,2
216,180,59404,2,0,B|200:240|128:268,1,112.000002670288
92,244,59743,6,0,B|228:356,1,168.000004005432,2|8
376,280,60421,2,0,B|312:272,2,56.0000013351441
416,240,60760,6,0,B|286:133,1,168.000004005432,12|2
140,52,61437,1,8
148,220,61776,2,0,B|48:208|8:120,1,168.000004005432,0|8
180,140,62454,2,0,B|276:60,1,112.000002670288,2|0
312,36,62793,2,0,B|288:132|368:196,1,168.000004005432,8|0
464,320,63471,1,8
300,356,63810,5,2
160,260,64149,1,8
328,280,64488,1,2
248,132,64827,1,8
388,224,65166,2,0,B|352:168|376:104,1,112.000002670288,2|0
424,96,65505,2,0,B|360:80|332:16,1,112.000002670288,8|0
284,36,65844,2,0,B|88:36,1,168.000004005432,2|12
20,172,66522,5,2
20,172,66861,1,8
136,296,67200,1,0
136,296,67539,1,8
204,140,67878,2,0,B|272:124|304:64,1,112.000002670288,2|0
324,32,68217,2,0,B|348:88|424:104,1,112.000002670288,8|0
464,96,68556,2,0,B|392:148|392:260,1,168.000004005432,0|8
256,340,69234,6,0,B|256:228,1,112.000002670288,2|0
304,196,69573,2,0,B|220:164|200:60,2,168.000004005432,8|2|8
384,48,70590,1,4
384,48,70929,1,8
472,192,71268,1,2
472,192,71607,1,8
316,252,71946,6,0,B|260:256|220:304,1,93.3333333333333,4|0
228,336,72285,2,0,B|168:224,1,93.3333333333333,8|0
164,212,72624,2,0,B|96:184|80:92,1,140,2|8
212,52,73302,2,0,B|280:80|296:172,1,140,2|8
428,124,73980,2,0,B|456:191|402:268,1,140,2|8
292,332,74658,5,4
156,304,74997,1,8
84,184,75336,1,2
92,44,75675,1,8
196,140,76014,2,0,B|276:140|328:224,1,140,2|8
444,260,76692,2,0,B|500:232,2,46.6666666666667,2|0|0
416,296,77031,6,0,B|384:232|416:148,1,140,8|4
324,52,77709,1,8
188,76,78048,1,2
120,196,78387,1,8
124,336,78726,2,0,B|176:320|204:272,1,93.3333333333333,2|0
208,236,79065,2,0,B|256:256|312:236,1,93.3333333333333,8|0
336,212,79404,2,0,B|360:288|448:312,1,140,2|8
448,168,80082,6,0,B|424:92|336:68,1,140,4|0
220,116,80760,2,0,B|254:84,2,46.6666666666667,0|0|0
176,132,81098,2,0,B|160:76,2,46.6666666666667
132,152,81437,1,4
136,308,81776,1,0
336,112,82454,5,4
396,240,82793,2,0,B|416:264|452:272,5,46.6666666666667
448,312,83471,2,0,B|288:364,1,140,8|2
116,144,84149,6,0,B|96:120|60:112,5,46.6666666666667
64,72,84827,2,0,B|224:20,1,140,0|2
336,60,85505,5,0
336,60,85844,1,8
276,188,86183,2,0,B|328:192|376:152,1,93.3333333333333
400,132,86522,2,0,B|452:216,1,93.3333333333333,8|0
452,260,86861,5,2
256,320,87200,1,2
60,260,87539,1,2
256,208,87878,2,0,B|256:112,1,93.3333333333333,2|0
260,68,88217,2,0,B|312:120|408:124,1,140,8|4
