osu file format v9

[General]
AudioFilename: Minna Daisuki (TV Size).mp3
AudioLeadIn: 1000
PreviewTime: 50213
Countdown: 0
SampleSet: Normal
StackLeniency: 0.3
Mode: 0
LetterboxInBreaks: 0

[Editor]
DistanceSpacing: 0.9
BeatDivisor: 3
GridSize: 4

[Metadata]
Title:Minna Daisuki (TV Size)
Artist:Buono!
Creator:Kawayi Rika
Version:S.S
Source:Shugo Chara
Tags:Star Stream tutuhaha Miya No_Gu spboxer3 opening

[Difficulty]
HPDrainRate:8
CircleSize:4
OverallDifficulty:7
ApproachRate:8
SliderMultiplier:2.1
SliderTickRate:1

[Events]
//Background and Video events
0,0,"BG.jpg"
Video,320,"Minna Daisuki (TV Size).avi"
//Break Periods
//Storyboard Layer 0 (Background)
//Storyboard Layer 1 (Fail)
//Storyboard Layer 2 (Pass)
//Storyboard Layer 3 (Foreground)
//Storyboard Sound Samples
//Background Colour Transformations
3,100,163,162,255

[TimingPoints]
82,338.983050847458,4,1,1,50,1,0
6861,-100,4,2,1,80,0,0
15336,-100,4,1,1,50,0,0
15562,-100,4,2,1,80,0,0
16014,-100,4,1,1,50,0,0
30929,-100,4,2,1,80,0,0
31042,-100,4,1,1,50,0,0
33528,-100,4,2,1,80,0,0
33980,-100,4,1,1,50,0,0
38952,-100,4,2,1,50,0,0
39065,-100,4,2,1,80,0,0
39291,-100,4,1,1,50,0,0
50251,-83.3333333333333,4,2,1,100,0,1
58726,-83.3333333333333,4,1,1,70,0,1
58952,-83.3333333333333,4,2,1,100,0,1
59404,-83.3333333333333,4,1,1,70,0,1
59630,-83.3333333333333,4,2,1,100,0,1
70590,-83.3333333333333,4,1,1,70,0,1
70929,-83.3333333333333,4,2,1,100,0,1
71268,-83.3333333333333,4,1,1,70,0,1
71607,-83.3333333333333,4,2,1,100,0,1
71946,-100,4,1,1,70,0,0
72285,-100,4,1,1,90,0,0
72624,-100,4,1,1,70,0,0
72963,-100,4,1,1,90,0,0
73302,-100,4,1,1,70,0,0
73754,-100,4,1,1,50,0,0
73867,-100,4,1,1,30,0,0
73980,-100,4,1,1,50,0,0
74432,-100,4,1,1,30,0,0
74545,-100,4,1,1,10,0,0
74658,-100,4,1,1,70,0,0
79517,-100,4,1,1,60,0,0
79630,-100,4,1,1,50,0,0
79743,-100,4,1,1,40,0,0
79856,-100,4,1,1,30,0,0
79969,-100,4,1,1,20,0,0
80082,-100,4,1,1,70,0,0

[Colours]
Combo1 : 61,255,45
Combo2 : 247,40,236
Combo3 : 24,134,224

[HitObjects]
256,36,1099,2,0,B|256:256,1,210,0|0
256,268,1550,1,0
256,288,1663,1,0
256,308,1776,1,0
256,328,1889,1,0
256,348,2002,1,0
256,368,2115,1,0
256,368,2454,6,2,B|100:224,1,210,2|0
88,212,2906,1,0
72,196,3019,1,0
56,180,3132,1,0
40,164,3245,1,0
24,148,3358,1,0
12,132,3471,1,0
12,132,3810,6,2,B|232:132,1,210,2|0
244,132,4262,1,0
264,132,4375,1,0
284,132,4488,6,2,B|192:328,1,210,2|0
184,340,4940,1,0
172,360,5053,1,0
160,380,5166,6,2,B|384:380,1,210,2|2
444,78,5844,1,2
68,78,6183,1,2
142,380,6522,1,2
256,192,6861,6,0,B|284:120|368:112,1,140,0|0
428,136,7200,2,0,B|408:208|468:264,1,140,8|0
444,332,7539,2,0,B|388:272|316:296,1,140
252,272,7878,2,0,B|228:348|148:348,1,140,8|0
80,324,8217,6,0,B|16:200,1,140
52,140,8556,2,0,B|196:140,1,140,8|0
260,160,8895,1,0
240,188,9008,1,0
220,216,9121,1,0
200,244,9234,2,0,B|344:244,1,140,8|0
404,212,9573,6,0,B|472:172|476:100,1,140,0|0
436,40,9912,2,0,B|292:8,1,140,8|0
299,9,10251,1,0
272,128,10477,5,0
272,128,10590,2,0,B|241:61|161:49,1,140,8|0
128,96,10929,2,0,B|52:220,1,140
108,280,11268,2,0,B|184:156,1,140,8|0
236,228,11607,1,0
236,228,11720,1,0
236,228,11833,1,8
236,228,11946,2,0,B|160:352,1,140,8|0
212,384,12285,5,0
320,328,12511,1,0
320,328,12624,2,0,B|333:255|402:215,1,140,8|0
400,218,12963,2,0,B|375:148|415:79,1,140
413,83,13302,2,0,B|360:128|280:116,1,140,8|0
220,80,13641,6,0,B|144:100|120:172,1,140
182,206,13980,2,0,B|258:186|282:114,1,140,8|0
281,116,14319,1,0
281,116,14432,1,0
281,116,14545,1,0
281,116,14658,2,0,B|361:128|414:83,1,140,8|0
480,100,14997,6,0,B|480:28,2,70
480,172,15336,2,2,B|440:240|480:304,1,140,2|0
480,376,15675,6,0,B|408:376,2,70
480,304,16014,2,2,B|520:239|480:171,1,140,2|0
480,100,16353,5,10
32,100,16692,1,10
480,284,17031,1,10
32,284,17370,1,10
480,100,17709,6,0,B|408:96|352:48,1,140,4|0
292,12,18048,1,8
164,68,18274,1,0
164,68,18387,2,0,B|152:144|84:176,1,140
40,232,18726,2,0,B|180:284,1,140,8|0
240,296,19065,5,0
436,80,19404,1,8
76,80,19743,1,0
272,296,20082,1,8
76,80,20421,6,0,B|128:24|208:28,1,140
256,68,20760,2,0,B|308:12|388:16,1,140,8|0
440,56,21099,1,0
356,168,21324,1,0
356,168,21437,2,0,B|284:188|272:268,1,140,8|0
216,312,21776,6,0,B|8:312,1,210,0|8
296,72,22454,2,0,B|504:72,1,210,0|8
416,180,23019,5,0
416,180,23132,2,0,B|336:204|324:288|324:288|392:288,1,210,0|8
96,180,23810,2,0,B|176:204|188:288|188:288|120:288,1,210,0|8
256,12,24488,2,0,B|256:240,3,210,0|8|0|8
256,364,25731,5,0
256,364,25844,2,0,B|220:296|144:288,1,140,8|0
146,288,26183,2,0,B|70:296|34:364,1,140,8|0
34,362,26522,5,8
256,364,26861,1,0
478,366,27087,5,0
478,366,27200,2,0,B|442:298|366:290,1,140,8|0
368,290,27539,2,0,B|292:298|256:366,1,140,8|0
256,364,27878,5,2
256,20,28217,1,2
256,364,28556,6,0,B|232:292|156:272,1,140,4|0
136,204,28895,2,0,B|209:184|233:112,1,140,8|0
296,76,29234,1,0
428,124,29460,6,0,B|344:124|344:260|432:260,1,210,8|0
84,123,30251,2,0,B|167:124|167:260|79:260,1,210,8|0
436,192,30929,1,8
76,192,31268,6,0,B|224:192,1,140
436,192,31607,2,0,B|296:192,1,140,8|0
216,192,31946,1,0
284,68,32172,6,0,B|356:108|356:192|356:192|292:192,1,210,8|0
228,68,32963,2,0,B|156:108|156:192|156:192|220:192,1,210,8|0
256,328,33528,1,8
256,328,33641,2,0,B|256:188,1,140,8|0
228,68,33980,6,0,B|208:176|132:178|132:178|80:136,1,210,0|8
284,68,34658,2,0,B|304:176|380:178|380:178|432:136,1,210,0|8
188,248,35336,2,0,B|188:332|324:332|324:244,3,210,0|8|0|8
256,120,36579,5,0
256,120,36692,2,0,B|168:208|68:192,1,210,0|8
256,120,37370,2,0,B|344:208|444:192,1,210,0|8
256,16,38048,6,0,B|256:228,1,210,0|8
256,16,38726,1,0
256,16,38839,1,0
256,16,38952,1,8
256,16,39065,1,8
192,348,39404,6,0,B|176:272|96:252,1,140
36,224,39743,2,0,B|112:204|132:132,1,140,8|0
192,92,40082,2,2,B|-12:20,1,210,2|8
320,36,40647,5,0
320,36,40760,2,0,B|336:112|416:132,1,140
476,160,41099,2,0,B|400:180|380:252,1,140,8|0
320,292,41438,2,2,B|524:364,1,210,2|8
256,88,42115,6,2,B|140:80|64:164,1,210,2|8
256,88,42793,2,2,B|372:80|448:164,1,210,2|8
140,224,43358,5,0
140,224,43471,2,2,B|180:288|256:292,1,140,10|0
256,292,43810,2,2,B|332:288|372:224,1,140,10|0
371,224,44149,1,0
371,224,44262,1,0
371,224,44375,1,0
371,224,44488,1,2
256,48,44714,5,0
256,48,44827,2,0,B|228:116|152:136,1,140,8|0
92,172,45166,2,0,B|164:196|200:264,1,140,8|0
244,312,45505,2,2,B|44:376,1,210,10|0
256,48,46070,5,0
256,48,46183,2,0,B|284:116|360:136,1,140,8|0
420,172,46522,2,0,B|348:196|312:264,1,140,8|0
268,312,46861,2,2,B|468:376,1,210,10|0
256,48,47539,5,10
112,192,47878,1,8
256,336,48217,1,10
400,192,48556,1,8
256,48,48895,5,10
256,336,49234,1,0
256,48,49573,2,2,B|236:84|236:84|272:92|272:92|256:124|256:124|256:152,1,140,10|8
484,176,50251,6,0,B|384:212|364:308|364:308|420:372,2,252.000006008148,0|8|0
332,176,51155,2,0,B|432:212|452:308|452:308|396:372,1,252.000006008148,8|0
336,380,51607,2,0,B|292:284|188:272,1,168.000004005432
144,240,51946,2,0,B|288:144,1,168.000004005432,8|0
328,84,52285,2,0,B|172:12,1,168.000004005432
100,28,52624,2,0,B|160:96|96:184,1,168.000004005432,8|0
44,128,52963,6,0,B|136:100|212:148|212:148|176:232,1,252.000006008148,0|8
468,128,53641,2,0,B|376:100|300:148|300:148|336:232,1,252.000006008148,0|8
256,16,54319,2,0,B|256:288,3,252.000006008148,0|8|8|8
336,56,55675,6,0,B|432:72|452:168,1,168.000004005432
396,216,56014,2,0,B|300:232|280:328,1,168.000004005432,8|0
224,372,56353,2,0,B|344:372|344:372|364:384|364:384|488:384,1,252.000006008148,0|8
176,56,56918,5,0
176,56,57031,2,0,B|80:72|60:168,1,168.000004005432
116,216,57370,2,0,B|212:232|232:328,1,168.000004005432,8|0
288,372,57709,2,0,B|168:372|168:372|148:384|148:384|24:384,1,252.000006008148,0|8
256,96,58387,5,0
256,96,58500,1,0
256,96,58613,1,0
256,96,58726,2,2,B|296:100|296:100|296:136|296:136|336:128|336:128|340:152|380:168,1,168.000004005432,2|0
440,192,59065,5,0
440,192,59178,1,0
440,192,59291,1,0
440,192,59404,2,2,B|400:196|400:196|400:232|400:232|360:224|360:224|356:248|316:264,1,168.000004005432,2|0
268,308,59743,6,0,B|308:380,2,84.0000020027161,8|0|0
248,272,60082,2,0,B|208:200,2,84.0000020027161,8|0|0
240,312,60421,1,8
216,348,60534,1,0
180,368,60647,1,0
140,376,60760,1,8
100,368,60873,1,0
68,340,60986,1,0
48,304,61099,6,0,B|148:264|160:164|160:164|80:116,2,252.000006008148,0|8|0
0,160,62002,2,0,B|20:56|96:24|192:96,1,252.000006008148,8|0
236,148,62454,2,0,B|296:72|372:60|372:60|456:104,2,252.000006008148,0|8|0
449,100,63471,1,8
256,220,63810,6,0,B|236:308|200:336|128:292,1,168.000004005432
88,252,64149,2,0,B|224:152,1,168.000004005432,8|0
256,220,64488,2,0,B|276:308|312:336|384:292,1,168.000004005432
424,252,64827,2,0,B|288:152,1,168.000004005432,8|0
256,84,65166,6,0,B|168:80|120:168,1,168.000004005432
76,108,65505,2,0,B|-2:148|0:248,1,168.000004005432,8|0
36,268,65844,1,8
72,288,65957,1,0
108,308,66070,1,0
128,344,66183,1,8
168,348,66296,1,0
208,352,66409,1,0
248,356,66522,6,0,B|344:372|448:284|452:228,1,252.000006008148,0|2
264,28,67200,2,0,B|168:12|64:100|60:156,1,252.000006008148,0|2
144,360,67878,6,0,B|152:264|240:232,1,168.000004005432
312,256,68217,2,0,B|320:160|408:128,1,168.000004005432,2|0
476,160,68556,1,0
405,128,68669,1,0
336,100,68782,1,2
268,72,68895,2,0,B|240:164|140:176,1,168.000004005432,2|0
84,216,69234,6,0,B|116:308|116:308|192:292|256:356,1,252.000006008148,0|2
428,168,69912,2,0,B|396:76|396:76|320:92|256:28,1,252.000006008148,0|2
84,216,70590,6,2,B|120:228|120:228|108:264|108:264|144:260|144:260|148:292|148:292|172:288|200:288|240:344,1,252.000006008148,2|0
428,168,71268,2,2,B|392:156|392:156|404:120|404:120|368:124|368:124|364:92|364:92|340:96|312:96|272:40,1,252.000006008148,2|0
76,192,71946,5,0
256,372,72285,1,8
436,192,72624,1,0
256,12,72963,1,8
76,192,73302,6,0,B|156:212|188:288,1,140
244,296,73641,1,0
300,264,73754,1,0
352,228,73867,1,0
400,188,73980,6,0,B|320:168|288:92,1,140
232,84,74319,1,0
176,116,74432,1,0
124,152,74545,1,0
76,192,74658,6,0,B|176:260|96:320|96:320|48:280,1,210,0|8
436,192,75336,2,0,B|336:124|416:64|416:64|464:104,1,210,0|8
272,36,76014,6,0,B|192:56|152:120,1,140
132,136,76353,2,0,B|64:96,2,70,8|0|0
116,168,76692,1,8
104,200,76805,1,0
100,236,76918,1,0
108,272,77031,1,8
124,304,77144,1,0
148,328,77257,1,0
180,344,77370,6,0,B|232:240|352:240,1,210,4|8
332,40,78048,2,0,B|280:144|160:144,1,210,0|8
48,196,78613,5,0
48,196,78726,2,0,B|124:212|152:280,1,140
180,304,79065,2,0,B|140:372,2,70,8|0|0
216,312,79404,1,0
252,308,79517,1,0
284,296,79630,1,0
312,276,79743,1,8
336,248,79856,1,0
348,216,79969,1,0
356,184,80082,2,0,B|176:64,1,210,8|8
181,67,80760,5,8
156,92,80873,1,8
132,116,80986,1,8
108,140,81099,1,8
84,168,81212,1,8
60,196,81325,1,8
36,224,81437,2,0,B|210:340,1,210,8|12
256,192,81819,12,0,82454
256,246,82793,5,0
256,268,82906,1,0
256,288,83019,1,0
256,308,83132,1,0
256,328,83245,1,0
256,348,83358,1,0
256,368,83471,1,0
256,368,83810,6,2,B|412:224,1,210,2|0
424,212,84262,1,0
440,196,84375,1,0
456,180,84488,1,0
472,164,84601,1,0
488,148,84714,1,0
504,132,84827,1,0
504,132,85166,6,2,B|284:132,1,210,2|0
268,132,85618,1,0
248,132,85731,1,0
228,132,85844,6,2,B|320:328,1,210,2|0
328,340,86296,1,0
340,360,86409,1,0
352,380,86522,6,2,B|128:380,1,210,2|2
68,78,87200,1,2
444,78,87539,1,2
370,380,87878,1,2
256,192,88217,6,0,B|256:36,1,140
256,16,88556,1,6
