osu file format v5

[General]
AudioFilename: Shugo.mp3
AudioLeadIn: 0
PreviewTime: -1
Countdown: 1
SampleSet: Normal
StackLeniency: 0.7
Mode: 0

[Metadata]
Title:Kokoro no Tamago
Artist:Buono!
Creator:Hitoshirenu Shourai
Version:Hard
Source:Shugo Chara!
Tags:

[Difficulty]
HPDrainRate:5
CircleSize:5
OverallDifficulty:5
SliderMultiplier:1.4
SliderTickRate:2

[Events]
//Background and Video events
0,0,"vlcsnap-8519540.png"
1,0,"Shugo_.avi"
//Break Periods
2,10655,17106
//Storyboard Layer 0 (Background)
//Storyboard Layer 1 (Failing)
//Storyboard Layer 2 (Passing)
//Storyboard Layer 3 (Foreground)
//Storyboard Sound Samples
//Background Colour Transformations
3,100,163,162,255

[TimingPoints]
4010,468.733900000001,4,2,0,60
11509,468.733900000001,4,1,0,40
81819,468.733900000001,4,2,0,60

[Colours]
Combo1 : 0,255,0
Combo2 : 255,0,0
Combo3 : 0,0,255

[HitObjects]
256,176,4009,1,0
408,248,4478,1,0
320,336,4830,2,2,B|248:240,1,105
456,96,5884,5,0
360,232,6353,1,0
488,224,6705,2,2,B|376:144,1,105
152,144,7759,5,0
192,304,8228,1,0
64,296,8580,2,2,B|96:184,1,105
256,192,9634,12,6,10455
416,88,18306,6,0,B|352:248,1,140
312,288,19009,1,4
240,248,19243,1,0
184,304,19478,1,0
104,280,19712,1,0
56,208,19946,2,4,B|80:56,1,140
152,32,20650,1,0
224,72,20884,2,4,B|256:168|352:96,2,140
352,288,22524,5,0
272,256,22759,1,4
280,168,22993,1,0
368,152,23228,1,4
448,176,23462,1,0
472,144,23579,2,6,B|488:64|416:64,1,105
344,72,24165,1,0
264,72,24399,1,0
216,144,24634,1,0
136,128,24868,1,2
136,168,24985,2,6,B|96:248|216:304,1,175
360,64,26743,6,6,B|440:48|472:144,1,140
432,152,27329,2,0,B|352:208|368:256,1,105
384,312,27915,1,0
304,328,28149,1,0
232,280,28384,1,6
240,192,28618,1,0
160,168,28852,1,0
152,80,29087,1,4
192,80,29204,2,6,B|232:136|320:80|344:160,1,175
376,232,30024,5,0
336,304,30259,2,6,B|256:352|216:288,1,105
120,272,30962,1,0
72,208,31196,1,0
80,120,31430,1,0
160,152,31665,1,0
232,104,31899,1,0
240,16,32134,1,6
320,40,32368,1,6
136,320,33305,5,0
152,240,33540,1,0
216,296,33774,1,0
304,288,34008,2,6,B|200:152,1,140
288,128,34712,2,6,B|384:240,1,140
376,64,35649,6,6,B|448:200,1,140
440,272,36352,1,0
368,304,36587,1,6
352,264,36704,2,6,B|280:224|238:305|152:272,1,175
112,240,37524,5,0
64,176,37758,1,4
136,104,38110,1,4
208,208,38461,1,4
296,216,38696,1,4
376,192,38930,1,0
344,112,39165,1,0
264,104,39399,1,0
200,160,39633,2,6,B|192:280|296:256,1,140
248,344,40336,1,6
440,64,41274,5,0
432,104,41391,1,0
392,112,41508,2,6,B|304:136,1,70
264,72,41977,2,0,B|240:160,1,70
208,160,42328,2,6,B|384:272,1,175
312,328,43149,5,0
232,336,43383,1,6
184,264,43618,1,0
104,264,43852,1,6
128,184,44086,1,0
128,144,44203,2,6,B|208:80|244:160|312:120,1,175
328,48,45024,5,0
360,128,45258,2,6,B|408:240,2,105
352,208,46196,2,6,B|288:320,2,105
288,160,47133,2,6,B|240:104|160:112|120:216|168:328|264:312|264:312|248:207|248:207|304:224,1,490
384,224,49008,5,4
384,224,49125,1,4
384,136,49360,1,4
384,48,49594,1,4
304,40,49828,1,4
304,40,49945,1,4
224,72,50180,5,0
168,128,50414,1,0
88,160,50649,1,0
48,232,50883,2,6,B|72:328|152:336,3,140
216,336,52523,2,6,B|248:248|344:264,1,140
408,280,53227,1,0
488,256,53461,2,6,B|512:168|424:120,1,140
112,136,54867,5,0
176,80,55101,1,0
264,96,55336,1,4
296,176,55570,1,0
240,240,55805,1,0
272,320,56039,1,0
360,328,56273,1,0
432,288,56508,2,6,B|488:144,1,140
448,88,57211,1,0
296,152,57680,5,0
216,128,57914,1,0
168,200,58148,1,0
104,144,58383,2,6,B|80:232|120:304,3,140
168,336,60023,2,0,B|232:256|312:312,1,140
368,328,60726,1,0
448,296,60961,2,6,B|488:224|432:160,1,140
272,184,61898,5,0
232,112,62133,1,2
96,288,62836,1,0
264,312,63304,1,0
328,256,63539,1,0
328,168,63773,1,0
256,120,64007,2,6,B|150:90|113:189|128:248,1,210
280,296,65179,5,0
344,240,65414,1,0
352,152,65648,1,0
432,160,65882,1,6
296,64,66351,1,6
136,104,66820,1,6
120,272,67289,1,0
192,312,67523,2,6,B|264:272|344:312,1,140
320,216,68226,1,0
320,128,68460,2,6,B|384:64|480:128,1,140
112,104,69867,5,0
144,184,70101,1,0
144,264,70335,1,0
224,280,70570,1,6
296,232,70804,1,0
256,160,71038,1,0
216,80,71273,1,0
296,48,71507,2,6,B|408:48|408:48|432:80,1,140
424,152,72210,1,6
336,296,72679,5,0
280,232,72913,1,0
200,232,73148,1,0
144,296,73382,2,6,B|64:144,1,140
208,56,74320,2,6,B|344:104,1,140
416,144,75023,2,6,B|440:304,1,140
360,312,75726,1,0
288,264,75960,2,6,B|224:352|168:344,1,140
96,200,76898,5,0
128,120,77132,2,6,B|184:32|320:48,1,210
328,128,78069,1,0
312,208,78304,1,0
256,264,78538,1,0
176,248,78773,1,0
256,192,79007,12,6,80413
256,128,80882,1,4
304,192,81116,1,4
256,256,81351,1,4
208,192,81585,1,4
376,192,82054,6,0,B|344:288|408:344,1,140
312,304,82757,5,0
168,216,83226,1,0
152,336,83577,2,2,B|40:336|40:280,1,105
184,96,84632,5,0
352,112,85100,1,0
424,216,85452,2,2,B|464:312|424:344,1,105
304,104,86507,5,0
192,224,86975,1,0
192,96,87327,2,2,B|272:208,1,105
40,48,88382,5,2
80,72,88499,1,0
112,96,88616,1,2
192,128,88850,1,2
280,136,89085,1,0
320,136,89202,1,6
