osu file format v4

[General]
AudioFilename: Sailing Day.mp3
AudioLeadIn: 0
AudioHash: 4d654144770f299923f816c9cb41307d
PreviewTime: -1
SampleSet: Normal

[Metadata]
Title:Sailing Day
Artist:Bump of Chicken
Creator:Zweihander
Version:Hard

[Difficulty]
HPDrainRate:5
CircleSize:5
OverallDifficulty:5
SliderMultiplier: 1.4
SliderTickRate: 1

[Events]
//Background and Video events
1,0,"bg.avi"
//Break Periods
2,33239,43247
2,64423,69576
2,84871,94997
2,129218,148344
//Storyboard Layer 0 (Background)
//Storyboard Layer 1 (Failing)
//Storyboard Layer 2 (Passing)
//Storyboard Layer 3 (Foreground)
//Storyboard Sound Samples
//Background Colour Transformations
3,0,163,162,255

[TimingPoints]
3650,315.789473684211,4,1,0
150523,316.990701606086,4,1,0

[HitObjects]
128,96,3650,2,0,B|128:96|208:96,2,70
128,104,6176,5,0
128,192,6492,2,0,B|128:192|200:152|232:152|264:216|328:232|376:208|392:192,1,280
336,272,9018,5,0
416,224,9334,2,2,B|416:224|416:304,1,70
416,294,9650,1,2
32,256,11544,5,0
118,256,11860,2,0,B|118:256|198:256,1,70
192,192,12176,1,0
248,192,12334,1,0
248,136,12492,1,0
192,136,12650,2,2,B|192:136|160:72|112:120|96:40,1,140
192,40,13281,2,0,B|192:40|265:0|328:40,1,140
360,88,13755,1,2
392,136,13913,1,2
424,184,14071,1,2
176,336,14544,5,0
256,240,14860,1,0
296,200,15018,1,0
336,160,15176,1,2
376,120,15334,1,2
32,248,15807,5,0
32,192,15965,1,0
32,136,16123,1,2
128,88,16597,2,2,B|128:88|256:24|400:24,2,280
128,168,18176,1,6
184,168,18334,1,6
32,224,19123,6,0,B|32:224|80:192|96:240|112:256|176:224,1,140
192,304,19755,1,2
248,304,19913,1,2
336,352,20228,1,0
416,352,20544,2,2,B|416:352|480:320|448:272|512:256|528:256,1,140
344,200,21492,5,0
304,240,21650,1,0
208,240,21965,1,2
168,200,22123,1,2
168,144,22281,2,6,B|168:144|209:64|304:65|344:160,1,210
416,56,23386,5,0
416,112,23544,1,0
416,200,23860,1,0
416,256,24018,1,2
336,320,24334,1,2
256,256,24650,1,0
176,256,24965,2,0,B|176:256|96:256,1,70
48,256,25281,1,0
48,200,25439,1,2
48,112,25913,2,0,B|48:112|48:80|96:64,2,70
160,64,26702,2,4,B|160:64|240:64|239:153|203:178|144:256|240:288,3,280
344,264,29071,5,2
384,224,29228,1,2
448,176,29544,2,0,B|448:176|352:64,1,140
312,32,30018,1,0
224,32,30334,1,0
224,112,30650,1,2
224,192,30965,1,0
224,272,31281,1,2
400,336,31755,2,6,B|400:336|268:336|112:336,2,280
192,0,44386,6,2,L|192:0|368:112|176:240,1,420
96,304,45965,1,0
176,304,46281,1,0
256,304,46597,1,0
336,304,46913,1,2
416,304,47228,1,2
112,96,48492,5,0
112,192,48807,2,0,B|112:192|192:160|208:224|176:256,2,140
176,336,49755,2,0,B|176:336|256:336|248:248|264:160|300:131|352:112,1,280
351,201,50702,2,2,B|351:201|375:260|493:265|527:345,1,210
136,224,51807,5,0
80,224,51965,1,0
80,304,52281,2,2,B|80:304|144:352,2,70
216,344,52913,2,0,B|216:344|296:344|296:264|360:264|360:184|440:184,1,280
491,186,53702,1,2
488,272,54018,1,6
240,80,54492,6,0,B|240:80|141:176|256:272,2,210
96,336,56071,1,0
176,336,56386,1,2
256,336,56702,1,0
336,336,57018,1,2
416,336,57334,1,2
336,80,58597,6,0,B|336:80|399:113|425:159|432:192,2,140
264,72,59544,1,2
192,80,59860,2,0,B|192:80|152:86|80:138|42:200|36:268|16:304,3,280
24,344,61913,6,0,B|24:344|104:344,1,70
192,344,62386,1,0
272,344,62702,1,0
328,344,62860,1,0
384,344,63018,1,0
440,344,63176,1,0
320,232,63492,1,2
320,128,63807,2,4,B|320:128|212:180|184:233|184:263|192:288,1,210
208,64,70755,6,0,B|208:64|128:64,1,70
144,160,71228,1,0
144,256,71544,2,0,B|144:256|224:256,1,70
288,256,72018,2,2,B|288:256|368:224|304:160|448:128,1,210
443,72,72650,1,2
400,352,73281,6,0,B|400:352|400:272,1,70
512,224,73755,2,0,B|512:224|432:224,1,70
384,224,74071,1,2
328,224,74228,1,2
328,128,74544,1,6
128,272,75176,5,0
176,208,75492,1,0
208,160,75650,1,0
240,112,75807,1,2
304,32,76123,1,2
304,112,76439,1,0
304,192,76755,1,0
304,248,76913,2,2,B|304:248|304:328,2,70
16,336,77702,6,0,B|16:336|80:336|80:272|160:304,1,140
208,336,78492,1,2
224,256,78807,1,2
304,224,79123,2,0,B|304:224|336:304,1,70
352,368,79597,1,0
416,272,79913,2,2,B|416:272|496:304|464:352|528:368,1,140
480,80,81018,6,0,B|480:80|480:160,3,70
480,224,81807,1,2
432,304,82123,1,0
320,304,82439,1,0
320,248,82597,1,0
320,192,82755,1,0
320,136,82913,1,0
264,136,83071,2,2,B|264:136|200:152|216:232|199:291|136:312,1,210
32,304,84334,2,4,B|32:304|31:265|64:240,2,70
333,18,96176,6,0,B|333:18|445:83|351:124|477:178,2,210
168,81,97755,6,0,B|168:81|104:81|120:145|40:161,1,140
170,160,98386,1,0
174,238,98702,2,2,B|174:238|241:252|220:285|302:302,1,140
368,272,100281,6,0,B|368:272|240:240|256:112|144:80,5,280
128,48,103597,1,0
96,96,103755,1,0
160,160,104071,2,0,B|160:160|99:169|115:230|48:240,1,140
56,320,104702,1,0
112,320,104860,2,2,B|112:320|160:304|192:352|240:320|256:304,2,140
112,240,105807,1,6
152,96,106281,6,0,B|152:96|225:68|284:68|360:104,2,210
320,192,107860,1,0
256,256,108176,1,0
192,192,108492,1,0
256,128,108807,1,2
256,56,109123,1,2
128,64,110386,5,0
192,112,110702,1,0
272,96,111018,1,0
336,64,111334,1,0
416,64,111650,2,0,B|416:64|400:192|336:112|272:176|266:235|272:288,1,280
192,288,112597,2,2,B|192:288|129:247|166:221|192:192|215:192|196:129|144:112,1,210
24,160,113702,5,0
80,160,113860,1,0
136,104,114176,1,0
192,160,114492,1,0
248,160,114650,1,0
304,160,114807,2,6,B|304:160|331:304|458:190|496:336,2,280
448,320,116702,5,0
384,352,117018,1,0
320,320,117334,1,0
256,352,117650,1,0
192,320,117965,1,0
128,352,118281,1,2
64,320,118597,1,2
32,32,119228,6,0,B|32:32|48:0|96:0,2,70
152,32,119860,1,0
208,32,120018,1,0
264,32,120176,1,0
336,32,120492,2,2,B|336:32|352:0|384:0|400:0,2,70
464,32,121123,1,2
424,304,121755,5,0
352,352,122071,1,0
280,304,122386,1,0
208,352,122702,1,0
128,352,123018,1,2
80,320,123176,1,2
32,352,123334,1,2
80,72,123965,5,0
80,128,124123,1,0
160,88,124439,1,2
160,32,124597,2,2,B|160:32|231:32|222:86|288:96,1,140
400,256,126176,6,0,B|400:256|453:201|448:160|403:123|392:120,2,140
256,192,127123,12,4,129018
48,40,149544,1,0
160,40,149860,1,0
216,40,150018,1,0
272,40,150176,1,0
392,40,150523,1,2
136,152,151314,6,0,B|136:152|224:152,2,70
136,264,151948,2,0,B|136:264|216:264,2,70
48,264,152582,1,0
48,208,152741,1,0
48,152,152899,1,0
184,56,153375,1,2
240,56,153534,1,2
408,56,154009,2,0,B|408:56|408:152,1,70
256,192,154643,5,0
256,304,154960,1,0
312,304,155119,1,0
368,304,155277,1,2
376,192,155594,1,2
96,192,156387,6,0,B|96:192|112:120|144:96|168:72,1,140
280,72,157021,2,0,B|280:72|424:72,1,140
424,184,157655,1,0
312,184,157972,1,2
368,184,158130,1,2
144,184,158764,1,0
352,256,159398,5,0
312,296,159557,1,0
200,296,159874,1,2
160,256,160032,1,2
256,200,160349,1,2
344,136,160666,2,0,B|344:136|264:88|184:96,2,140
416,224,161617,1,4
480,88,162568,5,0
480,184,163044,1,0
480,280,163519,1,2
368,256,164153,2,0,B|368:256|400:192|360:112,2,140
304,192,165104,1,2
224,192,165421,1,2
136,48,166689,5,0
136,120,167006,1,0
136,192,167323,1,0
240,192,167640,2,2,B|240:192|216:254|173:281|137:279|112:284|85:274|63:246|51:226|24:184,2,280
136,336,169384,1,2
432,112,170018,5,0
432,168,170176,2,0,B|432:168|352:164|325:226|320:312|256:328|208:328,2,280
432,224,171603,1,2
432,104,171920,2,6,B|432:104|423:57|391:21|328:24,1,140
112,256,172712,5,0
112,160,173187,1,2
112,64,173663,1,2
208,64,174297,1,0
256,112,174614,1,0
304,160,174931,1,0
352,208,175248,1,2
400,256,175565,1,2
320,328,176833,5,0
248,296,177150,1,0
200,240,177467,1,0
160,176,177784,1,0
160,104,178101,2,0,B|160:104|253:97|259:235|275:268|376:264,2,280
104,104,179527,1,2
368,144,180161,5,0
368,144,180320,1,0
448,144,180637,1,0
448,216,180954,2,0,B|448:216|496:248|464:288,3,70
392,280,181746,1,0
312,280,182063,1,0
232,280,182380,1,2
176,280,182539,1,6
80,280,182856,6,0,B|80:280|77:144|321:232|429:208|408:88,1,420
272,112,184441,2,0,B|272:112|213:61|179:4|160:0,2,140
360,112,185391,1,2
448,112,185708,1,2
256,32,186976,5,0
336,64,187293,1,0
408,96,187610,1,0
488,128,187927,1,0
505,212,188244,2,0,B|505:212|358:218|426:385|273:356,3,280
232,360,190305,1,0
176,360,190463,1,0
120,352,190622,1,2
72,320,190780,1,2
40,280,190939,1,2
128,240,191414,1,0
184,240,191573,1,0
240,240,191731,2,0,B|240:240|288:208|320:176|368:176,1,140
421,178,192207,1,2
424,88,192524,1,6
480,248,192999,5,0
408,304,193475,1,0
336,352,193950,1,0
272,288,194584,1,0
208,288,194901,1,0
208,224,195218,1,0
272,224,195535,1,2
240,160,195852,1,2
176,224,197120,6,0,B|176:224|96:208|112:32|0:16,2,280
232,224,198547,1,0
232,336,199022,2,2,B|232:336|344:304|336:208|456:168,1,280
504,168,199815,1,2
496,296,200449,5,0
496,240,200607,1,0
464,152,200924,1,0
392,88,201241,1,0
336,64,201399,1,0
280,48,201558,1,0
224,48,201716,1,0
136,80,202033,1,0
64,136,202350,1,2
24,224,202667,1,2
16,280,202826,1,4
48,240,205679,5,2
112,192,205996,1,2
192,248,206471,1,0
232,208,206630,1,0
264,160,206788,1,0
312,96,207105,1,2
352,160,207422,2,2,B|352:160|380:242|426:253|448:256,1,140
496,256,207898,1,4
344,280,211543,5,0
304,320,211702,1,0
248,328,211860,1,0
168,280,212177,1,0
256,192,212494,12,4,215823
256,192,218359,12,4,223272
