osu file format v5

[General]
AudioFilename: Tales of the Abyss - Karma (Instrumental).mp3
AudioLeadIn: 993
PreviewTime: -1
Countdown: 1
SampleSet: Soft
StackLeniency: 1
Mode: 0
LetterboxInBreaks: 1

[Metadata]
Title:Karma (Instrumental)
Artist:Bump of Chicken
Creator:Cyclone
Version:Normal
Source:
Tags:

[Difficulty]
HPDrainRate:4
CircleSize:4
OverallDifficulty:4
SliderMultiplier:1.6
SliderTickRate:2

[Events]
//Background and Video events
0,0,"TOA.jpg"
//Break Periods
2,90089,97455
//Storyboard Layer 0 (Background)
//Storyboard Layer 1 (Failing)
//Storyboard Layer 2 (Passing)
//Storyboard Layer 3 (Foreground)
//Storyboard Sound Samples
//Background Colour Transformations
3,100,163,162,255

[TimingPoints]
56,615.342217015508,4,2,0,100

[HitObjects]
88,184,9901,5,4
112,96,10516,1,0
176,64,10978,2,2,B|288:64,1,80
304,64,11593,2,2,B|392:64,1,80
440,104,12362,1,4
440,200,12978,1,0
440,272,13439,1,2
320,272,14208,1,0
224,272,14824,5,4
128,272,15439,1,0
136,200,15901,2,2,B|200:104,1,80
224,136,16516,2,2,B|296:224,1,80
280,264,17285,1,4
376,264,17900,1,0
376,192,18362,1,2
256,192,19131,1,4
256,72,19746,5,4
304,72,20054,1,0
352,72,20362,1,0
448,72,20977,1,4
448,120,21285,1,0
448,168,21592,1,0
352,160,22208,5,4
304,176,22515,1,0
272,208,22823,1,0
248,248,23131,1,0
272,288,23439,1,0
312,312,23746,1,2
352,328,24054,1,2
448,328,24669,5,4
448,280,24977,1,0
448,232,25285,1,0
368,176,25900,1,4
368,224,26208,1,0
368,272,26515,1,0
272,280,27131,5,4
272,184,27746,1,0
272,88,28361,1,2
176,88,28977,1,2
80,88,29592,5,4
80,136,29900,1,0
80,184,30207,1,0
80,280,30823,1,4
128,280,31130,1,0
176,280,31438,1,0
256,336,32053,5,4
304,336,32361,1,0
336,304,32669,1,0
336,256,32976,1,0
304,224,33284,1,0
256,224,33592,1,2
208,224,33899,1,2
208,320,34515,5,4
160,320,34822,1,0
112,320,35130,1,0
72,232,35745,1,4
120,216,36053,1,0
168,216,36361,1,0
256,248,36976,1,4
256,176,37438,1,4
344,216,38053,1,4
448,192,39437,5,4
448,120,39899,1,0
448,48,40360,2,4,B|176:48,1,240
112,48,41899,1,4
112,120,42360,1,0
112,192,42822,2,4,B|384:192,1,240
448,192,44360,5,4
448,264,44822,1,0
448,336,45283,2,4,B|192:336,1,240
112,320,46822,1,0
112,224,47437,1,0
208,224,48052,2,4,B|208:136,2,80
208,320,49283,6,4,B|480:320|480:24|288:24,1,480
224,32,51744,1,4
128,40,52360,1,0
80,120,52975,1,0
80,216,53590,1,0
144,288,54206,1,4
304,288,55282,5,4
456,288,56667,5,4
456,216,57128,1,0
384,216,57590,1,0
384,144,58052,1,0
312,144,58513,1,0
312,48,59128,6,4,B|48:48|48:336|256:336,1,480
320,336,61590,1,4
392,280,62205,1,0
408,184,62820,1,0
384,96,63436,1,0
312,32,64051,1,4
144,32,65128,1,4
64,192,66512,5,4
136,192,66974,1,0
136,264,67435,1,0
208,264,67897,1,0
208,336,68358,1,0
304,336,68974,5,4
304,240,69589,1,0
304,144,70205,2,4,B|304:40,2,80
256,280,71743,6,2,B|256:192,1,80
256,152,72358,1,2
256,104,72666,2,0,B|440:104,1,160
424,248,74204,6,2,B|336:248,1,80
296,248,74820,1,2
248,248,75127,2,0,B|144:248,1,80
120,248,75743,2,0,B|120:160,1,80
120,72,76666,6,2,B|208:72,1,80
248,72,77281,1,2
296,72,77589,2,0,B|296:256,1,160
392,208,78819,1,2
392,280,79281,2,2,B|344:280,1,40
280,280,79896,2,2,B|224:280,1,40
168,280,80511,2,2,B|120:280,2,40
168,160,81588,5,0
168,112,81896,1,2
216,112,82204,1,0
264,112,82511,2,2,B|448:112,1,160
424,208,83742,5,0
376,208,84050,1,0
328,208,84357,1,2
328,256,84665,1,0
328,304,84973,1,0
280,304,85280,1,0
232,304,85588,1,2
232,256,85896,1,0
232,208,86203,1,0
136,208,86819,5,2
136,160,87126,1,0
184,160,87434,1,0
232,160,87742,1,0
232,112,88049,1,2
232,64,88357,1,0
280,64,88665,2,0,B|464:64|464:200|272:200,1,320
184,192,98510,5,4
256,192,98972,1,4
328,192,99433,1,4
304,320,100972,6,4,B|32:320|32:24|224:24,1,480
288,32,103433,1,4
384,40,104048,1,0
432,120,104664,1,0
432,216,105279,1,0
368,288,105894,1,4
208,288,106971,5,4
56,288,108356,5,4
56,216,108817,1,0
128,216,109279,1,0
128,144,109740,1,0
200,144,110202,1,0
200,48,110817,6,4,B|464:48|464:336|256:336,1,480
192,336,113278,1,4
120,280,113894,1,0
104,184,114509,1,0
128,96,115124,1,0
200,32,115740,1,4
368,32,116817,1,4
448,192,118201,5,4
376,192,118663,1,0
376,264,119124,1,0
304,264,119586,1,0
304,336,120047,1,0
208,336,120663,5,4
208,240,121278,1,0
208,144,121893,2,4,B|16:144,2,160
208,48,123739,1,0
304,48,124355,1,0
400,48,124970,1,0
400,144,125585,1,4
400,328,126816,2,2,B|224:328|224:328,1,160
144,320,128047,6,4,B|145:120|256:0|368:120|368:296,1,480
368,320,130508,6,4,B|367:120|256:0|144:120|144:296,1,480
256,352,132969,6,4,B|256:16,1,320
128,72,134815,1,0
40,168,135431,2,4,B|84:296|180:372|329:358|448:312,1,480
424,184,137892,5,0
400,96,138507,1,0
336,64,138969,2,2,B|224:64,1,80
208,64,139584,2,2,B|120:64,1,80
72,104,140354,1,4
72,200,140969,1,0
72,272,141430,1,2
192,272,142200,1,0
288,272,142815,5,4
384,272,143430,1,0
376,200,143892,2,2,B|312:104,1,80
288,136,144507,2,2,B|216:224,1,80
232,264,145276,1,4
136,264,145892,1,0
136,192,146353,1,2
256,192,147122,1,4
