osu file format v14

[General]
AudioFilename: BUMPOFCHICKENTVsizever.mp3
AudioLeadIn: 0
PreviewTime: 47789
Countdown: 0
SampleSet: Normal
StackLeniency: 0.7
Mode: 0
LetterboxInBreaks: 1
WidescreenStoryboard: 1

[Editor]
DistanceSpacing: 1.3
BeatDivisor: 4
GridSize: 4
TimelineZoom: 1

[Metadata]
Title:Answer
TitleUnicode:Answer
Artist:Bump of Chicken
ArtistUnicode:Bump of Chicken
Creator:someguy33
Version:Normal
Source:3-gatsu no Lion
Tags:
BeatmapID:1350819
BeatmapSetID:636489

[Difficulty]
HPDrainRate:4
CircleSize:3.3
OverallDifficulty:4
ApproachRate:4
SliderMultiplier:1.3
SliderTickRate:1

[Events]
//Background and Video events
0,0,"8b79ef6503704a56fb33e81bb4aba06c1475807454_full.png",0,0
//Break Periods
//Storyboard Layer 0 (Background)
//Storyboard Layer 1 (Fail)
//Storyboard Layer 2 (Pass)
//Storyboard Layer 3 (Foreground)
//Storyboard Sound Samples

[TimingPoints]
4256,451.127819548872,4,1,0,100,1,0
18920,451.127819548872,4,1,0,100,1,0
47773,451.127819548872,4,1,0,100,1,0
47773,-100,4,1,0,100,0,1
76645,-100,4,1,0,100,0,0
77547,451.127819548872,4,1,0,100,1,0

[HitObjects]
56,160,4255,6,0,P|96:116|164:112,1,130
164,280,5158,2,0,P|212:271|256:204,1,130
348,68,6060,1,0,0:0:0:0:
352,236,6511,2,0,L|352:372,2,130
352,152,7639,1,0,0:0:0:0:
348,68,7865,6,0,P|308:16|236:24,1,130
212,180,8767,2,0,P|164:169|140:96,1,130
284,12,9669,1,0,0:0:0:0:
404,132,10120,1,0,0:0:0:0:
296,264,10571,1,0,0:0:0:0:
140,328,11022,6,0,P|104:304|96:256,1,65
72,204,11474,1,0,0:0:0:0:
132,44,11925,1,0,0:0:0:0:
300,56,12376,2,0,P|348:80|360:160,1,130
364,320,13278,2,0,P|316:296|304:216,2,130
448,304,14406,1,0,0:0:0:0:
492,232,14631,6,0,P|500:184|436:132,1,130
276,128,15534,1,0,0:0:0:0:
196,160,15759,1,0,0:0:0:0:
152,232,15985,2,0,P|144:244|176:300,1,65
236,308,16436,1,0,0:0:0:0:
404,324,16887,1,0,0:0:0:0:
428,156,17338,1,0,0:0:0:0:
308,36,17789,2,0,P|268:8|192:36,1,130
60,132,18692,5,0,0:0:0:0:
116,196,18920,2,0,P|176:220|236:188,1,130
312,40,19822,1,0,0:0:0:0:
460,120,20273,2,0,P|486:177|462:235,2,130
312,40,21626,1,0,0:0:0:0:
168,132,22077,5,0,0:0:0:0:
168,216,22303,1,0,0:0:0:0:
168,300,22529,1,0,0:0:0:0:
324,368,22980,2,0,P|376:364|432:284,2,130
168,300,24333,1,0,0:0:0:0:
100,252,24559,1,0,0:0:0:0:
244,44,25235,1,0,0:0:0:0:
316,196,25686,5,0,0:0:0:0:
324,364,26138,2,0,P|376:376|436:328,2,130
252,212,27491,1,0,0:0:0:0:
208,140,27716,1,0,0:0:0:0:
140,88,27942,2,0,P|188:48|247:67,2,130
60,236,29295,5,0,0:0:0:0:
196,340,29747,2,0,P|252:336|308:276,1,130
340,212,30423,1,0,0:0:0:0:
356,128,30649,2,0,P|332:64|268:48,1,130
192,60,31326,1,0,0:0:0:0:
116,96,31551,2,0,P|68:140|64:212,1,130
200,300,32453,1,0,0:0:0:0:
332,196,32904,5,0,0:0:0:0:
484,120,33356,2,0,P|444:56|364:48,1,130
224,44,34258,2,0,P|167:73|145:133,1,130
144,304,35160,1,0,0:0:0:0:
312,332,35611,1,0,0:0:0:0:
376,276,35837,1,0,0:0:0:0:
484,48,36513,5,0,0:0:0:0:
400,68,36739,1,0,0:0:0:0:
320,88,36965,2,0,P|256:116|240:176,1,130
376,276,37867,2,0,P|434:253|456:194,1,130
456,24,38769,1,0,0:0:0:0:
240,152,39446,1,0,0:0:0:0:
360,376,40123,5,0,0:0:0:0:
360,208,40574,2,0,P|360:152|288:104,2,130
360,376,41927,1,0,0:0:0:0:
284,340,42153,1,0,0:0:0:0:
216,292,42378,2,0,P|172:252|180:176,2,130
360,376,43732,1,0,0:0:0:0:
456,272,44183,5,0,0:0:0:0:
456,188,44408,2,0,P|412:124|304:128,1,195
144,184,45536,1,0,0:0:0:0:
204,344,45987,2,0,P|252:380|304:340,2,130
192,260,47115,1,0,0:0:0:0:
332,36,47773,6,0,L|448:104,1,130
368,252,48675,2,0,L|255:186,1,130
184,140,49351,1,0,0:0:0:0:
100,144,49577,2,0,P|88:180|116:268,1,130
256,360,50479,1,0,0:0:0:0:
404,280,50930,1,0,0:0:0:0:
400,112,51382,6,0,P|364:64|280:64,1,130
216,72,52058,1,0,0:0:0:0:
92,184,52509,1,0,0:0:0:0:
132,260,52735,2,0,P|172:296|244:288,2,130
92,184,53863,1,0,0:0:0:0:
64,104,54088,1,0,0:0:0:0:
228,68,54539,1,0,0:0:0:0:
324,208,54991,6,0,P|284:244|200:236,2,130
380,48,56344,1,0,0:0:0:0:
432,112,56569,2,0,P|448:156|360:276,1,195
296,296,57472,1,0,0:0:0:0:
212,284,57697,1,0,0:0:0:0:
124,140,58148,1,0,0:0:0:0:
280,76,58600,6,0,P|340:80|380:152,1,130
388,216,59276,1,0,0:0:0:0:
384,300,59502,2,0,P|350:349|268:348,1,130
132,284,60404,6,0,P|84:216|128:116,1,195
284,68,61532,1,0,0:0:0:0:
432,276,62209,6,0,P|392:304|308:300,2,130
340,132,63562,1,0,0:0:0:0:
256,148,63788,2,0,P|212:168|192:244,1,130
224,320,64464,1,0,0:0:0:0:
308,304,64690,2,0,P|352:284|380:208,1,130
388,128,65366,5,0,0:0:0:0:
304,124,65592,2,0,P|244:140|208:204,1,130
220,280,66269,1,0,0:0:0:0:
300,304,66494,1,0,0:0:0:0:
380,276,66720,2,0,P|440:216|424:160,1,130
384,112,67397,1,0,0:0:0:0:
136,164,68073,1,0,0:0:0:0:
80,232,68299,2,0,P|84:276|168:296,1,130
380,180,69427,5,0,0:0:0:0:
244,84,69878,1,0,0:0:0:0:
96,164,70329,2,0,P|72:208|104:284,1,130
176,316,71006,2,0,P|228:320|280:260,1,130
308,188,71682,1,0,0:0:0:0:
412,56,72133,1,0,0:0:0:0:
504,196,72585,1,0,0:0:0:0:
376,304,73036,6,0,P|308:320|252:296,2,130
444,256,74163,1,0,0:0:0:0:
276,64,74840,6,0,P|212:44|148:76,1,130
88,120,75517,1,0,0:0:0:0:
152,276,75968,1,0,0:0:0:0:
396,212,76645,5,0,0:0:0:0:
264,104,77096,1,0,0:0:0:0:
180,120,77321,2,0,P|132:156|156:236,1,130
192,288,77998,1,0,0:0:0:0:
276,272,78223,2,0,P|324:240|300:160,1,130
264,104,78900,1,0,0:0:0:0:
104,160,79351,1,0,0:0:0:0:
192,288,79802,1,0,0:0:0:0:
276,272,80028,1,0,0:0:0:0:
412,56,80704,5,0,0:0:0:0:
332,88,80930,1,0,0:0:0:0:
92,168,81607,2,0,P|100:200|192:228,1,130
348,204,82509,1,0,0:0:0:0:
208,300,82960,2,0,P|252:378|304:376,1,130
360,348,83637,1,0,0:0:0:0:
496,136,84313,5,0,0:0:0:0:
436,76,84539,1,0,0:0:0:0:
196,160,85216,1,0,0:0:0:0:
120,196,85441,2,0,P|92:232|196:288,1,195
256,252,86343,1,0,0:0:0:0:
416,100,87020,1,0,0:0:0:0:
352,44,87246,1,0,0:0:0:0:
104,88,87922,5,0,0:0:0:0:
156,156,88148,1,0,0:0:0:0:
332,340,88825,2,0,P|392:336|400:260,1,130
336,124,89727,1,0,0:0:0:0:
252,116,89953,1,0,0:0:0:0:
168,116,90178,2,0,P|120:124|116:200,1,130
256,192,90855,12,0,93787,0:0:0:0:
