osu file format v6

[General]
AudioFilename: Bullet For My Valentine - Hit The Floor.mp3
AudioLeadIn: 0
PreviewTime: -1
Countdown: 1
SampleSet: Soft
StackLeniency: 0.7
Mode: 0
LetterboxInBreaks: 1

[Editor]
DistanceSpacing: 0.800000011920929
BeatDivisor: 1
GridSize: 32

[Metadata]
Title:Hit The Floor
Artist:Bullet For My Valentine
Creator:p3atey
Version:Normal
Source:This is one of my first beatmaps so yea
Tags:=D

[Difficulty]
HPDrainRate:5
CircleSize:6
OverallDifficulty:6
SliderMultiplier:1.4
SliderTickRate:1

[Events]
//Background and Video events
//Break Periods
//Storyboard Layer 0 (Background)
//Storyboard Layer 1 (Fail)
//Storyboard Layer 2 (Pass)
//Storyboard Layer 3 (Foreground)
//Storyboard Sound Samples
//Background Colour Transformations
3,100,163,162,255

[TimingPoints]
-166.315789473684,631.578947368421,4,2,0,100,1,0

[Colours]
Combo1 : 255,150,0
Combo2 : 5,240,5
Combo3 : 5,5,240
Combo4 : 240,5,5

[HitObjects]
160,96,2991,1,0
320,256,3623,1,0
128,256,5517,1,0
320,288,6149,1,0
256,208,8675,12,0,10570
64,160,11202,6,0,B|416:224|384:224,1,280
64,160,13728,1,0
320,288,14360,1,0
320,128,14991,1,0
192,256,15623,1,0
160,96,16254,1,0
384,96,17517,1,0
384,256,18149,1,0
128,192,18781,1,0
352,128,20044,1,0
384,224,21307,5,0
384,32,22570,5,0
160,96,23202,1,0
160,256,23833,1,0
352,256,24465,1,0
224,0,25096,1,0
96,160,25728,1,0
320,224,26360,1,0
352,32,26991,1,0
160,224,27623,1,0
128,96,28254,1,0
352,256,28886,1,0
384,128,30149,5,0
192,224,30781,1,0
160,128,31412,1,0
320,256,32044,1,0
32,160,33307,1,0
384,160,34570,1,0
64,224,35833,1,0
64,128,37096,2,0,B|416:160,3,280
96,128,41517,1,0
352,128,42781,1,0
160,288,43412,1,0
352,256,44675,1,0
352,160,45938,1,0
192,256,46570,1,0
160,128,47202,1,0
352,256,48465,1,0
288,96,49096,1,0
128,288,49728,1,0
320,256,50359,1,0
384,128,50991,1,0
128,256,51623,1,0
160,96,53517,1,0
224,96,54149,1,0
384,224,56044,1,0
160,256,57307,1,0
160,96,58570,1,0
320,96,59202,1,0
320,256,59833,1,0
160,256,60465,1,0
160,64,61096,1,0
352,96,63623,5,0
320,256,64254,1,0
160,256,64886,1,0
160,128,65517,1,0
352,64,66149,1,0
352,256,67412,1,0
160,96,68675,1,0
96,224,69938,1,0
256,208,71202,12,0,73096
128,160,73728,6,0,B|480:32,6,280
96,96,81938,1,0
352,288,82570,1,0
288,128,83202,1,0
160,256,83833,1,0
160,96,84465,1,0
416,256,85096,1,0
352,96,85728,1,0
320,288,86360,1,0
256,96,86991,1,0
224,256,87623,1,0
160,64,88254,1,0
96,224,88886,1,0
224,128,89517,1,0
416,256,90149,1,0
352,96,90781,1,0
320,224,92675,1,0
288,96,93307,1,0
320,96,94570,5,0
288,256,95202,1,0
160,224,95833,1,0
160,96,96465,1,0
320,96,97096,1,0
320,256,97728,1,0
192,224,98360,1,0
192,96,98991,1,0
320,96,99623,1,0
256,128,101517,1,0
192,224,104044,1,0
320,256,104675,1,0
320,128,106570,5,0
128,96,107202,1,0
160,256,107833,1,0
352,256,108465,1,0
288,128,109096,1,0
160,96,109728,1,0
128,160,111623,1,0
256,208,110360,12,0,111623
384,192,112254,5,0
352,256,112886,1,0
160,256,113517,1,0
192,96,114149,1,0
320,128,114781,1,0
320,320,115412,1,0
128,256,116044,1,0
352,64,117307,5,0
192,64,117938,5,0
352,224,119202,5,0
64,224,120465,1,0
224,288,121728,1,0
320,256,122360,1,0
320,96,122991,1,0
256,208,124254,12,0,127412
128,128,128044,5,0
352,288,128675,1,0
320,160,130570,1,0
160,128,131202,1,0
320,288,131833,1,0
160,288,132465,1,0
384,128,133096,1,0
128,128,134360,5,0
288,128,135623,5,0
352,256,136886,5,0
128,256,138149,5,0
32,96,139412,2,0,B,1,280
32,128,141938,2,0,B,1,280
32,128,145096,1,0
384,128,145728,1,0
352,256,146360,1,0
160,256,147623,1,0
160,96,148254,1,0
256,96,148886,1,0
128,320,150781,1,0
352,128,151412,1,0
416,256,152675,1,0
256,192,153938,5,0
128,256,154570,1,0
128,96,155202,1,0
384,64,155833,1,0
384,256,157096,1,0
192,256,157728,1,0
352,96,158360,1,0
352,192,158991,1,0
96,192,160254,1,0
96,96,160886,1,0
288,96,161517,1,0
64,160,163412,1,0
320,256,164044,1,0
288,128,164675,1,0
192,96,165307,1,0
256,208,166570,12,0,167833
64,160,168465,5,0
352,160,169096,1,0
448,288,170991,1,0
128,256,171623,1,0
128,96,172254,1,0
352,96,172886,1,0
320,256,173517,1,0
192,64,174149,1,0
160,288,174781,1,0
256,208,176044,12,0,177307
416,192,177938,5,0
384,288,178570,1,0
128,256,179202,1,0
320,96,179833,1,0
352,128,181096,5,0
352,320,181728,1,0
128,288,182360,1,0
160,160,182991,1,0
352,128,183623,1,0
352,256,184254,1,0
128,256,184886,1,0
64,128,185517,1,0
256,208,186149,12,0,188044
192,128,188675,5,0
128,256,189307,1,0
32,160,189938,2,0,B,1,420
64,160,192465,1,0
384,224,193728,1,0
192,256,194991,1,0
384,96,195623,1,0
288,96,196886,1,0
192,96,197517,1,0
128,224,198149,1,0
320,224,198781,1,0
352,64,199412,1,0
416,128,200044,5,0
384,256,200675,1,0
128,256,201307,1,0
128,128,201938,1,0
384,96,202570,1,0
320,288,203202,1,0
160,128,203833,1,0
352,160,204465,1,0
256,288,205096,1,0
256,208,206360,12,0,207623
