osu file format v13

[General]
AudioFilename: rainbow original by Bubblegumballoon.mp3
AudioLeadIn: 0
PreviewTime: 28
Countdown: 0
SampleSet: Normal
StackLeniency: 0.7
Mode: 1
LetterboxInBreaks: 0
WidescreenStoryboard: 0

[Editor]
DistanceSpacing: 1.3
BeatDivisor: 2
GridSize: 32
TimelineZoom: 2

[Metadata]
Title:Rainbow
TitleUnicode:Rainbow
Artist:BubblegumBalloon
ArtistUnicode:BubblegumBalloon
Creator:Stefan
Version:Futsuu
Source:Space Hunk
Tags:chiptune soundtrack ludosity humble bundle mojam
BeatmapID:502670
BeatmapSetID:213885

[Difficulty]
HPDrainRate:4.5
CircleSize:2
OverallDifficulty:4.5
ApproachRate:0
SliderMultiplier:1.4
SliderTickRate:1

[Events]
//Background and Video events
0,0,"rainbow-1080p-desktop-background-inspiration-colour-picture-rainbow-background.jpg",0,125
//Break Periods
//Storyboard Layer 0 (Background)
//Storyboard Layer 1 (Fail)
//Storyboard Layer 2 (Pass)
//Storyboard Layer 3 (Foreground)
//Storyboard Sound Samples
//Background Colour Transformations
3,100,163,162,255

[TimingPoints]
28,400,4,1,0,96,1,0

[HitObjects]
256,192,28,5,4,0:0:0:0:
256,192,428,1,8,0:0:0:0:
256,192,1228,1,8,0:0:0:0:
256,192,1628,1,0,0:0:0:0:
256,192,2028,1,8,0:0:0:0:
256,192,2428,1,0,0:0:0:0:
256,192,2628,1,0,0:0:0:0:
256,192,2828,1,8,0:0:0:0:
256,192,3228,1,0,0:0:0:0:
256,192,3628,1,8,0:0:0:0:
256,192,4428,1,8,0:0:0:0:
256,192,4828,1,0,0:0:0:0:
256,192,5228,1,8,0:0:0:0:
256,192,5628,1,0,0:0:0:0:
256,192,5828,1,0,0:0:0:0:
256,192,6028,1,8,0:0:0:0:
256,192,6428,1,0,0:0:0:0:
256,192,7228,1,8,0:0:0:0:
256,192,8028,1,0,0:0:0:0:
256,192,8428,1,8,0:0:0:0:
256,192,8828,1,0,0:0:0:0:
256,192,9228,1,8,0:0:0:0:
256,192,9628,1,0,0:0:0:0:
256,192,10428,1,8,0:0:0:0:
256,192,11228,1,8,0:0:0:0:
256,192,12028,1,0,0:0:0:0:
256,192,12428,1,8,0:0:0:0:
256,192,12828,1,4,0:0:0:0:
256,192,13228,1,8,0:0:0:0:
256,192,14028,1,8,0:0:0:0:
256,192,14428,1,0,0:0:0:0:
256,192,14828,1,8,0:0:0:0:
256,192,15228,1,0,0:0:0:0:
256,192,15428,1,0,0:0:0:0:
256,192,15628,1,8,0:0:0:0:
256,192,16028,1,0,0:0:0:0:
256,192,16428,1,8,0:0:0:0:
256,192,17228,1,8,0:0:0:0:
256,192,17628,1,0,0:0:0:0:
256,192,18028,1,8,0:0:0:0:
256,192,18428,1,0,0:0:0:0:
256,192,18628,1,0,0:0:0:0:
256,192,18828,1,8,0:0:0:0:
256,192,19228,1,0,0:0:0:0:
256,192,20028,1,8,0:0:0:0:
256,192,20828,1,0,0:0:0:0:
256,192,21228,1,8,0:0:0:0:
256,192,21628,1,0,0:0:0:0:
256,192,22028,1,8,0:0:0:0:
256,192,22428,1,0,0:0:0:0:
256,192,23228,1,8,0:0:0:0:
256,192,24028,1,8,0:0:0:0:
256,192,24828,1,0,0:0:0:0:
256,192,25228,1,8,0:0:0:0:
256,192,25628,1,4,0:0:0:0:
256,192,26028,1,8,0:0:0:0:
256,192,26828,1,8,0:0:0:0:
256,192,27228,1,0,0:0:0:0:
256,192,27628,1,8,0:0:0:0:
256,192,28028,1,0,0:0:0:0:
256,192,28228,1,0,0:0:0:0:
256,192,28428,1,8,0:0:0:0:
256,192,28828,1,0,0:0:0:0:
256,192,29228,1,8,0:0:0:0:
256,192,30028,1,8,0:0:0:0:
256,192,30428,1,0,0:0:0:0:
256,192,30828,1,8,0:0:0:0:
256,192,31228,1,0,0:0:0:0:
256,192,31428,1,0,0:0:0:0:
256,192,31628,1,8,0:0:0:0:
256,192,32028,1,0,0:0:0:0:
256,192,32828,1,8,0:0:0:0:
256,192,33628,1,0,0:0:0:0:
256,192,34028,1,8,0:0:0:0:
256,192,34428,1,0,0:0:0:0:
256,192,34828,1,8,0:0:0:0:
256,192,35228,1,0,0:0:0:0:
256,192,36028,1,8,0:0:0:0:
256,192,36828,1,8,0:0:0:0:
256,192,37628,1,0,0:0:0:0:
256,192,38028,1,8,0:0:0:0:
