osu file format v12

[General]
AudioFilename: Treasure.mp3
AudioLeadIn: 0
PreviewTime: 35695
Countdown: 0
SampleSet: Soft
StackLeniency: 0.7
Mode: 0
LetterboxInBreaks: 1

[Editor]
DistanceSpacing: 1.12
BeatDivisor: 4
GridSize: 4

[Metadata]
Title:Treasure
TitleUnicode:Treasure
Artist:Bruno Mars
ArtistUnicode:Bruno Mars
Creator:DiamondCrash
Version:Normal
Source:
Tags:Unorthodox Jukebox
BeatmapID:256801
BeatmapSetID:95667

[Difficulty]
HPDrainRate:5
CircleSize:4
OverallDifficulty:5
ApproachRate:6
SliderMultiplier:1.92
SliderTickRate:2

[Events]
//Background and Video events
0,0,"BMback.jpg",0,0
//Break Periods
2,21212,36714
2,62592,69300
2,120523,128007
//Storyboard Layer 0 (Background)
//Storyboard Layer 1 (Fail)
//Storyboard Layer 2 (Pass)
//Storyboard Layer 3 (Foreground)
//Storyboard Sound Samples
//Background Colour Transformations
3,100,163,162,255

[TimingPoints]
2592,517.241379310345,4,2,1,80,1,0
37764,-100,4,2,1,80,0,1
58195,-100,4,1,1,80,0,1
60005,-100,4,3,2,80,0,1
62592,-100,4,2,1,80,0,0
95695,-100,4,2,1,80,0,1
116126,-100,4,1,1,80,0,1
117936,-100,4,3,2,80,0,1
120523,-100,4,2,0,60,0,0
132807,-100,4,3,2,60,0,0
137074,-100,4,2,1,80,0,1
161902,-100,4,2,1,80,0,0

[HitObjects]
136,80,4660,2,0,P|172:44|224:36,1,95.9999999999999,4|2,0:0|3:0,0:0:0:0:
297,35,5178,2,0,P|340:44|376:80,1,95.9999999999999,8|0,0:0|0:0,0:0:0:0:
432,148,5695,2,0,B|400:180|344:188|288:180|256:148,1,192,4|8,3:0|0:0,0:0:0:0:
132,192,6600,2,2,B|104:172|51:179|34:229|49:261,1,144,6|2,1:0|3:0,1:0:0:0:
80,344,7247,5,8,2:0:0:0:
256,344,7764,1,4,3:0:0:0:
376,80,8798,6,0,P|340:44|288:36,1,95.9999999999999,4|2,0:0|3:0,0:0:0:0:
214,35,9316,2,0,P|172:44|136:80,1,95.9999999999999,8|0,0:0|0:0,0:0:0:0:
80,148,9833,2,0,B|112:180|168:188|224:180|256:148,1,192,4|8,3:0|0:0,0:0:0:0:
400,192,10867,6,2,B|437:165|507:175|530:241|510:284,1,192,4|10,3:0|3:0,1:0:0:0:
428,316,11643,1,0,0:0:0:0:
344,344,11902,1,4,3:0:0:0:
136,80,12936,5,4,0:0:0:0:
300,32,13454,1,8,0:0:0:0:
372,84,13712,1,0,0:0:0:0:
432,148,13971,2,0,B|400:180|344:188|288:180|256:148,1,192,4|8,3:0|0:0,0:0:0:0:
132,192,14876,2,2,B|104:172|51:179|34:229|49:261,1,144,6|2,1:0|3:0,1:0:0:0:
80,344,15523,5,8,2:0:0:0:
256,344,16040,1,4,3:0:0:0:
452,124,16816,5,0,0:0:0:0:
376,80,17074,1,4,0:0:0:0:
300,36,17333,1,2,3:0:0:0:
212,36,17592,1,8,0:0:0:0:
80,148,18109,2,0,B|112:180|168:188|224:180|256:148,1,192,4|8,3:0|0:0,0:0:0:0:
400,192,19143,6,2,B|437:165|507:175|530:241|510:284,1,192,4|10,3:0|3:0,1:0:0:0:
344,344,20178,1,4,3:0:0:0:
168,344,20695,1,8,0:0:0:0:
512,148,37764,5,4,0:0:0:0:
512,236,38023,1,2,3:0:0:0:
340,268,38540,1,0,0:0:0:0:
324,352,38798,2,0,B|292:372|256:376|220:372|188:352,2,144,4|2|8,0:0|3:0|3:0,0:0:0:0:
408,328,39833,5,4,3:0:0:0:
296,192,40350,1,8,0:0:0:0:
184,56,40867,1,4,0:0:0:0:
8,68,41385,2,0,P|56:92|80:140,1,95.9999999999999,8|0,0:0|2:0,0:0:0:0:
0,148,41902,5,4,3:0:0:0:
0,236,42161,1,2,3:0:0:0:
172,268,42678,1,0,0:0:0:0:
188,352,42936,2,0,B|220:372|256:376|292:372|324:352,2,144,4|2|8,0:0|3:0|3:0,0:0:0:0:
104,328,43971,5,4,3:0:0:0:
216,192,44488,1,8,0:0:0:0:
328,56,45005,1,4,0:0:0:0:
504,68,45523,2,0,P|456:92|432:140,1,95.9999999999999,8|0,0:0|2:0,0:0:0:0:
512,148,46040,5,4,0:0:0:0:
512,236,46299,1,2,3:0:0:0:
340,268,46816,1,0,0:0:0:0:
324,352,47074,2,0,B|292:372|256:376|220:372|188:352,2,144,4|2|8,0:0|3:0|3:0,0:0:0:0:
408,328,48109,5,4,3:0:0:0:
256,236,48626,1,8,0:0:0:0:
104,328,49143,1,4,0:0:0:0:
77,127,49660,2,0,P|56:92|8:68,1,95.9999999999999,8|0,0:0|2:0,0:0:0:0:
0,148,50177,5,4,3:0:0:0:
0,236,50436,1,2,3:0:0:0:
172,268,50953,1,0,0:0:0:0:
188,352,51212,2,0,B|220:372|256:376|292:372|324:352,2,144,4|2|8,0:0|3:0|3:0,0:0:0:0:
104,328,52247,5,4,3:0:0:0:
256,236,52764,1,8,0:0:0:0:
408,328,53281,1,4,0:0:0:0:
352,160,53798,1,0,0:0:0:0:
512,236,54316,5,4,0:0:0:0:
512,148,54575,1,2,3:0:0:0:
408,8,55092,1,0,0:0:0:0:
324,32,55350,2,0,B|292:12|256:8|220:12|188:32,2,144,4|2|8,0:0|3:0|3:0,0:0:0:0:
256,92,56385,5,4,3:0:0:0:
344,244,56902,1,8,0:0:0:0:
168,244,57419,1,4,0:0:0:0:
80,92,57936,1,0,0:0:0:0:
4,248,58454,6,6,B|92:368|256:396|420:368|508:248,1,576
432,88,60523,6,0,L|300:20,1,144,0|8,0:0|0:0,0:0:0:0:
256,144,61298,2,0,L|124:76,1,144,0|8,0:0|0:0,0:0:0:0:
56,192,62074,1,8,1:0:0:0:
320,268,70350,5,8,0:0:0:0:
392,320,70609,2,4,B|448:268|468:192|448:116|392:64,1,288,4|8,0:0|0:0,0:0:0:0:
256,28,71773,2,0,B|132:36|96:132|92:176,1,240,0|8,0:0|0:0,0:0:0:0:
132,299,72807,6,0,B|219:387|315:352|351:326,1,240,0|8,0:0|0:0,0:0:0:0:
418,211,73842,2,0,B|425:87|335:40|291:31,1,240,0|8,0:0|0:0,0:0:0:0:
124,80,75005,5,4,0:0:0:0:
212,100,75264,1,2,3:0:0:0:
300,120,75523,1,8,0:0:0:0:
388,140,75781,1,0,0:0:0:0:
432,216,76040,2,0,B|400:248|344:256|288:248|256:216,1,192,4|8,3:0|0:0,0:0:0:0:
112,192,77074,6,2,B|75:165|5:175|-18:241|2:284,1,192,4|10,3:0|3:0,1:0:0:0:
84,316,77850,1,0,0:0:0:0:
168,344,78109,1,4,3:0:0:0:
216,32,79143,6,0,B|296:32|296:32|340:32|368:56|372:104,1,192,4|8,2:0|0:0,0:0:0:0:
328,268,80178,2,0,L|184:268,2,144,4|8|0,3:0|3:0|2:0,0:0:0:0:
416,268,81212,5,4,0:0:0:0:
256,192,81729,1,8,0:0:0:0:
96,116,82247,1,4,3:0:0:0:
20,276,82764,1,8,0:0:0:0:
172,312,83281,6,0,B|212:364|300:364|340:312,2,192,4|8|4,0:0|0:0|3:0,0:0:0:0:
172,72,85350,2,0,B|212:20|300:20|340:72,2,192,4|8|4,0:0|0:0|3:0,0:0:0:0:
216,352,87419,22,0,B|296:352|296:352|340:352|368:328|372:280,1,192,4|8,2:0|0:0,0:0:0:0:
328,116,88454,2,0,L|184:116,2,144,4|8|0,3:0|3:0|2:0,0:0:0:0:
416,116,89488,21,4,0:0:0:0:
256,192,90005,1,8,0:0:0:0:
96,268,90523,1,4,3:0:0:0:
20,108,91040,1,8,0:0:0:0:
172,72,91557,6,0,B|212:20|300:20|340:72,2,192,4|8|4,0:0|0:0|3:0,0:0:0:0:
172,312,93626,2,0,B|212:364|300:364|340:312,2,192,4|8|4,0:0|0:0|3:0,0:0:0:0:
256,56,95695,5,4,0:0:0:0:
256,56,95954,1,2,3:0:0:0:
108,156,96471,1,0,0:0:0:0:
144,236,96729,2,0,B|168:260|188:300|168:340|144:364,2,144,4|2|8,0:0|3:0|3:0,0:0:0:0:
88,300,97764,5,4,3:0:0:0:
256,356,98281,1,8,0:0:0:0:
424,300,98798,1,4,0:0:0:0:
280,192,99316,2,0,P|232:168|208:120,1,95.9999999999999,8|0,0:0|2:0,0:0:0:0:
256,56,99833,5,4,3:0:0:0:
256,56,100092,1,2,3:0:0:0:
404,156,100609,1,0,0:0:0:0:
368,236,100867,2,0,B|344:260|324:300|344:340|368:364,2,144,4|2|8,0:0|3:0|3:0,0:0:0:0:
424,300,101902,5,4,3:0:0:0:
256,356,102419,1,8,0:0:0:0:
88,300,102936,1,4,0:0:0:0:
232,192,103454,2,0,P|280:168|304:120,1,95.9999999999999,8|0,0:0|2:0,0:0:0:0:
256,56,103971,5,4,0:0:0:0:
256,56,104230,1,2,3:0:0:0:
108,156,104747,1,0,0:0:0:0:
144,236,105005,2,0,B|168:260|188:300|168:340|144:364,2,144,4|2|8,0:0|3:0|3:0,0:0:0:0:
88,300,106040,5,4,3:0:0:0:
256,244,106557,1,8,0:0:0:0:
424,192,107074,1,4,0:0:0:0:
244,136,107592,2,0,P|196:112|172:64,1,95.9999999999999,8|0,0:0|2:0,0:0:0:0:
256,56,108109,5,4,0:3:0:0:
256,56,108368,1,2,3:0:0:0:
404,156,108885,1,0,0:0:0:0:
372,240,109143,2,0,B|340:260|324:300|340:340|372:360,2,144,4|2|8,0:0|3:0|3:0,0:0:0:0:
424,300,110178,5,4,3:0:0:0:
256,244,110695,1,8,0:0:0:0:
88,192,111212,1,4,0:0:0:0:
268,136,111730,2,0,P|316:112|340:64,1,95.9999999999999,8|0,0:0|2:0,0:0:0:0:
256,56,112247,5,4,0:0:0:0:
256,56,112506,1,2,3:0:0:0:
108,156,113023,1,0,0:0:0:0:
144,236,113281,2,0,B|168:260|188:300|168:340|144:364,2,144,4|2|8,0:0|3:0|3:0,0:0:0:0:
88,300,114316,5,4,3:0:0:0:
256,356,114833,1,8,0:0:0:0:
424,300,115350,1,4,0:0:0:0:
328,152,115867,1,0,0:0:0:0:
508,136,116385,6,6,B|420:16|256:-12|92:16|4:136,1,576
80,296,118454,6,0,L|212:364,1,144,0|8,0:0|0:0,0:0:0:0:
256,240,119229,2,0,L|388:308,1,144,0|8,0:0|0:0,0:0:0:0:
456,192,120005,1,8,1:0:0:0:
256,116,129057,5,0,0:0:0:0:
184,96,129316,1,8,0:0:0:0:
112,72,129574,1,0,0:0:0:0:
40,52,129833,2,0,B|9:74|0:113|9:153|40:175,1,144,4|2,3:0|0:0,0:0:0:0:
256,192,131126,5,0,0:0:0:0:
328,172,131385,1,8,0:0:0:0:
400,148,131643,1,0,0:0:0:0:
472,128,131902,2,0,B|502:150|511:189|502:229|472:251,1,144,4|2,3:0|0:0,0:0:0:0:
344,348,132936,5,4,0:0:0:0:
176,296,133454,1,4,0:0:0:0:
344,244,133971,1,4,0:0:0:0:
176,192,134489,1,4,0:0:0:0:
80,44,135005,5,4,0:0:0:0:
168,44,135264,1,2,0:0:0:0:
256,44,135523,1,4,0:0:0:0:
344,44,135782,1,2,0:0:0:0:
432,44,136040,1,4,0:0:0:0:
512,236,137074,5,4,0:0:0:0:
512,148,137333,1,2,3:0:0:0:
340,116,137850,1,0,0:0:0:0:
324,32,138109,2,0,B|292:12|256:8|220:12|188:32,2,144,4|2|8,0:0|3:0|3:0,0:0:0:0:
408,56,139143,5,4,3:0:0:0:
296,192,139660,1,8,0:0:0:0:
184,328,140177,1,4,0:0:0:0:
8,316,140695,2,0,P|56:292|80:244,1,95.9999999999999,8|0,0:0|2:0,0:0:0:0:
0,236,141212,5,4,0:3:0:0:
0,148,141471,1,2,3:0:0:0:
172,116,141988,1,0,0:0:0:0:
188,32,142247,2,0,B|220:12|256:8|292:12|324:32,2,144,4|2|8,0:0|3:0|3:0,0:0:0:0:
104,56,143281,5,4,3:0:0:0:
216,192,143798,1,8,0:0:0:0:
104,328,144315,1,4,0:0:0:0:
264,384,144833,2,0,P|312:360|336:312,1,95.9999999999999,8|0,0:0|2:0,0:0:0:0:
256,304,145350,5,4,0:0:0:0:
256,304,145609,1,2,3:0:0:0:
404,228,146126,1,0,0:0:0:0:
368,148,146385,2,0,B|344:124|324:84|344:44|368:20,2,144,4|2|8,0:0|3:0|3:0,0:0:0:0:
424,84,147419,5,4,3:0:0:0:
256,28,147936,1,8,0:0:0:0:
88,84,148453,1,4,0:0:0:0:
232,192,148971,2,0,P|280:216|304:264,1,95.9999999999999,8|0,0:0|2:0,0:0:0:0:
256,328,149488,5,4,3:0:0:0:
256,328,149747,1,2,3:0:0:0:
108,228,150264,1,0,0:0:0:0:
144,148,150523,2,0,B|168:124|188:84|168:44|144:20,2,144,4|2|8,0:0|3:0|3:0,0:0:0:0:
88,84,151557,5,4,3:0:0:0:
256,28,152074,1,8,0:0:0:0:
424,84,152591,1,4,0:0:0:0:
280,192,153109,2,0,P|232:216|208:264,1,95.9999999999999,8|0,0:0|2:0,0:0:0:0:
256,328,153626,5,4,0:0:0:0:
256,328,153885,1,2,3:0:0:0:
108,228,154402,1,0,0:0:0:0:
144,148,154660,2,0,B|168:124|188:84|168:44|144:20,2,144,4|2|8,0:0|3:0|3:0,0:0:0:0:
88,84,155695,5,4,3:0:0:0:
256,28,156212,1,8,0:0:0:0:
424,84,156729,1,4,0:0:0:0:
256,136,157246,1,0,0:0:0:0:
256,192,157764,12,4,161902,2:0:0:0:
