osu file format v12

[General]
AudioFilename: Treasure.mp3
AudioLeadIn: 0
PreviewTime: 35695
Countdown: 0
SampleSet: Soft
StackLeniency: 0.7
Mode: 0
LetterboxInBreaks: 1

[Editor]
DistanceSpacing: 1.12
BeatDivisor: 4
GridSize: 4

[Metadata]
Title:Treasure
TitleUnicode:Treasure
Artist:Bruno Mars
ArtistUnicode:Bruno Mars
Creator:DiamondCrash
Version:Hard
Source:
Tags:Unorthodox Jukebox
BeatmapID:256800
BeatmapSetID:95667

[Difficulty]
HPDrainRate:7
CircleSize:4
OverallDifficulty:7
ApproachRate:8
SliderMultiplier:2.72
SliderTickRate:2

[Events]
//Background and Video events
0,0,"BMback.jpg",0,0
//Break Periods
2,21212,37014
2,62592,69600
2,120523,128307
//Storyboard Layer 0 (Background)
//Storyboard Layer 1 (Fail)
//Storyboard Layer 2 (Pass)
//Storyboard Layer 3 (Foreground)
//Storyboard Sound Samples
//Background Colour Transformations
3,100,163,162,255

[TimingPoints]
2592,517.241379310345,4,2,1,80,1,0
13324,-86.2068965517241,4,2,1,80,0,0
14359,-100,4,2,1,80,0,0
16686,-86.2068965517241,4,2,1,80,0,0
17462,-100,4,2,1,80,0,0
37764,-100,4,2,1,80,0,1
58195,-100,4,1,1,80,0,1
60005,-100,4,3,2,80,0,1
62592,-100,4,2,1,80,0,0
95695,-100,4,2,1,80,0,1
116126,-100,4,1,1,80,0,1
117936,-100,4,3,2,80,0,1
120523,-100,4,2,0,60,0,0
132807,-100,4,3,2,60,0,0
135910,-100,4,3,2,80,0,0
137074,-100,4,2,1,80,0,1
161902,-100,4,2,1,80,0,0

[HitObjects]
52,68,4660,1,0,1:0:0:0:
116,32,4790,1,0,0:0:0:0:
180,68,4919,1,2,3:0:0:0:
332,68,5178,1,8,0:0:0:0:
396,32,5308,1,0,0:0:0:0:
460,68,5437,1,0,3:0:0:0:
384,192,5695,1,0,1:0:0:0:
320,156,5825,1,0,0:0:0:0:
256,192,5954,1,0,3:0:0:0:
192,336,6212,2,0,B|168:364|132:372|96:364|72:336,1,136,8|2,0:0|3:0,0:0:0:0:
132,288,6600,2,2,B|153:242|129:171|54:161|14:189,1,204,6|2,1:0|3:0,1:0:0:0:
0,336,7247,5,8,2:0:0:0:
256,384,7764,1,4,3:0:0:0:
512,336,8281,1,8,2:0:0:0:
396,104,8669,5,0,0:0:0:0:
460,68,8798,1,0,1:0:0:0:
396,32,8928,1,0,0:0:0:0:
332,68,9057,1,2,3:0:0:0:
196,192,9316,1,8,0:0:0:0:
128,156,9446,1,0,0:0:0:0:
128,228,9575,1,0,3:0:0:0:
192,264,9704,1,0,0:0:0:0:
256,300,9833,1,0,1:0:0:0:
320,336,9962,2,2,B|344:364|380:372|416:364|440:336,1,136,2|0,0:0|3:0,0:0:0:0:
456,260,10350,1,8,0:0:0:0:
380,288,10479,2,2,B|358:242|382:171|457:161|497:189,1,204,8|4,3:0|3:0,0:0:0:0:
412,68,11126,5,2,3:0:0:0:
256,40,11385,1,8,0:0:0:0:
100,68,11643,1,2,3:0:0:0:
152,120,11773,1,0,0:0:0:0:
204,172,11902,1,4,3:0:0:0:
256,224,12031,2,2,B|277:269|253:340|178:350|138:322,1,204,4|8,3:0|2:0,0:0:0:0:
0,192,12678,5,2,0:0:0:0:
52,68,12936,1,0,1:0:0:0:
116,32,13066,1,0,0:0:0:0:
180,68,13195,1,2,3:0:0:0:
332,68,13454,2,2,B|352:28|396:16|440:28|460:68,1,157.760004814453,8|0,0:0|3:0,0:0:0:0:
384,192,13971,2,0,B|360:152|320:140|280:152|256:192,1,157.760004814453,4|2,3:0|0:0,0:0:0:0:
228,264,14359,1,0,0:0:0:0:
192,336,14488,2,0,B|168:364|132:372|96:364|72:336,1,136,8|2,0:0|3:0,0:0:0:0:
132,288,14876,2,2,B|153:242|129:171|54:161|14:189,1,204,6|2,1:0|3:0,1:0:0:0:
0,336,15523,5,8,2:0:0:0:
256,384,16040,1,4,3:0:0:0:
512,336,16557,1,8,2:0:0:0:
396,196,16816,5,2,0:0:0:0:
428,132,16945,1,0,0:0:0:0:
460,68,17074,2,0,B|440:28|396:16|352:28|332:68,1,157.760004814453,0|2,1:0|3:0,0:0:0:0:
316,180,17592,2,2,B|292:152|256:144|220:152|196:180,1,136,8|0,2:0|3:0,0:0:0:0:
256,224,17979,1,0,0:0:0:0:
256,296,18109,1,4,3:0:0:0:
256,368,18238,1,0,3:0:0:0:
192,332,18367,2,2,B|168:360|132:368|96:360|72:332,1,136,2|8,3:0|2:0,0:0:0:0:
132,288,18755,2,2,B|154:242|130:171|55:161|15:189,1,204,8|4,3:0|3:0,0:0:0:0:
100,68,19402,5,2,3:0:0:0:
256,40,19661,1,8,0:0:0:0:
412,68,19919,1,2,3:0:0:0:
360,120,20049,1,0,0:0:0:0:
308,172,20178,1,4,3:0:0:0:
256,224,20307,2,2,B|235:269|259:340|334:350|374:322,1,204,2|8,0:0|0:0,0:0:0:0:
256,20,37764,5,4,0:0:0:0:
408,72,38023,1,2,3:0:0:0:
368,236,38281,2,0,P|304:204|256:236,1,136,8|2,0:0|3:0,0:0:0:0:
144,344,38798,2,0,B|101:369|28:352|11:278|36:236,2,204,4|2|8,1:0|3:0|3:0,0:0:0:0:
104,276,39833,5,4,3:0:0:0:
256,48,40350,1,8,0:0:0:0:
408,276,40867,1,4,3:0:0:0:
332,72,41385,2,0,B|320:120|256:160|192:120|180:72,1,204,12|8,0:0|3:0,0:0:0:0:
104,72,41902,5,4,3:0:0:0:
0,184,42160,1,2,3:0:0:0:
144,236,42419,2,0,P|208:204|256:236,1,136,8|2,0:0|3:0,0:0:0:0:
368,344,42936,2,0,B|410:369|483:352|500:278|475:236,2,204,4|2|8,1:0|3:0|3:0,0:0:0:0:
408,276,43971,5,4,3:0:0:0:
256,48,44488,1,8,0:0:0:0:
104,276,45005,1,4,3:0:0:0:
180,72,45523,2,0,B|192:120|256:160|320:120|332:72,1,204,12|8,0:0|3:0,0:0:0:0:
408,72,46040,5,4,3:0:0:0:
508,188,46298,1,2,3:0:0:0:
368,236,46557,2,0,P|304:204|256:236,1,136,8|2,0:0|3:0,0:0:0:0:
144,344,47074,2,0,B|101:369|28:352|11:278|36:236,1,204,4|8,0:0|3:0,0:0:0:0:
104,276,47592,5,8,0:0:0:0:
144,212,47721,1,8,3:0:0:0:
180,144,47850,1,4,3:0:0:0:
180,68,47979,2,0,B|192:20|256:-20|320:20|332:68,1,204,4|2,0:0|3:0,0:0:0:0:
424,192,48626,1,8,0:0:0:0:
88,192,49143,1,4,0:0:0:0:
180,312,49660,2,0,B|192:360|256:400|320:360|332:312,1,204,12|8,0:0|3:0,0:0:0:0:
408,312,50178,5,4,3:0:0:0:
508,196,50436,1,2,3:0:0:0:
368,148,50695,2,0,P|304:180|256:148,1,136,8|2,0:0|3:0,0:0:0:0:
144,40,51212,2,0,B|101:14|28:31|11:105|36:147,2,204,4|2|8,1:0|3:0|3:0,0:0:0:0:
104,108,52247,5,4,3:0:0:0:
256,336,52764,1,8,0:0:0:0:
408,108,53281,1,4,3:0:0:0:
332,312,53798,2,0,B|320:264|256:224|192:264|180:312,1,204,12|8,0:0|3:0,0:0:0:0:
104,312,54316,5,4,3:0:0:0:
4,196,54574,1,2,3:0:0:0:
144,148,54833,2,0,P|208:180|256:148,1,136,8|2,0:0|3:0,0:0:0:0:
368,40,55350,2,0,B|410:14|483:31|500:105|475:147,1,204,4|8,0:0|3:0,0:0:0:0:
408,108,55867,5,8,0:0:0:0:
256,108,56126,1,0,3:0:0:0:
104,108,56385,1,4,0:0:0:0:
256,372,56902,1,8,0:0:0:0:
332,88,57419,2,0,B|320:40|256:0|192:40|180:88,1,204,4|0,3:0|3:0,0:0:0:0:
256,108,57936,1,8,0:0:0:0:
76,296,58454,6,6,B|148:380|256:404|364:380|436:296,2,408,6|6|14,0:0|0:0|0:0,0:0:0:0:
40,52,60523,5,4,0:0:0:0:
40,52,60652,1,8,3:0:0:0:
136,172,60910,1,8,3:0:0:0:
136,172,61040,1,4,3:0:0:0:
256,80,61298,1,4,3:0:0:0:
256,80,61428,1,8,3:0:0:0:
376,172,61686,1,8,3:0:0:0:
376,172,61816,1,4,3:0:0:0:
472,52,62074,1,10,2:0:0:0:
280,112,70350,5,8,0:0:0:0:
408,32,70609,2,0,B|500:68|568:192|500:316|408:352,1,408,6|8,0:0|0:0,0:0:0:0:
392,276,71514,1,0,0:0:0:0:
255,380,71773,2,0,B|160:380|64:308|60:212|72:144,1,340,0|8,0:0|0:0,0:0:0:0:
120,88,72548,1,0,0:0:0:0:
256,3,72807,6,0,B|352:4|448:76|452:172|440:240,1,340,0|8,0:0|0:0,0:0:0:0:
380,288,73583,1,0,0:0:0:0:
320,336,73712,1,0,0:0:0:0:
255,380,73842,2,0,B|160:380|64:308|60:212|72:144,1,340,0|8,0:0|0:0,0:0:0:0:
396,32,74876,5,0,0:0:0:0:
332,68,75005,1,0,1:0:0:0:
268,32,75135,1,0,0:0:0:0:
204,68,75264,1,2,3:0:0:0:
260,220,75523,2,0,B|284:192|320:184|356:192|380:220,1,136,8|8,0:0|0:3,0:0:0:0:
320,264,75911,1,4,0:3:0:0:
256,300,76040,1,0,1:0:0:0:
192,336,76169,2,2,B|168:364|132:372|96:364|72:336,1,136,0|0,0:0|3:0,0:0:0:0:
56,260,76557,1,8,0:0:0:0:
132,288,76686,2,2,B|154:242|130:171|55:161|15:189,1,204,8|4,3:0|3:0,0:0:0:0:
100,68,77333,5,2,3:0:0:0:
256,40,77592,1,8,0:0:0:0:
412,68,77850,1,2,3:0:0:0:
360,120,77980,1,0,0:0:0:0:
308,172,78109,1,4,3:0:0:0:
256,224,78238,2,2,B|235:269|259:340|334:350|374:322,1,204,4|8,3:0|2:0,0:0:0:0:
208,12,79143,6,0,B|296:12|296:12|340:12|376:44|372:96,1,204,4|0,2:0|0:0,0:0:0:0:
300,84,79660,2,0,B|212:84|212:84|168:84|132:116|136:168,1,204,8|0,0:0|0:0,0:0:0:0:
208,156,80178,2,4,L|412:156,2,204,4|4|8,3:0|3:0|3:0,3:0:0:0:
28,240,81212,5,4,0:0:0:0:
104,372,81471,1,2,3:0:0:0:
180,240,81729,1,8,0:0:0:0:
332,240,81988,1,0,3:0:0:0:
484,240,82247,1,4,3:0:0:0:
408,372,82506,1,2,3:0:0:0:
256,372,82764,1,8,0:0:0:0:
256,192,83023,21,0,3:0:0:0:
156,104,83281,2,2,P|256:27|356:104,2,272,6|8|2,0:0|0:0|0:0,0:0:0:0:
64,312,84704,1,8,3:0:0:0:
256,192,85091,1,4,3:0:0:0:
356,280,85350,2,2,P|256:357|156:280,2,272,6|8|2,0:0|0:0|0:0,0:0:0:0:
480,192,86643,1,8,3:0:0:0:
480,192,86773,1,4,3:0:0:0:
480,192,86902,1,8,0:0:0:0:
304,12,87419,6,0,B|216:12|216:12|172:12|136:44|140:96,1,204,4|0,2:0|0:0,0:0:0:0:
212,84,87936,2,0,B|300:84|300:84|344:84|380:116|376:168,1,204,8|0,0:0|0:0,0:0:0:0:
304,156,88454,2,4,L|100:156,2,204,4|4|8,3:0|3:0|3:0,3:0:0:0:
484,240,89488,21,4,0:0:0:0:
408,372,89747,1,2,3:0:0:0:
332,240,90005,1,8,0:0:0:0:
180,240,90264,1,0,3:0:0:0:
28,240,90523,1,4,3:0:0:0:
104,372,90782,1,2,3:0:0:0:
256,372,91040,1,8,0:0:0:0:
256,192,91299,5,0,3:0:0:0:
156,104,91557,2,2,P|256:27|356:104,2,272,6|8|2,0:0|0:0|0:0,0:0:0:0:
104,248,92850,1,8,3:0:0:0:
104,248,92979,1,4,3:0:0:0:
232,164,93238,1,4,3:0:0:0:
280,220,93367,1,8,3:0:0:0:
256,288,93497,1,4,3:0:0:0:
316,332,93626,2,8,P|256:360|196:332,4,136
480,192,94919,1,8,2:0:0:0:
480,192,95049,1,8,2:0:0:0:
480,192,95178,1,8,1:0:0:0:
332,40,95695,5,4,0:0:0:0:
256,192,95954,1,2,3:0:0:0:
180,344,96212,2,0,P|116:376|68:344,1,136,8|2,0:0|3:0,0:0:0:0:
0,192,96729,2,0,B|-25:150|-8:76|65:59|108:84,2,204,4|2|8,1:0|3:0|3:0,0:0:0:0:
68,152,97764,5,4,3:0:0:0:
256,384,98281,1,8,0:0:0:0:
444,152,98798,1,4,3:0:0:0:
104,60,99316,2,0,B|116:108|180:148|244:108|256:60,1,204,12|8,0:0|3:0,0:0:0:0:
180,40,99833,5,4,0:0:0:0:
256,192,100092,1,2,3:0:0:0:
332,344,100350,2,0,P|396:376|444:344,1,136,8|2,0:0|3:0,0:0:0:0:
512,192,100867,2,0,B|537:150|520:76|447:59|404:84,2,204,4|2|8,1:0|3:0|3:0,0:0:0:0:
444,152,101902,5,4,3:0:0:0:
256,384,102419,1,8,0:0:0:0:
68,152,102936,1,4,3:0:0:0:
408,60,103454,2,0,B|396:108|332:148|268:108|256:60,1,204,12|8,0:0|3:0,0:0:0:0:
332,40,103971,5,4,0:0:0:0:
256,192,104230,1,2,3:0:0:0:
332,344,104488,2,0,P|396:376|444:344,1,136,8|2,0:0|3:0,0:0:0:0:
512,192,105005,2,0,B|537:150|520:76|447:59|404:84,1,204
444,152,105523,5,8,0:0:0:0:
380,196,105652,1,8,3:0:0:0:
316,240,105781,1,4,3:0:0:0:
332,316,105910,2,0,B|320:364|256:404|192:364|180:316,1,204,4|2,0:0|3:0,0:0:0:0:
88,192,106557,1,8,0:0:0:0:
424,192,107074,1,4,3:0:0:0:
256,60,107592,2,0,B|244:108|180:148|116:108|104:60,1,204,8|8,0:0|3:0,0:0:0:0:
180,40,108109,5,4,0:0:0:0:
256,192,108368,1,2,3:0:0:0:
180,344,108626,2,0,P|116:376|68:344,1,136,8|2,0:0|3:0,0:0:0:0:
0,192,109143,2,0,B|-25:150|-8:76|65:59|108:84,2,204,4|2|8,1:0|3:0|3:0,0:0:0:0:
68,152,110178,5,4,3:0:0:0:
256,384,110695,1,8,0:0:0:0:
444,152,111212,1,4,3:0:0:0:
256,60,111730,2,0,B|268:108|332:148|396:108|408:60,1,204,12|8,0:0|3:0,0:0:0:0:
332,40,112247,5,4,0:0:0:0:
256,192,112506,1,2,3:0:0:0:
180,344,112764,2,0,P|116:376|68:344,1,136,8|2,0:0|3:0,0:0:0:0:
0,192,113281,2,0,B|-25:150|-8:76|65:59|108:84,2,204,4|2|8,1:0|3:0|3:0,0:0:0:0:
68,152,114316,5,4,3:0:0:0:
256,384,114833,1,8,0:0:0:0:
444,152,115350,1,4,3:0:0:0:
256,192,115867,1,8,0:0:0:0:
436,296,116385,6,6,B|364:380|256:404|148:380|76:296,2,408,6|6|10,0:0|0:0|0:0,0:0:0:0:
472,52,118454,5,4,0:0:0:0:
472,52,118583,1,8,3:0:0:0:
376,172,118841,1,8,3:0:0:0:
376,172,118971,1,4,3:0:0:0:
256,80,119229,1,4,3:0:0:0:
256,80,119359,1,8,3:0:0:0:
136,172,119617,1,8,3:0:0:0:
136,172,119747,1,4,3:0:0:0:
40,52,120005,1,10,2:0:0:0:
356,136,129057,5,0,0:0:0:0:
256,108,129316,1,8,0:0:0:0:
156,80,129574,1,0,0:0:0:0:
60,48,129833,2,0,B|16:80|4:136|16:192|60:224,2,204,4|2|2,3:0|0:0|3:0,0:0:0:0:
156,192,131126,5,0,0:0:0:0:
256,164,131385,1,8,0:0:0:0:
356,136,131643,1,0,0:0:0:0:
452,104,131902,2,0,B|496:136|508:192|496:248|452:280,2,204,4|2|2,3:0|0:0|3:0,0:0:0:0:
416,192,132936,5,4,0:0:0:0:
256,384,133454,1,4,0:0:0:0:
96,192,133971,1,4,0:0:0:0:
256,0,134489,1,4,0:0:0:0:
180,116,135005,5,4,0:0:0:0:
332,116,135264,1,2,0:0:0:0:
332,268,135523,1,4,0:0:0:0:
180,268,135782,1,2,0:0:0:0:
256,192,136040,1,0,0:0:0:0:
256,192,136169,1,8,0:0:0:0:
256,192,136298,1,8,0:0:0:0:
256,192,136428,1,4,0:0:0:0:
256,192,136557,1,6,0:0:0:0:
256,364,137074,5,4,0:0:0:0:
408,312,137333,1,2,3:0:0:0:
376,156,137592,2,0,B|352:184|316:192|280:184|256:156,1,136,8|0,0:0|0:0,0:0:0:0:
188,40,138109,2,0,B|164:12|128:4|92:12|68:40,1,136,4|8,0:0|3:0,0:0:0:0:
32,108,138497,2,4,B|19:142|30:177|55:205|92:211,1,136,4|4,3:0|3:0,3:3:0:0:
168,212,138885,1,2,3:0:0:0:
128,88,139143,5,4,3:0:0:0:
256,20,139402,1,2,0:0:0:0:
384,88,139660,1,8,0:0:0:0:
256,156,139919,1,0,0:0:0:0:
256,156,140178,1,4,3:3:0:0:
180,344,140695,2,0,B|192:296|256:256|320:296|332:344,1,204,8|0,0:0|0:0,0:0:0:0:
256,364,141212,5,4,0:0:0:0:
104,312,141471,1,2,3:0:0:0:
136,156,141730,2,0,B|160:184|196:192|232:184|256:156,1,136,8|0,0:0|0:0,0:0:0:0:
324,40,142247,2,0,B|348:12|384:4|420:12|444:40,1,136,4|8,0:0|3:0,0:0:0:0:
480,108,142635,2,4,B|492:142|481:177|456:205|420:211,1,136,4|4,3:0|3:0,3:3:0:0:
344,212,143023,1,2,3:0:0:0:
384,88,143281,5,4,3:0:0:0:
256,20,143540,1,2,0:0:0:0:
128,88,143798,1,8,0:0:0:0:
256,156,144057,1,0,0:0:0:0:
256,156,144316,1,4,3:3:0:0:
332,344,144833,2,0,B|320:296|256:256|192:296|180:344,1,204,8|0,0:0|0:0,0:0:0:0:
256,364,145350,5,4,0:0:0:0:
408,312,145609,1,2,3:0:0:0:
376,156,145868,2,0,B|352:184|316:192|280:184|256:156,1,136,8|0,0:0|0:0,0:0:0:0:
144,8,146385,2,0,B|101:-17|28:0|11:74|36:116,1,204
108,116,146902,1,8,0:0:0:0:
72,180,147031,1,8,3:0:0:0:
36,244,147160,1,4,3:0:0:0:
0,308,147290,2,4,B|12:384|100:412|188:384|200:308,1,272,4|0,0:0|0:0,0:0:0:0:
128,296,147936,5,8,2:0:0:0:
256,364,148195,1,2,0:0:0:0:
384,296,148454,1,4,3:0:0:0:
332,40,148971,2,0,B|320:88|256:128|192:88|180:40,1,204,8|0,0:0|0:0,0:0:0:0:
256,20,149488,5,4,0:0:0:0:
104,72,149747,1,2,3:0:0:0:
136,228,150006,2,0,B|160:200|196:192|232:200|256:228,1,136,8|0,0:0|0:0,0:0:0:0:
324,344,150523,2,0,B|348:372|384:380|420:372|444:344,1,136,4|8,0:0|3:0,0:0:0:0:
480,276,150911,2,4,B|492:241|481:206|456:178|420:172,1,136,4|4,3:0|3:0,3:3:0:0:
344,172,151299,1,2,3:0:0:0:
384,296,151557,5,4,3:0:0:0:
256,364,151816,1,2,0:0:0:0:
128,296,152074,1,8,0:0:0:0:
256,228,152333,1,0,0:0:0:0:
256,228,152592,1,4,0:3:0:0:
332,40,153109,2,0,B|320:88|256:128|192:88|180:40,1,204,8|0,0:0|0:0,0:0:0:0:
256,20,153626,5,4,0:0:0:0:
408,72,153885,1,2,3:0:0:0:
376,228,154144,2,0,B|352:200|316:192|280:200|256:228,1,136,8|0,0:0|0:0,0:0:0:0:
188,344,154661,2,0,B|164:372|128:380|92:372|68:344,1,136,4|8,0:0|3:0,0:0:0:0:
32,276,155049,2,4,B|20:241|31:206|56:178|92:172,1,136,4|4,3:0|3:0,3:3:0:0:
168,172,155437,1,2,3:0:0:0:
256,32,155695,5,12,0:0:0:0:
416,192,156212,1,8,0:0:0:0:
256,352,156729,1,12,3:0:0:0:
96,192,157247,1,8,0:0:0:0:
256,192,157764,12,4,161902,2:0:0:0:
