osu file format v12

[General]
AudioFilename: Treasure.mp3
AudioLeadIn: 0
PreviewTime: 35695
Countdown: 0
SampleSet: Soft
StackLeniency: 0.7
Mode: 0
LetterboxInBreaks: 1

[Editor]
DistanceSpacing: 0.89
BeatDivisor: 4
GridSize: 4

[Metadata]
Title:Treasure
TitleUnicode:Treasure
Artist:Bruno Mars
ArtistUnicode:Bruno Mars
Creator:DiamondCrash
Version:Easy
Source:
Tags:Unorthodox Jukebox
BeatmapID:256799
BeatmapSetID:95667

[Difficulty]
HPDrainRate:2
CircleSize:4
OverallDifficulty:2
ApproachRate:3
SliderMultiplier:1.44
SliderTickRate:2

[Events]
//Background and Video events
0,0,"BMback.jpg",0,0
//Break Periods
2,21212,36324
2,62592,68910
2,120523,127617
//Storyboard Layer 0 (Background)
//Storyboard Layer 1 (Fail)
//Storyboard Layer 2 (Pass)
//Storyboard Layer 3 (Foreground)
//Storyboard Sound Samples
//Background Colour Transformations
3,100,163,162,255

[TimingPoints]
2592,517.241379310345,4,2,1,80,1,0
37764,-100,4,2,1,80,0,1
58195,-100,4,1,1,80,0,1
60005,-100,4,3,2,80,0,1
62592,-100,4,2,1,80,0,0
95695,-100,4,2,1,80,0,1
116126,-100,4,1,1,80,0,1
117936,-100,4,3,2,80,0,1
120523,-100,4,2,0,60,0,0
132807,-100,4,3,2,60,0,0
137074,-100,4,2,1,80,0,1
161902,-100,4,2,1,80,0,0

[HitObjects]
152,32,4660,6,0,L|256:136,1,144,4|8,0:0|0:0,0:0:0:0:
140,192,5695,2,0,P|28:308|36:316,1,252,4|2,3:0|0:0,0:0:0:0:
192,360,7247,5,8,2:0:0:0:
320,360,7764,1,4,3:0:0:0:
360,32,8798,6,0,L|258:133,1,144,4|8,0:0|0:0,0:0:0:0:
372,192,9833,2,0,P|500:324|491:333,1,288,4|4,3:0|0:0,0:0:0:0:
320,360,11385,5,8,2:0:0:0:
192,360,11902,1,4,3:0:0:0:
152,32,12936,6,0,L|256:136,1,144,4|8,0:0|0:0,0:0:0:0:
212,192,13712,1,2,3:0:0:0:
140,192,13971,2,0,P|28:308|36:316,1,252,4|2,3:0|0:0,0:0:0:0:
192,360,15523,5,8,2:0:0:0:
320,360,16040,1,4,3:0:0:0:
360,32,17074,6,0,L|258:133,1,144,4|8,0:0|0:0,0:0:0:0:
372,192,18109,2,0,P|500:324|491:333,1,288,4|4,3:0|0:0,0:0:0:0:
320,360,19661,5,8,2:0:0:0:
192,360,20178,1,4,3:0:0:0:
256,252,20695,1,8,0:0:0:0:
256,152,37764,5,4,0:0:0:0:
256,152,38023,1,2,3:0:0:0:
164,328,38798,2,4,B|204:380|256:388|308:380|348:328,1,216,4|2,0:0|0:0,0:0:0:0:
424,328,39833,5,4,3:0:0:0:
492,212,40350,1,8,0:0:0:0:
424,104,40867,2,0,P|376:48|308:44,1,144,4|8,0:0|0:0,0:0:0:0:
256,152,41902,5,4,3:0:0:0:
256,152,42161,1,2,3:0:0:0:
348,328,42936,2,4,B|308:380|256:388|204:380|164:328,1,216,4|2,0:0|0:0,0:0:0:0:
88,328,43971,5,4,3:0:0:0:
20,212,44488,1,8,0:0:0:0:
88,104,45005,2,0,P|136:48|204:44,1,144
256,152,46040,5,4,0:0:0:0:
256,152,46299,1,2,3:0:0:0:
348,328,47074,2,4,B|308:380|256:388|204:380|164:328,1,216,4|2,0:0|0:0,0:0:0:0:
216,268,48109,5,4,3:0:0:0:
320,192,48626,1,8,0:0:0:0:
424,104,49143,2,0,P|376:48|308:44,1,144,4|8,0:0|0:0,0:0:0:0:
256,152,50178,5,4,3:0:0:0:
256,152,50437,1,2,3:0:0:0:
164,328,51212,2,4,B|204:380|256:388|308:380|348:328,1,216,4|2,0:0|0:0,0:0:0:0:
296,268,52247,5,4,3:0:0:0:
192,192,52764,1,8,0:0:0:0:
88,104,53281,2,0,P|136:48|204:44,1,144,4|8,0:0|0:0,0:0:0:0:
256,152,54316,5,4,0:0:0:0:
256,152,54575,1,2,3:0:0:0:
348,328,55350,2,4,B|308:380|256:388|204:380|164:328,1,216,4|2,0:0|0:0,0:0:0:0:
188,260,56385,5,4,3:0:0:0:
324,260,56902,1,8,0:0:0:0:
324,124,57419,1,0,0:0:0:0:
188,124,57936,1,8,0:0:0:0:
60,104,58454,6,6,B|124:32|256:0|388:32|452:104,1,432,6|8,0:0|0:0,0:0:0:0:
356,228,60523,6,0,B|280:276|232:276|156:228,2,216,4|8|4,0:0|0:0|0:0,0:0:0:0:
424,192,70350,5,8,0:0:0:0:
484,152,70609,2,4,B|416:44|256:-32|96:44|28:152,1,540,4|2,0:0|0:0,0:0:0:0:
60,224,72807,6,4,B|116:320|256:384|396:320|452:224,1,468,4|10,0:0|0:0,0:0:0:0:
400,136,75005,6,0,L|256:136,1,144,4|8,0:0|0:0,0:0:0:0:
140,192,76040,2,0,P|12:324|21:333,1,288,4|4,3:0|0:0,0:0:0:0:
192,360,77592,5,8,2:0:0:0:
320,360,78109,1,4,3:0:0:0:
380,96,79143,6,4,B|324:28|256:20|188:28|132:96,1,288,4|4,0:0|3:0,0:0:0:0:
256,320,81212,5,4,0:0:0:0:
144,256,81729,1,8,0:0:0:0:
256,192,82247,1,4,3:0:0:0:
368,256,82764,1,8,0:0:0:0:
396,380,83281,22,0,P|464:352|488:284,2,144,4|8|4,0:0|0:0|3:0,0:0:0:0:
116,380,85350,2,0,P|48:352|24:284,2,144,4|8|4,0:0|0:0|3:0,0:0:0:0:
132,96,87419,6,4,B|188:28|256:20|324:28|380:96,1,288,4|4,0:0|3:0,0:0:0:0:
256,320,89488,21,4,0:0:0:0:
368,256,90005,1,8,0:0:0:0:
256,192,90523,1,4,3:0:0:0:
144,256,91040,1,8,0:0:0:0:
116,380,91557,6,0,P|48:352|24:284,2,144,4|8|4,0:0|0:0|3:0,0:0:0:0:
396,380,93626,2,0,P|464:352|488:284,2,144,4|8|4,0:0|0:0|3:0,0:0:0:0:
396,124,95695,5,4,0:0:0:0:
396,124,95954,1,2,3:0:0:0:
256,252,96729,2,4,B|264:317|233:359|190:390|125:382,1,216,4|2,0:0|0:0,0:0:0:0:
76,332,97764,5,4,3:0:0:0:
152,228,98281,1,8,0:0:0:0:
228,124,98798,2,0,P|204:54|142:24,1,144,4|8,0:0|0:0,0:0:0:0:
116,124,99833,5,4,3:0:0:0:
116,124,100092,1,2,3:0:0:0:
256,252,100867,2,4,B|247:317|278:359|321:390|386:382,1,216,4|2,0:0|0:0,0:0:0:0:
436,332,101902,5,4,3:0:0:0:
360,228,102419,1,8,0:0:0:0:
284,124,102936,2,0,P|307:54|369:24,1,144,4|8,0:0|0:0,0:0:0:0:
396,124,103971,5,4,0:0:0:0:
396,124,104230,1,2,3:0:0:0:
256,252,105005,2,4,B|247:317|278:359|321:390|386:382,1,216,4|2,0:0|0:0,0:0:0:0:
368,312,106040,5,4,3:0:0:0:
340,184,106557,1,8,0:0:0:0:
320,52,107074,2,0,P|256:24|192:52,1,144,4|8,0:0|0:0,0:0:0:0:
116,124,108109,5,4,3:0:0:0:
116,124,108368,1,2,3:0:0:0:
256,252,109143,2,4,B|264:317|233:359|190:390|125:382,1,216,4|2,0:0|0:0,0:0:0:0:
144,312,110178,5,4,3:0:0:0:
172,184,110695,1,8,0:0:0:0:
192,52,111212,2,0,P|256:24|320:52,1,144,4|8,0:0|0:0,0:0:0:0:
256,152,112247,5,4,0:0:0:0:
256,152,112506,1,2,3:0:0:0:
348,328,113281,2,4,B|308:380|256:388|204:380|164:328,1,216,4|2,0:0|0:0,0:0:0:0:
188,260,114316,5,4,3:0:0:0:
324,260,114833,1,8,0:0:0:0:
324,124,115350,1,0,0:0:0:0:
188,124,115867,1,8,0:0:0:0:
60,104,116385,6,6,B|124:32|256:0|388:32|452:104,1,432,6|8,0:0|0:0,0:0:0:0:
356,228,118454,6,0,B|280:276|232:276|156:228,2,216,4|8|4,0:0|0:0|0:0,0:0:0:0:
208,64,129057,5,0,0:0:0:0:
208,64,129316,1,8,0:0:0:0:
84,100,129833,2,0,B|60:116|54:145|60:175|84:192,1,108,4|2,3:0|0:0,0:0:0:0:
304,192,131126,5,0,0:0:0:0:
304,192,131385,1,8,0:0:0:0:
428,228,131902,2,0,B|451:244|457:273|451:303|428:320,1,108,4|2,3:0|0:0,0:0:0:0:
320,384,132936,5,4,0:0:0:0:
192,384,133454,1,4,0:0:0:0:
192,256,133971,1,4,0:0:0:0:
320,256,134489,1,4,0:0:0:0:
380,144,135005,6,12,B|324:76|256:68|188:76|132:144,1,288,4|4,0:0|3:0,0:0:0:0:
256,232,137074,5,4,0:0:0:0:
256,232,137333,1,2,3:0:0:0:
164,56,138109,2,4,B|204:4|256:-4|308:4|348:56,1,216,4|2,0:0|0:0,0:0:0:0:
424,56,139143,5,4,3:0:0:0:
492,172,139660,1,8,0:0:0:0:
424,280,140177,2,0,P|376:336|308:340,1,144,4|8,0:0|0:0,0:0:0:0:
256,232,141212,5,4,3:0:0:0:
256,232,141471,1,2,3:0:0:0:
348,56,142247,2,4,B|308:4|256:-4|204:4|164:56,1,216,4|2,0:0|0:0,0:0:0:0:
88,56,143281,5,4,3:0:0:0:
20,172,143798,1,8,0:0:0:0:
76,284,144315,2,0,P|124:340|192:344,1,144,4|8,0:0|0:0,0:0:0:0:
320,344,145350,5,4,0:0:0:0:
320,344,145609,1,2,3:0:0:0:
256,132,146385,2,4,B|264:66|233:24|190:-6|125:1,1,216,4|2,0:0|0:0,0:0:0:0:
144,72,147420,5,4,3:0:0:0:
172,200,147937,1,8,0:0:0:0:
192,332,148454,2,0,P|256:360|320:332,1,144,4|8,0:0|0:0,0:0:0:0:
396,260,149489,5,4,3:0:0:0:
396,260,149748,1,2,3:0:0:0:
256,132,150523,2,4,B|247:66|278:24|321:-6|386:1,1,216,4|2,0:0|0:0,0:0:0:0:
368,72,151558,5,4,3:0:0:0:
340,200,152075,1,8,0:0:0:0:
320,332,152592,2,0,P|256:360|192:332,1,144,4|8,0:0|0:0,0:0:0:0:
256,232,153627,5,4,0:0:0:0:
256,232,153886,1,2,3:0:0:0:
164,56,154661,2,4,B|204:4|256:-4|308:4|348:56,1,216,4|2,0:0|0:0,0:0:0:0:
324,124,155696,5,4,3:0:0:0:
188,124,156213,1,8,0:0:0:0:
188,260,156730,1,0,0:0:0:0:
324,260,157247,1,8,0:0:0:0:
256,192,157764,12,4,161902,2:0:0:0:
