osu file format v9

[General]
AudioFilename: Bruno Mars - The Lazy Song.mp3
AudioLeadIn: 0
PreviewTime: 56580
Countdown: 0
SampleSet: Soft
StackLeniency: 0.7
Mode: 0
LetterboxInBreaks: 0

[Editor]
Bookmarks: 76925,87897,137268,148240
DistanceSpacing: 0.9
BeatDivisor: 4
GridSize: 4

[Metadata]
Title:The Lazy Song
Artist:Bruno Mars
Creator:Mashley
Version:Medium
Source:
Tags:ozzyozrock

[Difficulty]
HPDrainRate:5
CircleSize:4
OverallDifficulty:3
ApproachRate:5
SliderMultiplier:0.999999999999999
SliderTickRate:1

[Events]
//Background and Video events
0,0,"n.jpg"
Video,0,"Bruno Mars - The Lazy Song [Official Video]-[www.flvto.com].avi"
//Break Periods
2,78902,88330
2,139245,148330
//Storyboard Layer 0 (Background)
//Storyboard Layer 1 (Fail)
//Storyboard Layer 2 (Pass)
//Storyboard Layer 3 (Foreground)
//Storyboard Sound Samples
//Background Colour Transformations
3,100,0,0,0

[TimingPoints]
7588,342.857142857143,4,2,0,60,1,0
56959,-100,4,2,0,60,0,1
77530,-100,4,2,0,60,0,0
117302,-100,4,2,0,60,0,1
137873,-100,4,2,0,60,0,0
183130,-90.9090909090909,4,2,0,60,0,1
194102,-90.9090909090909,4,2,0,60,0,0

[Colours]
Combo1 : 251,244,113
Combo2 : 251,196,4
Combo3 : 220,111,12
Combo4 : 240,5,5

[HitObjects]
8,168,7587,5,0
88,168,7930,1,2
48,240,8273,1,8
128,240,8616,1,2
176,304,8959,2,0,B|200:352|256:376|312:352|336:304,1,200,0|8
256,280,9987,1,4
256,80,10673,1,2
400,344,11702,6,0,B|456:336|480:272,1,99.9999999999999,0|2
416,232,12388,2,2,B|360:216|352:144,1,99.9999999999999,2|0
424,120,13073,5,4
480,64,13416,1,2
400,48,13759,1,8
256,16,14445,2,0,B|200:88|328:120|256:200,1,200,0|2
200,144,15473,1,4
200,144,15816,1,0
112,344,17188,6,0,B|56:336|32:272,1,99.9999999999999,0|2
96,232,17874,2,2,B|152:216|160:144,1,99.9999999999999,2|0
160,80,18559,5,4
216,24,18902,1,2
296,24,19245,1,8
352,80,19588,1,0
344,160,19930,2,0,B|336:240|384:272|448:288|480:272,2,200,2|8|6
424,184,21645,5,10
336,48,22330,1,10
176,48,23016,1,10
88,184,23701,1,10
40,248,24045,6,0,B|88:272|136:248,1,99.9999999999999,0|2
208,208,24730,2,0,B|256:184|304:208,1,99.9999999999999,4|2
375,247,25416,2,0,B|424:272|472:248,2,99.9999999999999,0|0|8
424,184,26445,1,4
424,184,27130,1,2
256,80,27816,6,0,B|256:32,3,33.3333333333333,0|0|0|8
40,280,29530,6,0,B|80:368|208:344|216:280,1,200,4|8
176,224,30559,1,2
216,152,30902,1,4
296,152,31245,1,0
336,224,31588,1,8
304,304,31930,1,0
376,336,32273,6,0,B|464:328|488:256|464:184,1,200,0|4
408,136,33302,2,0,B|360:104|376:32,1,99.9999999999999,0|2
296,16,33988,1,0
216,16,34330,1,8
136,48,34673,1,0
72,96,35016,6,0,B|64:208|184:248,1,200,4|2
256,256,36045,1,8
333,245,36388,2,0,B|448:208|440:96,1,200,0|2
440,16,37416,1,4
256,80,38102,5,10
144,192,38788,1,10
256,304,39473,1,10
368,192,40159,1,10
424,256,40502,5,4
504,232,40845,1,0
504,152,41188,1,2
424,128,41530,1,8
344,112,41873,2,0,B|256:24|168:112,1,200,4|10
88,128,42902,1,0
48,200,43245,5,4
72,272,43588,1,2
136,328,43930,1,8
216,352,44273,1,2
296,352,44616,1,4
376,328,44959,1,2
440,272,45301,1,8
464,200,45644,1,2
512,128,45988,6,0,B|408:72|440:192|320:120,1,200,0|8
256,88,47016,1,2
192,48,47359,2,0,B|88:-8|120:112|0:40,1,200,0|8
0,120,48388,1,2
96,248,49073,1,4
96,248,49416,1,2
264,24,50788,6,0,B|216:-8|160:24,1,99.9999999999999
216,80,51473,1,4
216,160,51816,1,2
216,240,52159,1,8
216,240,52330,1,0
304,320,52845,1,4
304,240,53188,1,2
304,160,53531,1,8
304,160,53702,1,0
256,192,54216,12,4,56273
504,168,56959,5,4
424,168,57302,1,2
464,240,57645,1,8
384,240,57988,1,2
336,304,58331,2,0,B|312:352|256:376|200:352|176:304,1,200,0|8
256,280,59359,1,4
256,80,60045,1,2
112,344,61074,6,0,B|56:336|32:272,1,99.9999999999999,0|2
96,232,61760,2,2,B|152:216|160:144,1,99.9999999999999,2|0
88,120,62445,5,4
32,64,62788,1,2
112,48,63131,1,8
256,16,63817,2,0,B|312:88|184:120|256:200,1,200,0|2
312,144,64845,1,4
312,144,65188,1,0
400,344,66560,6,0,B|456:336|480:272,1,99.9999999999999,0|2
416,232,67246,2,2,B|360:216|352:144,1,99.9999999999999,2|0
352,80,67931,5,4
296,24,68274,1,2
216,24,68617,1,8
160,80,68960,1,0
168,160,69302,2,0,B|176:240|128:272|64:288|32:272,2,200,2|8|6
88,184,71017,5,10
176,48,71702,1,10
336,48,72388,1,10
424,184,73073,1,10
256,192,73416,12,4,77530
152,80,89530,5,0
152,80,89873,1,4
152,160,90216,1,2
216,208,90559,1,8
360,288,91245,1,4
360,208,91588,1,2
296,160,91931,1,8
224,304,92616,6,0,B|192:256|128:256,2,99.9999999999999,2|2|8
288,80,93988,2,0,B|320:128|384:128,2,99.9999999999999,2|2|8
128,304,95359,6,0,B|160:352|232:352,1,99.9999999999999,4|2
299,351,96045,2,0,B|352:352|384:304,1,99.9999999999999,8|2
416,232,96730,1,8
448,160,97073,1,2
416,88,97416,1,0
456,24,97759,1,4
256,192,98445,12,4,100159
72,64,100845,6,0,B|24:96|32:152,2,99.9999999999999,0|2|8
112,136,101873,1,2
160,200,102216,2,0,B|272:256|232:144|360:216,1,200,4|10
400,272,103245,1,0
472,304,103588,5,4
496,232,103930,1,2
496,152,104273,1,8
456,80,104616,1,2
392,48,104959,2,0,B|328:104|256:120|184:104|120:48,1,300,0|10
72,112,106330,5,4
72,192,106673,1,2
72,272,107016,1,8
256,328,107702,1,0
256,248,108045,1,2
256,168,108388,1,8
440,112,109073,1,4
440,192,109416,1,2
440,272,109759,1,8
264,360,111130,6,0,B|216:392|160:360,1,99.9999999999999
216,304,111815,1,4
216,224,112158,1,2
216,144,112501,1,8
216,144,112672,1,0
304,64,113187,1,4
304,144,113530,1,2
304,224,113873,1,8
304,224,114044,1,0
256,192,114558,12,4,116615
504,216,117301,5,4
424,216,117644,1,2
464,144,117987,1,8
384,144,118330,1,2
336,80,118673,2,0,B|312:32|256:8|200:32|176:80,1,200,0|8
256,104,119701,1,4
256,304,120387,1,2
112,40,121416,6,0,B|56:48|32:112,1,99.9999999999999,0|2
96,152,122102,2,2,B|152:168|160:240,1,99.9999999999999,2|0
88,264,122787,5,4
32,320,123130,1,2
112,336,123473,1,8
256,368,124159,2,0,B|312:296|184:264|256:184,1,200,0|2
312,240,125187,1,4
312,240,125530,1,0
400,40,126902,6,0,B|456:48|480:112,1,99.9999999999999,0|2
416,152,127588,2,2,B|360:168|352:240,1,99.9999999999999,2|0
352,304,128273,5,4
296,360,128616,1,2
216,360,128959,1,8
160,304,129302,1,0
168,224,129644,2,0,B|176:144|128:112|64:96|32:112,2,200,2|8|6
88,200,131359,5,10
176,336,132044,1,10
336,336,132730,1,10
424,200,133415,1,10
256,192,133758,12,4,137872
64,320,149530,5,4
112,256,149873,1,0
160,320,150216,2,0,B|264:320,3,99.9999999999999,0|2|8|2
256,240,151588,2,0,B|360:240,3,99.9999999999999,0|2|8|2
440,240,152959,5,4
416,120,153473,1,2
300,72,153988,1,8
216,72,154330,1,4
192,328,155702,5,0
256,376,156045,1,2
320,328,156388,1,8
256,288,156730,1,2
192,240,157073,1,0
256,192,157416,1,2
320,240,157759,1,8
320,240,158445,1,4
256,192,158530,12,4,159816
8,216,161188,5,4
88,216,161531,1,2
48,144,161874,1,8
176,80,162560,2,0,B|200:32|256:8|312:32|336:80,1,200,0|8
256,104,163588,1,4
256,304,164274,1,2
424,264,166674,5,4
480,320,167017,1,2
400,336,167360,1,8
256,368,168046,2,0,B|200:296|328:264|256:184,1,200,0|2
200,240,169074,1,4
160,304,172160,5,4
216,360,172503,1,2
296,360,172846,1,8
352,304,173189,1,0
344,224,173531,2,0,B|336:144|384:112|448:96|480:112,2,200,2|8|6
424,200,175246,5,10
336,336,175931,1,10
176,336,176617,1,10
88,200,177302,1,10
256,192,177645,12,4,181759
376,48,183130,5,4
456,80,183473,1,2
456,168,183816,1,8
376,136,184159,1,2
304,192,184502,2,0,B|344:240|304:296,1,109.999996721745,0|2
205,293,185188,2,0,B|168:240|208:192,1,109.999996721745,8|2
256,120,185873,1,4
256,120,186559,1,8
388,344,187245,5,2
300,344,187588,1,0
212,344,187930,1,2
124,344,188273,1,4
64,80,188959,5,2
56,168,189302,1,8
136,136,189645,1,2
208,192,189988,2,0,B|168:240|208:296,1,109.999996721745,0|2
306,293,190674,2,0,B|344:240|304:192,1,109.999996721745,8|2
256,120,191359,1,4
256,120,192045,1,8
388,344,192731,5,2
300,344,193074,1,0
212,344,193416,1,2
124,344,193759,1,4
