osu file format v9

[General]
AudioFilename: Bruno Mars - The Lazy Song.mp3
AudioLeadIn: 0
PreviewTime: 56580
Countdown: 0
SampleSet: Soft
StackLeniency: 0.7
Mode: 0
LetterboxInBreaks: 0

[Editor]
Bookmarks: 76925,87897,137268,148240
DistanceSpacing: 1
BeatDivisor: 6
GridSize: 8

[Metadata]
Title:The Lazy Song
Artist:Bruno Mars
Creator:Mashley
Version:Difficult
Source:
Tags:ozzyozrock

[Difficulty]
HPDrainRate:6
CircleSize:5
OverallDifficulty:5
ApproachRate:7
SliderMultiplier:2.2
SliderTickRate:1

[Events]
//Background and Video events
0,0,"n.jpg"
Video,0,"Bruno Mars - The Lazy Song [Official Video]-[www.flvto.com].avi"
//Break Periods
2,78902,88937
2,139245,149280
//Storyboard Layer 0 (Background)
//Storyboard Layer 1 (Fail)
//Storyboard Layer 2 (Pass)
//Storyboard Layer 3 (Foreground)
//Storyboard Sound Samples
//Background Colour Transformations
3,100,0,0,0

[TimingPoints]
7588,342.857142857143,4,2,0,60,1,0
9873,-133.333333333333,4,2,0,60,0,0
11473,-100,4,2,0,60,0,0
26330,-133.333333333333,4,2,0,60,0,0
28388,-100,4,2,0,60,0,0
56959,-100,4,2,0,60,0,1
59245,-133.333333333333,4,2,0,60,0,1
60845,-100,4,2,0,60,0,1
77530,-100,4,2,0,60,0,0
117302,-100,4,2,0,60,0,1
119588,-133.333333333333,4,2,0,60,0,1
120959,-100,4,2,0,60,0,1
137873,-100,4,2,0,60,0,0
183130,-90.9090909090909,4,2,0,60,0,1
194102,-90.9090909090909,4,2,0,60,0,0

[Colours]
Combo1 : 251,244,113
Combo2 : 251,196,4
Combo3 : 220,111,12
Combo4 : 240,5,5

[HitObjects]
256,328,7473,1,0
256,328,7587,1,4
168,88,7930,2,0,B|184:40|256:8|328:40|344:88,2,220,2|8|2
184,232,8845,1,0
184,232,8959,1,8
328,232,9187,1,2
328,232,9302,1,0
256,24,9645,1,4
40,192,9987,6,2,B|32:296|120:360|232:360,1,274.999991804362,2|0
294,359,10673,2,0,B|392:360|480:296|472:192,1,274.999991804362,4|0
472,120,11359,1,8
344,264,11702,1,0
256,48,12045,1,8
168,264,12387,1,0
40,120,12730,1,8
80,224,12959,5,0
80,224,13073,2,0,B|96:176|168:144|240:176|256:224,1,220,4|8
344,64,13759,2,0,B|328:112|256:144|184:112|168:64,1,220,0|2
432,224,14445,2,0,B|416:176|344:144|272:176|256:224,1,220,4|8
168,304,15016,1,0
168,304,15130,2,0,B|184:352|256:384|328:352|344:304,3,220,2|4|0|8
256,16,16845,5,8
432,144,17187,1,0
256,272,17530,1,8
80,144,17873,1,4
24,328,18216,6,0,B|72:264|176:272|200:352,2,220,0|8|2
144,144,19245,1,4
144,144,19416,1,0
328,272,19759,1,2
256,64,20102,1,8
184,272,20445,1,4
368,144,20788,1,2
128,328,21188,5,0
128,328,21302,2,2,B|104:264|136:200|224:200|256:248|256:328|288:376|376:376|408:312|384:248,1,440,2|8
472,48,22330,1,2
256,0,22673,1,4
40,48,23016,1,2
256,80,23359,1,8
464,144,23702,6,0,B|488:224|448:288,1,146.666666666667
392,328,24045,2,0,B|328:368|232:360|184:288,1,220,4|2
0,192,24730,2,0,B|64:232|160:224|208:152,1,220,4|2
272,40,25416,2,0,B|311:100|407:108|471:68,2,220,8|0|2
40,192,26445,6,2,B|32:88|120:24|232:24,1,274.999991804362,2|0
294,25,27130,2,0,B|392:24|480:88|472:192,1,274.999991804362,4|0
440,200,27816,1,8
408,208,27930,1,0
376,216,28045,1,2
344,224,28159,1,8
104,336,29530,6,0,B|32:288|32:192,1,146.666666666667,4|0
32,136,29873,2,0,B|40:56|160:8|224:64,3,220,2|8|2|2
256,144,31073,1,2
408,336,31473,1,0
408,336,31588,2,0,B|480:288|480:192,1,146.666666666667,4|2
480,136,31930,2,0,B|472:56|352:8|288:64,1,220,8|0
160,192,32502,5,0
160,192,32616,1,2
352,192,32845,1,0
352,192,32959,1,8
200,336,33302,2,0,B|216:392|296:392|312:336,1,146.666666666667
256,312,33645,1,2
312,48,33988,2,2,B|296:-8|216:-8|200:48,1,146.666666666667,2|0
256,72,34330,1,4
256,72,34673,1,2
48,144,35016,5,0
144,344,35359,1,4
368,344,35702,1,2
464,144,36045,1,8
344,56,36273,1,0
344,56,36388,2,2,B|328:104|256:136|184:104|168:56,2,220
256,256,37416,1,4
256,256,37759,1,0
256,40,38102,5,10
72,192,38788,1,10
256,344,39473,1,10
256,192,39816,2,0,B|368:192,3,110,0|8|0|8
456,192,40502,5,4
392,64,40730,1,0
392,64,40845,1,2
256,8,41073,1,0
256,8,41188,1,8
256,192,41530,1,0
56,192,41873,1,4
120,320,42102,1,0
120,320,42216,1,2
256,376,42445,1,0
256,376,42559,1,8
392,320,42788,1,2
452,32,43245,6,0,B|380:-8|308:32,1,146.666666666667,8|0
236,24,43588,2,2,B|167:-13|95:26,1,146.666666666667,2|0
60,88,43930,2,0,B|132:128|204:88,1,146.666666666667,8|0
276,96,44273,2,2,B|344:133|416:93,1,146.666666666667,2|0
488,96,44616,1,4
408,216,44845,1,0
408,216,44959,1,2
336,336,45187,1,0
336,336,45302,1,8
256,264,45473,1,2
48,240,45987,5,0
144,40,46330,1,4
368,40,46673,1,2
464,240,47016,1,8
344,328,47245,1,0
344,328,47359,2,2,B|328:280|256:248|184:280|168:328,2,220
256,128,48388,1,4
256,128,48730,1,0
256,344,49073,5,10
72,192,49759,1,10
256,40,50445,1,10
440,192,51130,1,10
312,248,51473,6,2,B|392:256|392:256|392:320|480:336|512:272,2,220,2|2|4
456,240,52330,1,2
18,88,53187,2,2,B|32:48|120:64|120:128|120:128|200:136,1,220,2|4
56,144,53702,1,2
256,192,54216,12,4,55587
256,56,56845,5,0
256,56,56959,1,4
168,296,57302,2,0,B|184:344|256:376|328:344|344:296,2,220,2|8|2
184,152,58216,1,0
184,152,58330,1,8
328,152,58559,1,2
328,152,58673,1,0
256,360,59016,1,4
40,192,59359,6,2,B|32:88|120:24|232:24,1,274.999991804362,2|0
294,25,60045,2,0,B|392:24|480:88|472:192,1,274.999991804362,4|0
472,264,60730,1,8
344,120,61073,1,0
256,240,61302,1,8
256,240,61416,1,2
168,120,61759,1,4
40,264,62102,1,8
80,160,62330,5,0
80,160,62445,2,0,B|96:208|168:240|240:208|256:160,1,220,4|8
344,320,63130,2,0,B|328:272|256:240|184:272|168:320,1,220,0|2
432,160,63816,2,0,B|416:208|344:240|272:208|256:160,1,220,4|8
168,80,64387,1,0
168,80,64502,2,0,B|184:32|256:0|328:32|344:80,3,220,2|4|0|8
256,368,66216,5,8
368,176,66559,1,0
256,80,66788,1,8
256,80,66902,1,2
144,176,67245,1,4
24,56,67587,6,0,B|72:120|176:112|200:32,2,220,0|8|2
144,240,68616,1,4
144,240,68787,1,0
328,112,69130,1,2
256,320,69473,1,8
184,112,69816,1,4
368,240,70159,1,2
128,56,70559,5,0
128,56,70673,2,2,B|104:120|136:184|224:184|256:136|256:56|288:8|376:8|408:72|384:136,1,440,2|8
472,336,71702,1,2
256,384,72045,1,4
40,336,72387,1,2
256,304,72730,1,8
256,80,73073,1,2
256,192,73416,12,8,77530
0,120,89873,5,0
64,328,90216,1,10
200,160,90559,1,0
256,368,90902,1,10
448,328,91245,1,0
512,120,91587,1,10
312,160,91930,1,0
176,72,92273,6,0,B|160:24|88:-8|16:24|0:72,4,220,10|0|10|0|10
336,16,93987,2,0,B|352:64|424:96|496:64|512:16,3,220,0|10|0|10
512,360,95359,5,0
448,152,95702,1,10
312,320,96045,1,0
256,112,96387,1,10
64,152,96730,1,0
0,360,97073,1,10
200,320,97416,1,0
256,112,97759,1,10
256,112,98102,1,4
256,192,98445,12,4,100159
40,232,100730,5,0
40,232,100845,2,2,B|48:312|128:368|216:352,1,220
256,216,101416,1,0
256,216,101530,1,2
256,72,101759,1,0
256,72,101873,1,8
400,104,102102,5,0
400,104,102216,2,0,B|400:176|328:200,1,110,8|2
112,280,102730,2,0,B|112:208|184:184,1,110,8|6
56,88,103473,5,0
56,88,103587,1,2
192,40,103816,1,0
192,40,103930,1,8
320,120,104273,1,2
456,88,104502,1,0
456,88,104616,1,2
400,280,104959,6,0,B|400:208|328:184,1,110,8|2
112,104,105473,2,0,B|112:176|184:200,1,110,8|6
112,280,106216,5,0
88,344,106330,2,0,B|160:376|224:312|184:216|128:208,1,220,4|2
424,40,107016,2,0,B|352:8|288:72|328:168|384:176,1,220,8|2
96,56,107702,2,0,B|64:128|136:200|224:152|232:96,1,220,4|2
416,328,108387,2,0,B|448:256|376:184|288:232|280:288,2,220,0|2|4
256,376,109416,5,10
56,192,110102,1,10
256,8,110787,1,10
456,192,111473,1,10
200,248,111816,6,2,B|120:256|120:256|120:320|32:336|0:272,2,220,2|2|4
56,240,112673,1,2
494,88,113530,2,2,B|480:48|392:64|392:128|392:128|312:136,1,220,2|4
456,144,114045,1,2
256,192,114559,12,4,115930
256,56,117188,5,0
256,56,117302,1,4
168,296,117645,2,0,B|184:344|256:376|328:344|344:296,2,220,2|8|2
184,152,118559,1,0
184,152,118673,1,8
328,152,118902,1,2
328,152,119016,1,0
256,360,119359,1,4
40,192,119702,6,2,B|32:88|120:24|232:24,1,274.999991804362,2|0
294,25,120388,2,0,B|392:24|480:88|472:192,1,274.999991804362,4|0
472,264,121073,1,8
344,120,121416,1,0
256,240,121645,1,8
256,240,121759,1,2
168,120,122102,1,4
40,264,122445,1,8
80,160,122673,5,0
80,160,122788,2,0,B|96:208|168:240|240:208|256:160,1,220,4|8
344,320,123473,2,0,B|328:272|256:240|184:272|168:320,1,220,0|2
432,160,124159,2,0,B|416:208|344:240|272:208|256:160,1,220,4|8
168,80,124730,1,0
168,80,124845,2,0,B|184:32|256:0|328:32|344:80,3,220,2|4|0|8
256,368,126559,5,8
368,176,126902,1,0
256,80,127131,1,8
256,80,127245,1,2
144,176,127588,1,4
24,56,127930,6,0,B|72:120|176:112|200:32,2,220,0|8|2
144,240,128959,1,4
144,240,129130,1,0
328,112,129473,1,2
256,320,129816,1,8
184,112,130159,1,4
368,240,130502,1,2
128,56,130902,5,0
128,56,131016,2,2,B|104:120|136:184|224:184|256:136|256:56|288:8|376:8|408:72|384:136,1,440,2|8
472,336,132045,1,2
256,384,132388,1,4
40,336,132730,1,2
256,304,133073,1,8
256,80,133416,1,2
256,192,133759,12,8,137873
256,352,150216,5,4
48,272,150559,1,2
184,216,150788,1,0
184,216,150902,2,0,B|232:128|144:48|56:112,1,220,8|2
328,168,151588,2,0,B|280:256|368:336|456:272,1,220,4|2
360,72,152273,1,8
256,192,152502,1,0
256,192,152616,1,2
48,120,152959,6,0,B|72:40|176:24,1,146.666666666667,4|0
224,16,153302,1,2
224,16,153473,1,4
144,328,153988,1,2
144,328,154330,1,4
368,328,154673,1,2
512,24,155702,6,0,B|392:216,1,220,4|2
392,24,156388,2,0,B|272:216,1,220,4|2
264,24,157073,2,0,B|144:216,1,220,4|2
104,152,157588,2,4,B|224:344,1,220,4|2
292,339,158102,2,4,B|408:152,2,220,0|4|10
256,24,159473,1,10
256,56,159588,1,0
256,88,159702,1,0
256,120,159816,1,0
256,56,161188,5,4
168,296,161530,2,0,B|184:344|256:376|328:344|344:296,2,220,2|8|2
136,168,162559,1,8
376,168,162902,1,0
256,360,163245,1,4
40,192,163588,5,2
256,24,164159,1,0
256,24,164273,1,4
472,192,164959,1,8
256,336,165645,1,8
256,336,166330,1,8
80,160,166673,6,0,B|96:208|168:240|240:208|256:160,1,220,4|8
344,320,167359,2,0,B|328:272|256:240|184:272|168:320,1,220,0|2
432,160,168045,2,0,B|416:208|344:240|272:208|256:160,1,220,4|8
168,56,168730,2,0,B|184:8|256:-24|328:8|344:56,3,220,2|4|0|8
256,368,170445,5,8
256,112,171130,1,8
24,56,171816,6,0,B|72:120|176:112|200:32,2,220,0|8|2
144,240,172845,1,4
144,240,173016,1,0
328,112,173359,1,2
256,320,173702,1,8
184,112,174045,1,4
368,240,174388,1,2
128,56,174902,6,2,B|104:120|136:184|224:184|256:136|256:56|288:8|376:8|408:72|384:136,1,440,2|8
472,336,175930,1,2
40,336,176616,1,2
256,80,177302,1,2
256,192,177645,12,8,181759
256,264,182445,5,0
192,192,182616,1,8
256,120,182788,1,0
320,192,182959,1,8
384,280,183130,6,0,B|480:248|472:112|384:56,1,241.999992787838,4|2
128,104,183816,2,0,B|32:136|40:272|128:328,1,241.999992787838,8|2
248,368,184388,1,0
248,368,184502,1,8
256,192,184730,1,0
256,192,184845,1,2
248,16,185073,1,0
248,16,185188,1,4
344,88,185530,6,0,B|416:136|416:248|344:296,2,241.999992787838,2|8|2
166,294,186559,2,0,B|96:248|96:136|168:88,1,241.999992787838,8|2
256,16,187130,1,0
256,16,187245,1,8
256,192,187473,1,0
256,192,187588,1,2
256,368,187816,1,0
256,368,187930,1,8
256,368,188273,1,4
168,296,188616,6,0,B|200:392|336:384|392:296,1,241.999992787838,0|2
344,88,189302,2,0,B|312:-8|176:0|120:88,1,241.999992787838,8|2
80,192,189873,1,0
80,192,189988,1,8
256,192,190216,1,0
256,192,190330,1,2
432,192,190559,1,0
432,192,190673,1,4
360,280,191016,6,0,B|312:352|200:352|152:280,2,241.999992787838,2|8|2
154,102,192045,2,0,B|200:32|312:32|360:104,1,241.999992787838,8|2
256,192,192730,1,4
256,192,192845,12,8,194102
