osu file format v9

[General]
AudioFilename: Bruno Mars - Marry You (1).mp3
AudioLeadIn: 0
PreviewTime: 78903
Countdown: 1
SampleSet: Normal
StackLeniency: 0.7
Mode: 0
LetterboxInBreaks: 0
StoryFireInFront: 0

[Editor]
Bookmarks: 10007,12913,26144,39800,53041,66282,78903,92144,106007,119248,132076,145110,158558,162903,163938,170558,184007,198282
DistanceSpacing: 1.2
BeatDivisor: 4
GridSize: 8

[Metadata]
Title:Marry You
TitleUnicode:
Artist:Bruno Mars
ArtistUnicode:
Creator:dkun
Version:Married!
Source:
Tags:MathiasXII Roddie Mint_Bunny iMuffin Lizzehb MMzz
BeatmapID:94850
BeatmapSetID:28061

[Difficulty]
HPDrainRate:8
CircleSize:4
OverallDifficulty:7
ApproachRate:8
SliderMultiplier:2.1
SliderTickRate:1

[Events]
//Background and Video events
0,0,"bg1.jpg"
//Break Periods
//Storyboard Layer 0 (Background)
//Storyboard Layer 1 (Fail)
//Storyboard Layer 2 (Pass)
//Storyboard Layer 3 (Foreground)
Sprite,Foreground,Centre,"sb\dkun.png",320,240 L,13317,16 S,0,0,413,1.1,1 S,0,413,827,1.1,1 L,92765,32 S,0,0,413,1.1,1 S,0,413,827,1.1,1 L,132489,16 S,0,0,413,1.1,1 S,0,413,827,1.1,1 L,183800,18 S,0,0,413,1.1,1 S,0,413,827,1.1,1 F,0,12903,13317,0,1 S,0,12903,13317,1 M,0,13317,,520,354 F,0,26144,26558,1,0 F,0,92351,92765,0,1 F,0,118834,119248,1,0 F,0,132076,132489,0,1 F,0,145317,145731,1,0 F,0,183386,183800,0,1 F,0,198282,198696,1,0
Sprite,Foreground,Centre,"sb\mint.png",320,240 L,26558,16 S,0,0,413,1,0.86 S,0,413,827,1,0.86 L,79524,16 S,0,0,413,1,0.86 S,0,413,827,1,0.86 L,119248,16 S,0,0,413,1,0.86 S,0,413,827,1,0.86 L,170558,16 S,0,0,413,1,0.86 S,0,413,827,1,0.86 M,0,26144,,473,358 S,0,26144,,0.86 F,0,26144,26558,0,1 F,0,39386,39800,1,0 F,0,79110,79524,0,1 F,0,92351,92765,1,0 F,0,118834,119248,0,1 F,0,132076,132489,1,0 F,0,170144,170558,0,1 F,0,183386,183800,1,0
Sprite,Foreground,Centre,"sb\imuffin.png",320,240 L,39800,16 S,0,0,413,1,0.86 S,0,413,827,1,0.86 L,66282,16 S,0,0,413,1,0.86 S,0,413,827,1,0.86 L,145731,16 S,0,0,413,1,0.86 S,0,413,827,1,0.86 M,0,39386,,530,354 S,0,39386,,0.86 F,0,39386,39800,0,1 F,0,52627,53041,1,0 F,0,65869,66282,0,1 F,0,79110,79524,1,0 F,0,145317,145731,0,1 F,0,158558,158972,1,0
Sprite,Foreground,Centre,"sb\lizzehb.png",320,240 L,53041,16 S,0,0,413,1,0.86 S,0,413,827,1,0.86 L,158972,14 S,0,0,413,1,0.86 S,0,413,827,1,0.86 M,0,52627,,517,354 S,0,52627,,0.86 F,0,52627,53041,0,1 F,0,65869,66282,1,0 F,0,158558,158972,0,1 F,0,170144,170558,1,0
//Storyboard Sound Samples
//Background Colour Transformations
3,100,163,162,255

[TimingPoints]
88,413.793103448276,4,1,0,60,1,0
13329,-100,4,1,0,60,0,1
39812,-100,4,1,0,50,0,0
79536,-100,4,1,0,60,0,1
106019,-100,4,1,0,50,0,0
145743,-100,4,1,0,60,0,1
198708,-100,4,1,0,50,0,0

[Colours]
Combo1 : 0,128,255
Combo2 : 255,128,128

[HitObjects]
112,248,12915,1,0
192,344,13122,1,2
320,344,13329,1,0
400,248,13536,1,4
256,232,13743,2,4,B|256:88,1,105
152,80,14156,2,4,B|256:8|376:96,3,210
448,160,15605,1,4
344,232,15812,1,0
344,232,15915,1,2
344,232,16019,1,0
448,304,16225,1,0
448,304,16432,1,4
344,232,16639,6,2,B|248:304|128:216,1,210
48,152,17260,1,0
136,64,17467,1,4
264,64,17674,1,0
352,152,17881,1,4
112,232,18294,5,0
200,320,18501,1,4
288,232,18708,1,0
48,152,19122,5,0
128,56,19329,1,4
208,152,19536,1,0
256,192,19743,12,0,21191
96,144,21398,5,0
176,48,21605,1,4
256,144,21812,1,0
336,48,22019,1,4
416,144,22225,1,0
360,256,22432,2,2,B|256:320|160:256,2,210
416,144,23467,1,0
336,48,23674,1,4
256,144,23881,1,0
176,48,24088,1,4
96,144,24294,1,0
96,144,24501,1,4
256,336,24915,5,0
192,224,25122,1,4
320,224,25329,1,0
256,40,25743,5,0
256,40,25950,1,0
256,40,26156,2,2,B|256:144,1,105
152,224,26570,5,12
256,296,26777,1,0
360,224,26984,1,8
256,160,27191,1,0
144,96,27398,2,2,B|72:96|72:184|72:192,1,105
72,288,27812,2,2,B|69:266|69:354|141:354,1,105
248,312,28225,1,8
280,192,28432,1,0
408,224,28639,6,2,B|448:304|416:392|312:384,1,210
224,376,29260,1,4
96,376,29467,2,2,B|18:384|-13:296|26:216,1,210
120,136,30088,5,4
232,72,30294,1,0
336,136,30501,1,4
296,256,30708,1,0
232,256,30812,1,4
168,256,30915,1,0
232,144,31122,2,0,B|192:120|120:96|56:136|32:192,2,210,2|2|2
232,272,32156,1,4
360,272,32363,1,0
352,144,32570,1,4
224,144,32777,1,0
160,256,32984,5,0
160,256,33088,1,4
160,256,33191,1,0
224,360,33398,2,2,B|304:336|352:304|304:240|272:184,1,210
496,64,34225,1,0
496,192,34432,1,4
496,320,34639,1,0
384,256,34846,2,2,B|328:168,1,105
216,224,35260,2,2,B|280:328,1,105
392,360,35674,1,4
392,360,35881,1,0
392,360,36088,2,2,B|184:360,2,210
392,232,37122,5,4
392,104,37329,2,2,B|168:104,1,210
184,232,37950,1,4
184,232,38156,1,0
312,232,38363,1,4
312,232,38570,1,0
248,128,38777,1,4
248,128,38984,2,2,B|192:240|256:344,2,210
128,104,40019,5,4
40,192,40225,1,0
128,288,40432,1,4
208,192,40639,2,2,B|440:192,1,210
384,312,41260,5,4
256,328,41467,1,0
256,328,41570,1,4
256,328,41674,1,0
128,312,41881,1,4
176,192,42088,1,0
128,72,42294,1,4
256,48,42501,1,0
376,72,42708,1,4
400,192,42915,5,0
456,304,43122,2,0,B|368:240|248:232,1,210
261,233,43743,1,0
64,304,43950,2,0,B|152:240|272:232,1,210
160,160,44570,2,0,B|264:104|384:168,1,210
362,157,45191,1,0
256,88,45398,5,4
120,312,45812,1,4
392,312,46225,2,2,B|304:232,1,105
256,128,46639,2,2,B|256:248,1,105
120,312,47053,2,2,B|208:232,1,105
256,48,47674,2,2,B|176:128,1,105
256,48,48088,2,2,B|256:160,1,105
256,48,48501,2,2,B|336:128,1,105
88,192,49122,5,0
88,192,49329,1,0
256,192,49536,12,0,51398
256,192,51605,12,0,52639
216,224,53053,5,0
272,112,53260,1,4
152,80,53467,2,0,B|88:120|152:176,1,105
264,176,53881,1,8
416,296,54191,1,4
416,296,54294,1,4
416,176,54501,1,0
264,176,54708,1,4
264,48,54915,1,0
120,72,55122,5,0
120,72,55225,1,4
120,72,55329,1,0
64,184,55536,2,0,B|56:256|152:248,1,105
216,240,55950,1,4
216,112,56156,1,0
336,72,56363,5,4
336,200,56570,2,2,B|336:128,2,52.5
288,320,56984,2,0,B|400:376|512:296|496:176|424:128,1,315
216,104,58019,6,0,B|160:152|240:208,2,105
56,280,58846,1,4
168,336,59053,1,0
288,280,59260,1,4
392,336,59467,2,2,B|432:304,2,52.5
160,208,60088,5,4
232,104,60294,1,0
352,144,60501,1,4
440,48,60915,1,4
272,232,61329,5,4
360,328,61536,1,0
440,232,61743,1,0
432,168,61846,1,4
392,120,61950,1,0
264,128,62156,1,4
24,192,62570,5,4
152,192,62777,1,0
216,192,62881,1,4
280,192,62984,1,0
48,104,63398,2,0,B|112:0|256:64,1,210
104,272,64225,5,4
360,280,64639,2,0,B|312:224|248:296,2,105
256,64,65467,1,0
184,168,65674,5,4
256,272,65881,1,0
256,40,66294,5,4
368,264,66708,1,0
256,328,66915,1,4
144,264,67122,1,0
256,40,67536,1,4
352,120,67743,2,0,B|248:176|136:112,2,210
368,248,68777,1,4
256,296,68984,1,0
136,248,69191,5,4
184,136,69398,1,0
256,32,69605,1,4
368,248,70019,1,4
320,136,70225,1,0
256,32,70432,1,4
184,136,70639,1,0
360,312,71053,2,0,B|256:368|128:304,2,210
320,56,72294,5,0
192,56,72501,1,4
256,168,72708,1,0
352,256,72915,2,0,B|248:320|136:248,1,210
368,128,73743,1,4
256,64,73950,1,0
152,128,74156,1,4
160,256,74363,2,0,B|256:320|360:256,2,210
256,40,75605,5,4
256,168,75812,1,0
360,256,76019,2,0,B|248:312|128:240,2,210
360,256,77053,1,0
448,168,77260,1,4
352,88,77467,1,0
256,168,77674,1,4
160,88,77881,5,0
48,168,78088,1,0
160,264,78294,1,0
256,344,78501,1,0
256,344,78708,1,0
256,344,78915,1,0
352,264,79122,1,4
360,136,79329,1,0
240,64,79536,5,4
392,224,79743,1,0
112,224,79950,1,4
240,224,80156,2,2,B|224:192|224:144|280:128|320:136,1,105
336,32,80570,1,4
208,32,80777,1,0
128,128,80984,1,4
160,248,81191,6,2,B|160:368,2,105
256,160,81812,1,0
344,248,82019,2,2,B|344:360,2,105
384,128,82639,1,4
312,40,82846,6,2,B|72:40,1,210
102,40,83467,1,0
104,168,83674,1,4
352,288,84087,1,0
352,160,84294,1,4
352,32,84501,1,0
168,208,84915,1,4
256,296,85122,1,0
344,208,85329,2,2,B|329:159|296:112|208:96|152:128,1,210
88,200,85950,1,4
160,304,86156,5,0
224,200,86363,1,4
160,96,86570,2,2,B|216:64|272:56,1,105
384,56,86984,2,2,B|425:61|481:93,1,105
432,208,87398,1,4
304,208,87605,1,0
176,208,87812,5,4
248,104,88019,1,0
248,104,88225,1,4
248,104,88432,1,0
248,104,88639,2,2,B|192:56|80:80|48:152,2,210
248,232,89881,6,2,B|304:184|416:208|448:280,2,210
168,328,90915,1,4
80,240,91122,1,0
168,152,91329,1,4
168,152,91536,2,2,B|240:48|384:64,1,210
472,56,92156,5,4
368,120,92363,1,0
368,248,92570,1,4
464,328,92777,1,0
464,192,92984,1,4
336,192,93191,1,0
208,192,93398,1,4
112,104,93605,2,2,B|8:192|128:304,3,210
216,352,95053,1,4
296,256,95260,5,0
216,160,95467,1,4
216,160,95674,1,0
216,160,95881,1,4
120,80,96087,2,2,B|232:32|360:88,3,210
256,344,97743,5,0
192,232,97950,1,4
320,232,98156,1,0
256,32,98570,5,0
192,144,98777,1,4
320,144,98984,1,0
320,144,99191,1,4
360,264,99398,2,2,B|256:312|128:256,3,210
48,208,100846,1,4
104,96,101053,1,0
168,208,101260,1,4
224,96,101467,1,0
224,96,101674,1,4
288,208,101881,1,0
288,208,102087,1,4
336,96,102294,1,0
456,320,102708,5,0
56,320,103122,1,8
56,48,103536,1,0
456,48,103950,1,8
392,232,104363,5,0
320,336,104570,1,4
192,336,104777,1,0
120,232,104984,1,4
256,216,105191,1,0
256,216,105294,1,4
256,216,105398,1,0
256,88,105605,1,4
376,224,106019,5,0
320,336,106225,1,4
192,336,106432,1,0
136,224,106639,1,4
160,104,106846,2,2,B|256:32|360:104,1,210
432,192,107467,1,4
432,192,107674,1,0
344,280,107881,1,4
344,280,108087,1,0
256,192,108294,1,4
256,192,108501,1,0
160,280,108708,1,4
64,192,108915,1,0
256,192,109329,12,8,110570
192,88,110984,5,0
320,88,111191,1,4
256,192,111398,1,0
256,192,111605,1,4
192,296,111812,1,0
320,296,112019,1,4
256,192,112225,1,0
256,192,112432,1,4
256,192,112639,12,8,113881
192,40,114294,5,0
320,40,114501,1,4
256,152,114708,1,0
320,344,115122,5,0
192,344,115329,1,4
256,232,115536,1,0
256,192,115950,12,8,118846
56,72,119260,6,2,B|176:72,1,105
160,200,119674,2,2,B|280:200,1,105
312,80,120087,2,2,B|360:64|424:56|496:120|504:192,1,210
490,149,120708,1,8
440,288,120915,2,2,B|336:288,1,105
336,160,121329,2,2,B|224:160,1,105
232,288,121743,2,2,B|136:304|64:280|32:128|128:72,1,315
208,32,122570,5,8
208,160,122777,1,4
336,160,122984,1,0
336,296,123191,1,4
208,304,123398,2,2,B|112:304|80:208|96:152,1,210
192,80,124019,1,4
320,80,124225,1,0
448,80,124432,1,4
448,80,124639,2,2,B|424:208|272:216,2,210
328,120,125674,1,4
224,192,125881,6,2,B|80:192,1,105
176,304,126294,2,2,B|64:304,1,105
72,176,126708,2,2,B|152:120|256:144|280:192,1,210
352,80,127329,1,4
432,176,127536,1,0
352,272,127743,1,4
272,176,127950,2,2,B|192:288|48:208,1,210
86,226,128570,1,4
88,104,128777,5,0
216,104,128984,1,4
216,232,129191,2,2,B|352:232,1,105
408,72,129605,2,2,B|464:168,1,105
400,320,130019,2,2,B|304:360,1,105
304,360,130432,1,4
256,192,130639,12,8,132087
128,144,132501,5,0
192,32,132708,1,4
320,32,132915,1,0
384,144,133122,1,4
352,264,133329,2,2,B|256:352|152:256,2,210
456,200,134363,1,4
376,104,134570,1,0
256,152,134777,1,4
136,104,134984,1,0
56,200,135191,1,4
144,296,135398,1,0
200,328,135501,1,4
256,296,135605,1,4
312,328,135708,1,0
368,296,135812,6,0,B|416:248,4,52.5
360,168,136432,1,12
368,40,136639,2,0,B|416:88,4,52.5
256,104,137260,1,8
144,40,137467,5,4
256,104,137674,1,0
368,40,137881,1,4
336,160,138087,1,0
256,256,138294,1,4
176,160,138501,1,0
144,40,138708,1,4
256,192,139122,12,8,141812
192,48,142019,5,0
320,48,142225,1,4
352,168,142432,2,2,B|256:232|152:168,2,210
320,336,143674,5,0
192,336,143881,1,4
160,216,144087,2,2,B|256:152|360:216,2,210
192,48,145122,5,0
320,48,145329,1,4
256,152,145536,1,0
256,152,145743,1,4
256,280,145950,1,0
256,280,146156,1,4
160,192,146363,2,2,B|264:120|368:192,1,210
472,240,146984,5,0
488,112,147191,1,4
392,32,147398,1,0
392,32,147501,1,4
392,32,147605,1,0
320,136,147812,5,4
192,136,148019,1,0
280,232,148225,1,4
152,232,148432,1,0
232,328,148639,1,4
104,328,148846,1,0
40,216,149053,1,4
120,120,149260,1,0
256,56,149467,2,0,B|256:280,1,210
256,266,150087,5,0
256,266,150294,1,0
136,176,150915,1,4
192,64,151122,1,0
320,64,151329,1,4
368,176,151536,1,0
256,128,151743,5,4
160,216,151950,2,0,B|256:296|360:208,2,210
256,128,152984,1,4
352,48,153191,1,0
352,48,153294,1,4
352,48,153398,1,0
448,128,153605,1,4
344,192,153812,5,0
256,280,154019,1,4
168,192,154225,1,0
256,104,154432,1,4
168,192,154639,1,0
256,280,154846,1,4
344,192,155053,1,0
464,240,155260,6,0,B|464:344,1,105
344,328,155674,2,8,B|232:264,1,105
184,176,156087,2,8,B|272:88,1,105
416,120,156501,2,4,B|328:208,1,105
256,288,156915,1,4
256,32,157329,5,0
256,32,157432,1,4
256,32,157536,1,0
256,160,157743,1,8
256,352,158156,5,0
256,352,158260,1,4
256,352,158363,1,0
256,224,158570,1,8
376,192,158777,5,0
320,80,158984,1,4
192,80,159191,1,0
136,192,159398,1,4
256,192,159605,12,8,160432
256,192,161053,5,4
56,40,161467,2,2,B|144:112|-16:152|72:224,1,210
160,304,162088,1,0
160,304,162191,1,4
160,304,162294,1,0
288,320,162501,2,2,B|336:368|392:304,1,105
464,216,162915,1,4
456,88,163122,1,0
336,64,163329,1,4
216,104,163536,1,0
224,232,163743,1,4
464,216,164156,6,2,B|488:320,2,105
360,296,164777,1,4
104,296,165191,1,8
280,112,165605,1,4
376,192,165812,2,0,B|328:64|488:24,1,210
448,160,166432,2,2,B|522:257|384:256|458:353,1,210
368,248,167053,6,2,B|304:191|400:191|352:159,1,105
264,248,167467,2,2,B|200:191|296:191|248:159,1,105
128,160,167881,2,2,B|176:192|80:192|152:256,1,105
16,248,168294,2,2,B|-47:191|48:191|0:159,1,105
256,192,168915,12,8,170156
192,88,170777,6,2,B|288:40|424:88,2,210
88,160,171812,1,0
8,256,172019,1,4
128,280,172225,6,2,B|184:328|264:256,1,105
232,160,172639,2,2,B|273:203|329:155,1,105
408,64,173053,1,0
464,176,173260,1,4
408,288,173467,1,0
344,176,173674,1,4
296,64,173881,6,2,B|160:64,1,105
192,192,174294,2,2,B|64:192,1,105
88,320,174708,2,2,B|216:320,1,105
320,320,175122,2,8,B|320:216,1,105
320,88,175536,5,0
216,16,175743,1,4
120,96,175950,1,0
216,176,176156,1,4
344,192,176363,2,2,B|416:200|432:280,1,105
344,352,176777,2,8,B|275:344|267:292,1,105
240,168,177191,5,0
144,80,177398,1,4
56,168,177605,1,0
136,248,177812,2,0,B|280:304,2,105,4|0|8
136,120,178432,2,4,B|24:160,2,105,8|4|4
248,64,179053,5,0
248,64,179260,1,4
248,64,179467,2,2,B|376:64|464:128|408:280|400:304,1,315
304,336,180294,5,0
200,264,180501,1,4
200,264,180708,1,0
200,264,180915,1,4
120,168,181122,2,2,B|144:104|192:80,3,105
296,32,181950,1,0
400,96,182156,6,2,B|464:208|432:288|376:360|288:344,1,315
200,304,182984,1,4
120,208,183191,1,8
120,80,183398,2,2,B|208:16|352:80,1,210
376,232,184019,5,0
376,232,184225,1,4
320,344,184432,1,0
192,344,184639,1,4
136,232,184846,1,0
136,232,185053,1,4
256,192,185260,12,8,190432
128,152,190846,5,0
128,152,191053,1,4
192,48,191260,1,0
320,48,191467,1,4
392,152,191674,1,0
392,152,191881,1,4
360,272,192088,2,2,B|256:344|160:272,2,210
384,232,194156,5,0
384,232,194363,1,0
320,336,194570,1,0
192,336,194777,1,0
120,232,194984,1,0
120,232,195191,1,0
152,112,195398,2,8,B|256:40|352:112,4,210,8|8|8|8|8
256,192,197467,12,8,198708
