osu file format v9

[General]
AudioFilename: Bruno Mars - Marry You (1).mp3
AudioLeadIn: 0
PreviewTime: 78903
Countdown: 1
SampleSet: Normal
StackLeniency: 0.7
Mode: 0
LetterboxInBreaks: 0
StoryFireInFront: 0

[Editor]
Bookmarks: 12913,198282
DistanceSpacing: 0.7
BeatDivisor: 4
GridSize: 8

[Metadata]
Title:Marry You
TitleUnicode:
Artist:Bruno Mars
ArtistUnicode:
Creator:dkun
Version:Engaged!
Source:
Tags:MathiasXII Roddie Mint_Bunny iMuffin Lizzehb MMzz
BeatmapID:94849
BeatmapSetID:28061

[Difficulty]
HPDrainRate:8
CircleSize:4
OverallDifficulty:7
ApproachRate:8
SliderMultiplier:2.1
SliderTickRate:1

[Events]
//Background and Video events
0,0,"bg1.jpg"
//Break Periods
//Storyboard Layer 0 (Background)
//Storyboard Layer 1 (Fail)
//Storyboard Layer 2 (Pass)
//Storyboard Layer 3 (Foreground)
Sprite,Foreground,Centre,"sb\dkun",320,240 L,13317,112 S,0,0,413,1.2,1 S,0,413,827,1.2,1 S,0,827,1240,1.2,1 S,0,1240,1655,1.2,1 M,0,12903,,491,365 S,0,12903,,1 F,0,12903,13317,0,1 F,0,198282,198696,1,0
//Storyboard Sound Samples
//Background Colour Transformations
3,100,163,162,255

[TimingPoints]
88,413.793103448276,4,1,0,60,1,0
13329,-100,4,1,0,60,0,1
39812,-100,4,1,0,50,0,0
79536,-100,4,1,0,60,0,1
106019,-100,4,1,0,50,0,0
145743,-100,4,1,0,60,0,1
198708,-100,4,1,0,50,0,0

[Colours]
Combo1 : 0,128,255
Combo2 : 255,128,128

[HitObjects]
152,112,12915,1,0
208,48,13122,1,0
208,48,13329,1,6
304,48,13536,1,0
360,112,13743,1,2
360,112,13950,1,2
352,192,14156,2,0,B|256:112|160:192,2,210,0|0|0
352,280,15191,5,0
304,344,15398,1,0
208,344,15605,1,0
152,280,15812,1,2
320,120,16225,1,0
256,64,16432,1,2
192,120,16639,1,6
160,288,17053,6,2,B|255:363|352:288,3,210,2|2|2|0
416,224,18501,1,2
456,152,18708,1,0
408,80,18915,1,0
328,80,19122,1,0
280,152,19329,1,2
328,224,19536,1,0
376,288,19743,6,6,B|272:344|160:280,1,210,6|2
120,352,20363,2,0,B|40:256|128:152,3,210,0|2|0|2
176,96,21812,1,0
248,48,22019,1,2
336,48,22225,1,0
336,48,22432,1,2
408,96,22639,1,0
440,176,22846,2,2,B|344:256|246:175,3,210,2|6|2|2
184,120,24294,5,0
128,56,24501,1,2
72,120,24708,1,0
128,184,24915,2,2,B|224:240|334:185,1,210,2|0
408,208,25536,1,2
456,272,25743,2,2,B|356:338|254:280,1,210
184,224,26363,1,0
112,176,26570,5,6
112,88,26777,1,0
184,40,26984,1,0
224,128,27191,2,2,B|440:128,1,210,2|0
432,40,27812,2,2,B|528:128|440:240,1,210
392,288,28432,1,0
328,344,28639,5,2
328,344,28846,1,0
264,288,29053,1,2
264,288,29260,1,0
200,344,29467,1,0
136,288,29674,2,6,B|32:192|160:88,1,210,2|0
200,56,30294,1,2
264,112,30501,1,0
352,112,30708,5,0
352,112,30915,1,0
408,48,31122,1,2
464,208,31536,1,0
408,144,31743,1,2
352,208,31950,1,0
240,336,32363,5,0
184,272,32570,1,0
128,336,32777,1,2
128,336,32984,1,0
72,272,33191,2,6,B|0:184|80:64,1,210,6|2
71,76,33812,1,2
368,280,34639,5,0
304,336,34846,1,2
208,336,35053,1,0
144,280,35260,1,2
144,280,35467,1,0
160,200,35674,2,6,B|256:125|353:203,3,210,2|2|6|2
424,256,37122,6,0,B|488:192|384:144,3,105,2|0|0|0
352,120,37950,1,0
280,72,38156,1,2
192,72,38363,1,0
120,120,38570,1,0
120,120,38777,1,0
120,120,38984,1,2
320,280,39398,5,2
256,336,39605,1,0
192,280,39812,1,6
200,112,40225,1,2
256,176,40432,1,0
312,112,40639,1,2
144,200,41053,5,0
192,272,41260,1,0
256,328,41467,1,2
320,272,41674,1,0
368,200,41881,1,0
216,120,42294,1,2
256,192,42501,1,0
296,120,42708,1,0
256,192,43122,12,0,44984
152,168,45398,5,2
208,232,45605,1,0
304,232,45812,1,2
360,168,46019,1,0
360,168,46225,1,2
256,192,46432,12,0,48501
256,192,48915,5,0
256,104,49122,1,0
328,152,49329,1,2
352,232,49536,2,6,B|256:320|165:237,3,210,2|2|2|2
104,288,50984,2,2,B|0:192|112:96,1,210
168,48,51605,5,2
208,120,51812,1,0
304,120,52019,1,0
304,120,52225,1,0
344,48,52432,1,2
344,48,52639,1,0
472,192,53053,5,6
440,272,53260,1,0
352,272,53467,1,2
352,272,53674,1,0
320,192,53881,1,2
472,120,54294,1,2
472,120,54501,1,0
440,40,54708,5,4
440,40,54915,1,2
352,40,55122,1,0
352,40,55329,1,0
320,120,55536,1,2
408,264,55950,5,2
408,264,56156,1,0
328,288,56363,2,6,B|224:352|112:280,3,210,6|2|2|2
128,290,57812,1,0
88,216,58019,1,2
168,216,58225,1,0
128,56,58639,5,2
128,136,58846,1,0
200,96,59053,1,2
272,56,59260,1,0
344,96,59467,1,0
416,136,59674,2,6,B|512:240|408:336,3,210,6|2|2|2
344,360,61122,1,0
264,328,61329,1,2
328,272,61536,1,0
72,56,62363,5,0
128,120,62570,1,0
184,56,62777,2,2,B|280:112|416:48,3,210
464,32,64225,2,2,B|520:128|472:248,3,210
416,296,65674,1,0
352,344,65881,1,2
280,296,66088,1,0
208,344,66294,6,2,B|104:232|240:136,3,210,6|10|2|10
209,160,67743,1,2
272,216,67950,1,0
352,216,68156,1,0
416,160,68363,1,10
416,160,68570,1,10
200,48,68984,1,0
112,48,69191,1,10
48,104,69398,1,0
56,184,69605,6,6,B|152:272|248:176,1,210,6|10
296,120,70225,1,10
368,72,70432,1,2
440,120,70639,1,2
368,168,70846,1,10
440,216,71053,1,2
368,256,71260,1,0
216,336,71674,1,10
152,280,71881,1,10
216,224,72088,1,0
208,56,72501,5,10
304,56,72708,1,0
352,128,72915,2,6,B|256:200|158:130,3,210,6|10|2|10
158,131,74363,1,0
88,88,74570,2,6,B|0:184|96:288,1,210,2|10
144,336,75191,1,10
208,280,75398,1,0
272,336,75605,1,0
328,272,75812,6,6,B|432:176|312:80,3,210,10|6|10|0
264,40,77260,1,0
184,40,77467,1,10
112,80,77674,1,0
112,80,77881,1,2
184,128,78088,1,2
264,128,78294,1,0
336,80,78501,1,0
416,232,78915,5,0
384,312,79122,1,2
304,344,79329,1,0
208,344,79536,1,6
128,312,79743,1,0
96,232,79950,1,10
168,160,80156,2,2,B|256:56|344:160,2,210,10|2|2
168,344,81398,5,0
216,272,81605,1,10
296,272,81812,1,10
344,344,82019,1,2
256,200,82432,1,10
208,128,82639,1,0
304,128,82846,1,6
352,64,83053,1,0
352,64,83260,2,2,B|256:-8|152:64,1,210,10|2
80,104,83881,5,0
24,168,84087,1,10
80,232,84294,1,0
248,232,84708,1,0
304,168,84915,1,10
248,104,85122,1,10
160,248,85536,6,2,B|256:320|384:232,3,210,2|2|2|10
432,280,86984,2,0,B|520:176|384:72,1,210,0|10
352,48,87605,1,0
280,96,87812,1,2
192,96,88019,1,0
192,96,88225,1,10
120,48,88432,1,10
120,48,88639,1,2
56,96,88846,1,0
120,152,89053,1,10
56,200,89260,1,0
56,200,89363,1,0
56,200,89467,1,0
256,344,89881,5,10
208,272,90087,1,10
304,272,90294,1,0
256,112,90708,1,10
208,184,90915,1,0
208,184,91122,1,2
304,184,91329,1,0
304,184,91536,1,10
344,112,91743,1,10
344,112,91950,1,2
304,40,92156,5,0
208,40,92363,1,10
256,112,92570,1,0
256,200,92777,1,6
352,264,92984,2,2,B|248:336|152:256,3,210,2|10|2|2
158,261,94432,1,0
120,184,94639,1,0
208,184,94846,1,10
168,112,95053,2,2,B|272:48|376:120,2,210,10|2|0
96,72,96087,6,2,B|0:168|104:264,3,210,6|10|2|10
168,296,97536,5,0
224,360,97743,1,0
312,360,97950,1,0
368,296,98156,1,10
368,296,98363,1,10
312,232,98570,1,2
224,232,98777,1,0
312,232,98984,1,10
360,160,99191,6,2,B|256:248|168:152,2,210,2|2|10
416,96,100225,2,2,B|488:184|416:296,1,210,2|10
360,352,100846,1,0
304,288,101053,1,2
248,352,101260,1,0
248,352,101467,1,10
192,288,101674,1,10
192,288,101881,1,2
136,224,102087,1,0
192,160,102294,1,10
336,72,102708,5,6
392,136,102915,1,0
336,200,103122,1,10
280,136,103329,1,10
224,72,103536,1,0
168,136,103743,1,0
224,200,103950,1,10
280,264,104156,6,0,B|176:344|48:232,2,210,0|0|10
344,200,105191,1,0
392,128,105398,1,2
344,56,105605,1,0
360,272,106019,5,6
304,336,106225,1,0
208,336,106432,1,2
152,272,106639,1,0
152,272,106846,1,2
256,136,107260,5,2
208,64,107467,1,0
304,64,107674,1,2
344,136,107881,1,0
344,136,108087,1,0
392,64,108294,1,0
440,136,108501,1,2
392,296,108915,6,2,B|288:344|176:288,1,210,2|6
112,256,109536,1,0
184,216,109743,1,0
112,168,109950,1,0
184,120,110156,1,2
336,48,110570,1,0
408,96,110777,1,0
336,144,110984,1,0
192,224,111398,5,2
120,272,111605,1,0
192,320,111812,1,0
264,272,112019,1,0
264,272,112225,1,2
264,272,112432,1,0
336,320,112639,5,6
408,272,112846,1,0
336,224,113053,1,2
336,224,113260,1,0
408,176,113467,1,2
256,104,113881,1,0
216,176,114087,1,0
296,176,114294,1,0
256,336,114708,5,0
216,264,114915,1,0
296,264,115122,1,0
344,336,115329,1,0
384,264,115536,2,2,B|464:152|360:56,3,210,2|6|2|2
312,120,116984,2,2,B|216:48|112:128,3,210
56,176,118432,1,0
128,224,118639,1,2
56,264,118846,1,0
152,104,119260,5,6
208,40,119467,1,0
304,40,119674,1,2
304,40,119881,1,0
360,104,120087,1,2
360,272,120501,6,2,B|256:336|152:264,3,210
88,216,121950,1,0
152,160,122156,1,0
88,104,122363,1,0
160,64,122570,6,2,B|264:0|368:72,3,210,6|2|2|2
432,112,124019,1,0
368,168,124225,1,2
432,224,124432,1,0
320,344,124846,5,2
256,288,125053,1,0
256,288,125260,1,2
192,344,125467,1,2
192,344,125674,1,0
128,288,125881,6,2,B|40:200|136:96,3,210,6|2|2|2
184,40,127329,1,0
240,104,127536,1,2
296,40,127743,1,0
296,40,127950,1,2
424,136,128363,1,0
384,208,128570,1,2
464,208,128777,1,0
256,192,128984,12,0,131674
208,160,131881,5,0
304,160,132087,1,2
256,232,132294,1,0
160,296,132501,2,2,B|256:368|392:272,3,210,6|10|2|10
424,248,133950,1,0
424,248,134156,1,0
304,56,134570,5,10
304,56,134777,1,10
208,56,134984,1,0
208,56,135191,1,0
256,128,135398,1,10
256,128,135605,1,0
160,192,135812,2,2,B|256:272|352:192,3,210,6|10|2|10
424,144,137260,5,0
424,144,137467,1,0
480,208,137674,1,0
480,208,137881,1,10
424,272,138087,1,10
424,272,138294,1,0
360,328,138501,1,0
360,328,138708,1,10
296,272,138915,1,0
240,336,139122,6,2,B|128:240|256:144,3,210,6|10|2|10
296,104,140570,1,0
368,64,140777,1,0
368,144,140984,1,0
368,144,141191,1,10
448,192,141398,1,10
392,256,141605,5,0
336,320,141812,1,0
336,320,142019,1,10
256,352,142225,1,0
176,320,142432,1,4
176,320,142639,1,0
120,256,142846,1,10
120,256,143053,1,10
168,104,143467,5,0
168,104,143674,1,10
216,40,143881,1,0
216,40,144087,1,0
296,40,144294,1,0
296,40,144501,1,0
344,104,144708,1,0
344,104,144915,1,0
344,104,145122,1,0
360,184,145329,6,2,B|256:256|152:176,3,210,2|6|10|2
96,136,146777,1,0
40,200,146984,1,10
120,216,147191,1,0
256,320,147605,5,0
296,248,147812,1,10
296,248,148019,1,10
216,248,148225,1,0
216,248,148432,1,0
152,184,148639,2,2,B|264:144|384:192,3,210,10|6|10|2
440,208,150087,1,0
496,144,150294,1,10
416,128,150501,1,0
256,40,150915,5,0
256,40,151122,1,10
208,112,151329,1,10
208,112,151536,1,0
304,112,151743,1,0
360,184,151950,2,2,B|256:224|144:184,3,210,10|6|10|2
112,120,153398,2,0,B|16:208|128:320,1,210,0|0
184,344,154019,1,2
256,296,154225,1,0
256,296,154432,1,10
328,344,154639,1,10
400,296,154846,6,2,B|488:200|384:104,3,210,2|10|6|10
336,48,156294,1,10
256,48,156501,1,2
296,120,156708,1,0
296,120,156915,1,10
296,280,157329,1,2
248,352,157536,1,0
248,352,157743,1,10
344,352,157950,1,10
344,352,158156,1,0
392,280,158363,1,0
440,208,158570,5,10
440,208,158777,1,0
384,144,158984,2,2,B|288:56|192:152,3,210,6|10|2|10
136,200,160432,1,0
64,152,160639,1,0
64,232,160846,1,0
120,296,161053,6,2,B|216:368|320:296,3,210,10|2|10|6
384,248,162501,2,0,B|480:176,3,105,0|10|10|0
464,104,163329,2,0,B|344:24,1,105,0|10
208,56,163950,1,2
304,56,164156,1,0
256,128,164363,1,10
304,344,164777,5,0
208,344,164984,1,0
256,272,165191,1,10
168,224,165398,2,2,B|255:123|345:223,3,210
152,104,167053,5,0
152,104,167260,1,2
208,40,167467,1,0
208,40,167674,1,10
304,40,167881,1,10
304,40,168088,1,2
360,104,168294,1,0
360,104,168501,1,10
152,184,168915,6,2,B|256:232|357:181,3,210,6|10|2|10
432,136,170363,1,0
355,261,170777,1,2
304,352,170984,1,10
208,352,171191,1,10
160,280,171398,1,2
256,248,171605,1,0
256,248,171812,1,2
256,192,172225,12,0,176777
168,120,177605,5,10
168,120,177812,1,10
208,48,178019,1,0
304,48,178225,1,0
352,120,178432,1,10
352,120,178639,1,0
360,208,178846,2,2,B|256:264|158:205,2,210,6|10|2
168,264,180915,5,10
168,264,181122,1,10
208,336,181329,1,0
304,336,181536,1,0
352,264,181743,1,10
352,264,181950,1,0
344,176,182156,2,2,B|256:89|159:178,4,210,6|10|2|10|2
432,216,184019,5,2
432,216,184225,1,8
368,272,184432,1,10
368,272,184639,1,0
448,304,184846,1,2
448,304,185053,1,8
256,192,185260,12,0,189605
168,120,190846,5,10
168,120,191053,1,10
208,48,191260,1,0
304,48,191467,1,0
352,120,191674,1,10
352,120,191881,1,0
360,208,192088,2,2,B|256:264|152:200,2,210,6|10|2
168,264,194156,5,10
168,264,194363,1,10
208,336,194570,1,0
304,336,194777,1,0
352,264,194984,1,10
352,264,195191,1,0
350,178,195398,2,2,B|255:111|152:178,4,210,6|10|2|10|2
256,192,197674,12,4,198708
