osu file format v14

[General]
AudioFilename: Marry You.mp3
AudioLeadIn: 0
PreviewTime: 198191
Countdown: 0
SampleSet: Soft
StackLeniency: 0.7
Mode: 0
LetterboxInBreaks: 0
WidescreenStoryboard: 0

[Editor]
Bookmarks: 13329,26570,39812,53053,66294,79536,92777,106019,119260,132501,145743,158984,172225,185467,198708,211950,224777
DistanceSpacing: 1.2
BeatDivisor: 4
GridSize: 4
TimelineZoom: 1

[Metadata]
Title:Marry You
TitleUnicode:Marry You
Artist:Bruno Mars
ArtistUnicode:Bruno Mars
Creator:Natsu
Version:Insane
Source:
Tags:Euny
BeatmapID:878124
BeatmapSetID:403851

[Difficulty]
HPDrainRate:6
CircleSize:4
OverallDifficulty:7.5
ApproachRate:8.5
SliderMultiplier:1.7
SliderTickRate:1

[Events]
//Background and Video events
0,0,"il_570xN.jpg",0,0
//Break Periods
//Storyboard Layer 0 (Background)
//Storyboard Layer 1 (Fail)
//Storyboard Layer 2 (Pass)
//Storyboard Layer 3 (Foreground)
//Storyboard Sound Samples

[TimingPoints]
88,413.793103448276,4,1,1,50,1,0
1122,-100,4,1,1,20,0,0
1329,-100,4,1,1,50,0,0
2363,-100,4,1,1,20,0,0
2570,-100,4,1,1,50,0,0
2777,-100,4,1,1,20,0,0
2984,-100,4,1,1,50,0,0
3191,-100,4,1,1,20,0,0
3398,-100,4,1,1,50,0,0
4432,-100,4,1,1,20,0,0
4639,-100,4,1,1,50,0,0
5674,-100,4,1,1,20,0,0
5881,-100,4,1,1,50,0,0
6088,-100,4,1,1,20,0,0
6294,-100,4,1,1,50,0,0
6501,-100,4,1,1,20,0,0
6708,-100,4,1,1,50,0,0
7743,-100,4,1,1,20,0,0
7950,-100,4,1,1,50,0,0
8984,-100,4,1,1,20,0,0
9191,-100,4,1,1,50,0,0
9398,-100,4,1,1,20,0,0
9605,-100,4,1,1,50,0,0
9812,-100,4,1,1,20,0,0
10019,-100,4,1,1,50,0,0
11053,-100,4,1,1,20,0,0
11260,-100,4,1,1,50,0,0
11467,-100,4,1,1,20,0,0
11674,-100,4,1,1,50,0,0
11881,-100,4,1,1,20,0,0
12088,-100,4,1,1,50,0,0
12294,-100,4,1,1,20,0,0
12501,-100,4,1,1,50,0,0
12708,-100,4,1,1,20,0,0
12915,-100,4,1,1,55,0,0
16019,-100,4,1,1,20,0,0
16225,-100,4,1,1,55,0,0
16846,-100,4,1,1,20,0,0
17053,-100,4,1,1,55,0,0
18915,-100,4,1,1,20,0,0
19122,-100,4,1,1,55,0,0
20984,-100,4,1,1,20,0,0
21191,-100,4,1,1,55,0,0
24294,-100,4,1,1,20,0,0
24501,-100,4,1,1,55,0,0
28846,-100,4,1,1,20,0,0
29053,-100,4,1,1,55,0,0
29260,-100,4,1,1,20,0,0
29467,-100,4,1,1,55,0,0
30088,-100,4,1,1,20,0,0
30294,-100,4,1,1,55,0,0
32156,-100,4,1,1,20,0,0
32363,-100,4,1,1,55,0,0
32570,-100,4,1,1,20,0,0
32777,-100,4,1,1,55,0,0
37536,-100,4,1,1,20,0,0
37743,-100,4,1,1,55,0,0
37950,-100,4,1,1,20,0,0
38156,-100,4,1,1,55,0,0
40846,-100,4,1,1,20,0,0
41053,-100,4,1,1,55,0,0
41260,-100,4,1,1,20,0,0
41467,-100,4,1,1,55,0,0
42501,-100,4,1,1,20,0,0
42708,-100,4,1,1,55,0,0
44156,-100,4,1,1,20,0,0
44363,-100,4,1,1,55,0,0
47467,-100,4,1,1,20,0,0
47674,-100,4,1,1,55,0,0
53260,-100,4,1,1,20,0,0
53467,-100,4,1,1,55,0,0
54088,-100,4,1,1,20,0,0
54294,-100,4,1,1,55,0,0
55743,-100,4,1,1,20,0,0
55950,-100,4,1,1,55,0,0
57398,-100,4,1,1,20,0,0
57605,-100,4,1,1,55,0,0
60708,-100,4,2,1,20,0,0
60915,-100,4,1,1,55,0,0
66294,-90.9090909090909,4,1,1,65,0,1
66501,-90.9090909090909,4,1,1,20,0,1
66708,-90.9090909090909,4,1,1,65,0,1
67329,-90.9090909090909,4,1,1,20,0,1
67536,-90.9090909090909,4,1,1,65,0,1
69812,-90.9090909090909,4,1,1,20,0,1
70019,-90.9090909090909,4,1,1,65,0,1
73122,-90.9090909090909,4,1,1,20,0,1
73329,-90.9090909090909,4,1,1,65,0,1
79432,-90.9090909090909,4,1,1,65,0,0
79536,-90.9090909090909,4,1,1,65,0,1
82225,-90.9090909090909,4,1,1,20,0,1
82432,-90.9090909090909,4,1,1,65,0,1
83053,-90.9090909090909,4,1,1,20,0,1
83260,-90.9090909090909,4,1,1,65,0,1
87191,-90.9090909090909,4,1,1,20,0,1
87398,-90.9090909090909,4,1,1,65,0,1
89674,-90.9090909090909,4,1,1,20,0,1
89881,-90.9090909090909,4,1,1,65,0,1
90501,-90.9090909090909,4,1,1,20,0,1
90708,-90.9090909090909,4,1,1,65,0,1
90915,-90.9090909090909,4,1,1,20,0,1
91122,-90.9090909090909,4,1,1,65,0,1
92674,-90.9090909090909,4,1,1,65,0,0
92777,-90.9090909090909,4,1,1,65,0,1
95467,-90.9090909090909,4,1,1,20,0,1
95674,-90.9090909090909,4,1,1,65,0,1
96294,-90.9090909090909,4,1,1,20,0,1
96501,-90.9090909090909,4,1,1,65,0,1
98777,-90.9090909090909,4,1,1,20,0,1
98984,-90.9090909090909,4,1,1,65,0,1
103743,-90.9090909090909,4,1,1,20,0,1
103950,-90.9090909090909,4,1,1,65,0,1
104156,-90.9090909090909,4,1,1,20,0,1
104363,-90.9090909090909,4,1,1,65,0,1
106019,-100,4,1,1,55,0,0
108294,-100,4,1,1,20,0,0
108501,-100,4,1,1,55,0,0
108708,-100,4,1,1,20,0,0
108915,-100,4,1,1,55,0,0
110363,-100,4,1,1,20,0,0
110570,-100,4,1,1,55,0,0
113674,-100,4,1,1,20,0,0
113881,-100,4,1,1,55,0,0
119881,-100,4,1,1,20,0,0
120089,-100,4,1,1,55,0,0
120294,-100,4,1,1,20,0,0
120501,-100,4,1,1,55,0,0
121536,-100,4,1,1,20,0,0
121743,-100,4,1,1,55,0,0
121950,-100,4,1,1,20,0,0
122157,-100,4,1,1,55,0,0
123605,-100,4,1,1,20,0,0
123812,-100,4,1,1,55,0,0
126915,-100,4,1,1,20,0,0
127122,-100,4,1,1,55,0,0
132501,-90.9090909090909,4,1,1,65,0,1
132708,-90.9090909090909,4,1,1,20,0,1
132915,-90.9090909090909,4,1,1,65,0,1
133536,-90.9090909090909,4,1,1,20,0,1
133743,-90.9090909090909,4,1,1,65,0,1
136019,-90.9090909090909,4,1,1,20,0,1
136225,-90.9090909090909,4,1,1,65,0,1
139329,-90.9090909090909,4,1,1,20,0,1
139536,-90.9090909090909,4,1,1,65,0,1
145639,-90.9090909090909,4,1,1,65,0,0
145743,-90.9090909090909,4,1,1,65,0,1
148432,-90.9090909090909,4,1,1,20,0,1
148639,-90.9090909090909,4,1,1,65,0,1
149260,-90.9090909090909,4,1,1,20,0,1
149467,-90.9090909090909,4,1,1,65,0,1
153398,-90.9090909090909,4,1,1,20,0,1
153605,-90.9090909090909,4,1,1,65,0,1
156708,-90.9090909090909,4,1,1,20,0,1
156915,-90.9090909090909,4,1,1,65,0,1
157122,-90.9090909090909,4,1,1,20,0,1
157329,-90.9090909090909,4,1,1,65,0,1
158881,-90.9090909090909,4,1,1,65,0,0
158984,-90.9090909090909,4,1,1,65,0,1
161674,-90.9090909090909,4,1,1,20,0,1
161881,-90.9090909090909,4,1,1,65,0,1
162501,-90.9090909090909,4,1,1,20,0,1
162708,-90.9090909090909,4,1,1,65,0,1
164984,-90.9090909090909,4,1,1,20,0,1
165191,-90.9090909090909,4,1,1,65,0,1
169950,-90.9090909090909,4,1,1,20,0,1
170156,-90.9090909090909,4,1,1,65,0,1
170363,-90.9090909090909,4,1,1,20,0,1
170570,-90.9090909090909,4,1,1,65,0,1
172225,-100,4,1,1,55,0,0
179053,-100,4,1,1,20,0,0
179260,-100,4,1,1,55,0,0
179881,-100,4,1,1,20,0,0
180088,-100,4,1,1,55,0,0
180294,-100,4,1,1,20,0,0
180501,-100,4,1,1,55,0,0
182363,-100,4,1,1,20,0,0
182570,-100,4,1,1,55,0,0
183191,-100,4,1,1,20,0,0
183398,-100,4,1,1,55,0,0
183605,-100,4,1,1,20,0,0
183812,-100,4,1,1,55,0,0
192294,-100,4,1,1,20,0,0
192501,-100,4,1,1,55,0,0
193122,-100,4,1,1,20,0,0
193330,-100,4,1,1,55,0,0
195605,-100,4,1,1,20,0,0
195812,-100,4,1,1,55,0,0
196432,-100,4,1,1,20,0,0
196639,-100,4,1,1,55,0,0
196846,-100,4,1,1,20,0,0
197053,-100,4,1,1,55,0,0
198708,-111.111111111111,4,2,1,40,0,0
199329,-111.111111111111,4,2,1,20,0,0
199536,-111.111111111111,4,2,1,40,0,0
200984,-111.111111111111,4,2,1,20,0,0
201191,-111.111111111111,4,2,1,40,0,0
201812,-111.111111111111,4,2,1,20,0,0
202019,-111.111111111111,4,2,1,40,0,0
204708,-111.111111111111,4,2,1,20,0,0
204915,-111.111111111111,4,2,1,40,0,0
205122,-111.111111111111,4,2,1,20,0,0
205329,-111.111111111111,4,2,1,40,0,0
205536,-111.111111111111,4,2,1,20,0,0
205743,-111.111111111111,4,2,1,40,0,0
207191,-111.111111111111,4,2,1,20,0,0
207398,-111.111111111111,4,2,1,40,0,0
207605,-111.111111111111,4,2,1,20,0,0
207812,-111.111111111111,4,2,1,40,0,0
208019,-111.111111111111,4,2,1,20,0,0
208225,-111.111111111111,4,2,1,40,0,0
212156,-111.111111111111,4,2,1,20,0,0
212363,-111.111111111111,4,2,1,40,0,0
212570,-111.111111111111,4,2,1,20,0,0
212777,-111.111111111111,4,2,1,40,0,0
215881,-111.111111111111,4,2,1,20,0,0
216088,-111.111111111111,4,2,1,40,0,0
218363,-111.111111111111,4,2,1,20,0,0
218570,-111.111111111111,4,2,1,40,0,0
218777,-111.111111111111,4,2,1,20,0,0
218984,-111.111111111111,4,2,1,40,0,0
219191,-111.111111111111,4,2,1,20,0,0
219398,-111.111111111111,4,2,1,40,0,0
220432,-111.111111111111,4,2,1,20,0,0
220639,-111.111111111111,4,2,1,40,0,0
220846,-111.111111111111,4,2,1,20,0,0
221053,-111.111111111111,4,2,1,40,0,0
221260,-111.111111111111,4,2,1,20,0,0
221467,-111.111111111111,4,2,1,40,0,0

[Colours]
Combo1 : 95,95,95
Combo2 : 255,138,255
Combo3 : 140,255,255

[HitObjects]
144,116,88,6,0,P|116:193|158:264,1,170,6|8,0:0|0:0,0:0:0:0:
256,316,708,1,2,2:0:0:0:
336,240,915,2,0,P|377:231|419:238,1,85,0|0,0:0|2:0,0:0:0:0:
256,316,1329,2,0,P|223:239|256:163,1,170,10|0,0:0|0:0,0:0:0:0:
416,108,1950,5,2,2:0:0:0:
416,108,2156,2,0,P|456:95|497:106,1,85,8|0,0:0|2:0,0:0:0:0:
348,152,2570,2,0,P|335:111|346:70,1,85,0|0,0:0|2:0,0:0:0:0:
456,176,2984,2,0,P|468:216|457:257,1,85,10|0,0:0|2:0,0:0:0:0:
256,328,3398,6,0,B|168:296|168:360|90:330,1,170,2|8,0:0|0:0,0:0:0:0:
28,248,4019,1,2,2:0:0:0:
100,164,4225,2,0,L|100:80,1,85,0|0,0:0|2:0,0:0:0:0:
204,120,4639,2,0,P|278:156|352:120,1,170,10|0,0:0|0:0,0:0:0:0:
428,20,5260,5,2,2:0:0:0:
428,20,5467,2,0,L|428:104,1,85,8|0,0:0|2:0,0:0:0:0:
428,216,5881,2,0,P|468:227|509:218,1,85,2|0,0:0|2:0,0:0:0:0:
428,105,6294,2,0,P|387:93|346:102,1,85,10|0,0:0|2:0,0:0:0:0:
250,228,6708,6,0,B|208:252|208:252|160:208|95:238,1,170,2|8,0:0|0:0,0:0:0:0:
144,332,7329,1,2,2:0:0:0:
144,332,7536,2,0,L|248:332,1,85,0|0,0:0|2:0,0:0:0:0:
399,332,7950,2,0,L|229:332,1,170,10|0,0:0|0:0,0:0:0:0:
56,332,8570,5,2,2:0:0:0:
56,332,8777,2,0,P|43:291|54:250,1,85,8|0,0:0|2:0,0:0:0:0:
160,160,9191,2,0,P|172:200|161:241,1,85,0|0,0:0|2:0,0:0:0:0:
118,88,9605,2,0,P|158:75|199:86,1,85,10|0,0:0|2:0,0:0:0:0:
276,264,10019,6,0,P|346:269|319:203,1,170,2|8,0:0|0:0,0:0:0:0:
216,192,10639,1,2,2:0:0:0:
116,239,10846,2,0,P|75:251|34:242,1,85,0|0,0:0|2:0,0:0:0:0:
34,141,11260,2,0,P|75:132|116:144,1,85,10|0,0:0|2:0,0:0:0:0:
216,192,11674,6,0,P|207:233|219:273,1,85,0|0,0:0|2:0,0:0:0:0:
296,192,12088,2,0,P|304:150|292:110,1,85,8|0,0:0|2:0,0:0:0:0:
216,40,12501,2,0,L|128:40,1,85,0|0,0:0|2:0,0:0:0:0:
34,141,12915,5,2,0:0:0:0:
71,237,13122,1,0,2:0:0:0:
199,133,13329,1,4,0:0:0:0:
172,231,13536,1,0,0:0:0:0:
113,77,13743,1,8,0:0:0:0:
34,141,13950,1,8,0:0:0:0:
71,237,14156,2,0,P|73:317|2:357,2,170,2|8|0,0:0|0:0|0:0,0:0:0:0:
113,77,15191,5,10,0:0:0:0:
200,28,15398,1,8,0:0:0:0:
200,132,15605,1,0,0:0:0:0:
113,77,15812,2,0,L|24:76,1,85,0|0,0:0|2:0,0:0:0:0:
200,28,16225,1,10,0:0:0:0:
200,132,16432,1,8,0:0:0:0:
200,132,16536,1,8,0:0:0:0:
200,132,16639,6,0,L|289:131,1,85,8|0,0:0|2:0,0:0:0:0:
376,180,17053,1,8,0:0:0:0:
440,100,17260,1,10,0:0:0:0:
440,100,17467,2,0,P|480:172|451:249,1,170,0|10,0:0|0:0,0:0:0:0:
216,368,18294,5,0,0:0:0:0:
129,319,18501,1,10,0:0:0:0:
216,264,18708,2,0,L|304:248,1,85,8|0,0:0|2:0,0:0:0:0:
216,368,19122,1,0,0:0:0:0:
129,319,19329,6,0,L|41:335,1,85,2|8,0:0|0:0,0:0:0:0:
128,208,19743,1,8,0:0:0:0:
128,208,19846,1,8,0:0:0:0:
128,208,19950,1,10,0:0:0:0:
216,264,20156,2,0,L|304:248,1,85,0|8,0:0|0:0,0:0:0:0:
400,268,20570,1,10,0:0:0:0:
364,172,20777,2,0,P|352:131|361:90,1,85,0|0,0:0|2:0,0:0:0:0:
456,128,21191,1,8,0:0:0:0:
256,192,21398,5,0,0:0:0:0:
194,284,21605,1,0,0:0:0:0:
103,222,21812,1,10,0:0:0:0:
165,130,22019,1,8,0:0:0:0:
332,176,22225,5,2,0:0:0:0:
270,268,22432,1,0,0:0:0:0:
179,206,22639,1,0,0:0:0:0:
241,114,22846,1,8,0:0:0:0:
344,272,23053,5,8,0:0:0:0:
344,272,23156,1,8,0:0:0:0:
344,272,23260,2,0,P|384:284|425:273,2,85,10|0|8,0:0|0:0|0:0,0:0:0:0:
256,192,23881,1,10,0:0:0:0:
168,112,24088,2,0,P|127:99|86:110,1,85,0|0,0:0|2:0,0:0:0:0:
168,272,24501,2,0,P|127:284|86:273,2,85,10|0|0,0:0|0:0|0:0,0:0:0:0:
256,192,25122,1,10,0:0:0:0:
344,112,25329,2,0,P|384:99|425:110,2,85,8|0|0,0:0|0:0|0:0,0:0:0:0:
256,276,25950,5,0,0:0:0:0:
192,356,26156,1,8,0:0:0:0:
320,356,26363,1,8,0:0:0:0:
320,356,26467,1,8,0:0:0:0:
320,356,26570,5,14,0:0:0:0:
256,276,26776,1,0,0:0:0:0:
204,188,26984,1,8,0:0:0:0:
308,188,27191,1,8,0:0:0:0:
152,108,27398,2,0,P|111:180|141:257,2,170,2|8|0,0:0|0:0|0:0,0:0:0:0:
256,88,28432,1,10,0:0:0:0:
316,208,28639,6,0,B|388:208|388:208|379:198,1,85,8|0,0:0|2:0,0:0:0:0:
196,176,29053,2,0,B|124:176|124:176|132:185,1,85,0|0,0:0|2:0,0:0:0:0:
236,260,29467,1,10,0:0:0:0:
276,124,29674,1,8,0:0:0:0:
276,124,29777,1,8,0:0:0:0:
276,124,29881,6,0,L|308:44,1,85,8|0,0:0|0:0,0:0:0:0:
408,28,30294,1,8,0:0:0:0:
408,28,30501,1,10,0:0:0:0:
326,180,30708,2,0,B|274:216|226:180|226:180|148:180,1,170,0|10,0:0|0:0,0:0:0:0:
60,180,31329,1,0,0:0:0:0:
60,180,31536,5,0,0:0:0:0:
112,92,31743,1,10,0:0:0:0:
112,92,31950,2,0,P|120:50|112:8,1,85,10|0,0:0|2:0,0:0:0:0:
60,180,32363,2,0,P|51:221|59:263,1,85,0|0,0:0|2:0,0:0:0:0:
184,336,32777,5,10,0:0:0:0:
328,280,32984,1,8,0:0:0:0:
328,280,33088,1,8,0:0:0:0:
328,280,33191,1,10,0:0:0:0:
216,179,33398,2,0,P|212:221|229:260,1,85,0|8,0:0|0:0,0:0:0:0:
291,123,33812,1,10,0:0:0:0:
291,123,34019,2,0,P|219:83|144:116,1,170,0|10,0:0|0:0,0:0:0:0:
193,288,34639,5,0,0:0:0:0:
298,256,34846,1,0,0:0:0:0:
216,179,35053,1,10,0:0:0:0:
193,288,35260,1,8,0:0:0:0:
360,328,35467,5,2,0:0:0:0:
465,296,35674,1,0,0:0:0:0:
383,219,35881,1,0,0:0:0:0:
360,328,36088,1,8,0:0:0:0:
484,192,36294,5,8,0:0:0:0:
484,192,36398,1,8,0:0:0:0:
484,192,36501,2,0,B|492:60|492:60|468:89,1,170,10|8,0:0|0:0,0:0:0:0:
400,192,37122,1,2,0:0:0:0:
400,192,37329,2,0,P|359:204|318:195,1,85,0|0,0:0|2:0,0:0:0:0:
196,172,37743,2,0,P|154:163|114:175,1,85,8|0,0:0|2:0,0:0:0:0:
256,364,38156,5,8,0:0:0:0:
333,225,38363,1,10,0:0:0:0:
179,225,38570,1,8,0:0:0:0:
332,320,38777,1,8,0:0:0:0:
256,184,38984,1,8,0:0:0:0:
180,320,39191,1,8,0:0:0:0:
333,225,39398,1,8,0:0:0:0:
180,320,39605,1,8,0:0:0:0:
180,320,39708,1,8,0:0:0:0:
180,320,39812,5,12,0:0:0:0:
83,352,40019,1,0,0:0:0:0:
23,269,40225,1,8,0:0:0:0:
83,186,40432,1,8,0:0:0:0:
179,217,40639,2,0,P|220:228|262:219,1,85,0|0,0:0|2:0,0:0:0:0:
124,116,41053,2,0,P|83:105|41:114,1,85,8|0,0:0|2:0,0:0:0:0:
112,264,41467,5,0,0:0:0:0:
208,300,41674,1,8,0:0:0:0:
192,200,41881,1,8,0:0:0:0:
112,264,42088,1,0,0:0:0:0:
208,300,42294,2,0,P|249:292|290:300,1,85,8|0,0:0|2:0,0:0:0:0:
368,368,42708,1,8,0:0:0:0:
368,192,42915,1,8,0:0:0:0:
368,192,43019,1,8,0:0:0:0:
368,192,43122,5,8,0:0:0:0:
262,66,43329,1,0,0:0:0:0:
423,106,43536,1,8,0:0:0:0:
270,168,43743,1,8,0:0:0:0:
356,27,43950,2,0,P|393:8|435:3,1,85
336,108,44363,5,8,0:0:0:0:
336,108,44570,1,0,0:0:0:0:
304,204,44777,1,0,0:0:0:0:
236,128,44984,1,8,0:0:0:0:
336,108,45191,1,8,0:0:0:0:
216,231,45398,6,0,P|174:239|132:233,1,85
295,232,45812,2,0,P|336:224|378:230,1,85,0|8,0:0|0:0,0:0:0:0:
256,308,46225,1,8,0:0:0:0:
256,308,46329,1,8,0:0:0:0:
256,308,46432,5,8,0:0:0:0:
217,152,46639,1,0,0:0:0:0:
295,232,46846,1,8,0:0:0:0:
256,76,47053,1,8,0:0:0:0:
216,231,47260,2,0,P|174:239|132:233,1,85
4,128,47674,5,8,0:0:0:0:
4,128,47881,1,0,0:0:0:0:
48,36,48088,1,0,0:0:0:0:
104,120,48294,1,8,0:0:0:0:
68,216,48501,2,0,P|150:212|203:149,1,170,8|8,0:0|0:0,0:0:0:0:
256,24,49122,5,0,0:0:0:0:
352,56,49329,1,8,0:0:0:0:
276,124,49536,1,8,0:0:0:0:
276,124,49639,1,8,0:0:0:0:
276,124,49743,2,0,L|276:294,1,170,8|8,0:0|0:0,0:0:0:0:
351,231,50363,1,8,0:0:0:0:
351,231,50570,2,0,P|276:195|200:232,1,170,0|8,0:0|0:0,0:0:0:0:
276,294,51191,5,0,0:0:0:0:
351,231,51398,1,0,0:0:0:0:
276,160,51605,1,8,0:0:0:0:
352,92,51812,2,0,B|420:120|488:88|488:88|477:115,2,170,8|8|8,0:0|0:0|0:0,0:0:0:0:
192,80,52846,5,8,0:0:0:0:
192,80,52950,1,8,0:0:0:0:
192,80,53053,2,0,L|108:80,1,85,12|0,0:0|2:0,0:0:0:0:
24,20,53467,1,8,0:0:0:0:
68,152,53674,1,8,0:0:0:0:
151,212,53882,2,0,L|236:212,1,85,0|0,0:0|2:0,0:0:0:0:
324,164,54294,1,8,0:0:0:0:
324,264,54501,1,0,0:0:0:0:
188,120,54708,5,0,0:0:0:0:
330,93,54915,1,8,0:0:0:0:
274,178,55122,1,8,0:0:0:0:
188,120,55329,1,0,0:0:0:0:
330,93,55536,2,0,L|428:80,1,85,0|0,0:0|2:0,0:0:0:0:
245,36,55950,1,8,0:0:0:0:
274,178,56156,1,8,0:0:0:0:
274,178,56260,1,8,0:0:0:0:
274,178,56363,5,8,0:0:0:0:
144,220,56570,1,0,0:0:0:0:
272,264,56777,1,8,0:0:0:0:
142,306,56984,1,8,0:0:0:0:
200,164,57191,2,0,L|200:76,1,85,0|0,0:0|2:0,0:0:0:0:
368,32,57605,5,8,0:0:0:0:
452,88,57812,1,0,0:0:0:0:
360,132,58019,1,0,0:0:0:0:
368,32,58225,1,8,0:0:0:0:
452,88,58432,1,8,0:0:0:0:
284,78,58639,6,0,P|243:72|202:82,1,85
232,224,59053,2,0,P|273:230|314:220,1,85,0|8,0:0|0:0,0:0:0:0:
444,178,59467,1,8,0:0:0:0:
444,178,59571,1,8,0:0:0:0:
444,178,59674,5,8,0:0:0:0:
312,306,59881,1,0,0:0:0:0:
442,264,60088,1,8,0:0:0:0:
314,220,60295,1,8,0:0:0:0:
395,339,60502,2,0,P|436:352|477:345,1,85,0|0,0:0|2:0,0:0:0:0:
444,178,60915,5,8,0:0:0:0:
376,104,61122,1,0,0:0:0:0:
344,200,61329,1,0,0:0:0:0:
444,178,61536,1,8,0:0:0:0:
376,104,61743,2,0,P|293:109|245:176,1,170,8|0,0:0|0:0,0:0:0:0:
192,360,62363,5,0,0:0:0:0:
320,328,62570,1,8,0:0:0:0:
256,232,62777,1,8,0:0:0:0:
256,232,62881,1,8,0:0:0:0:
256,232,62984,2,0,P|228:160|272:80,1,170,8|8,0:0|0:0,0:0:0:0:
328,164,63605,1,8,0:0:0:0:
256,232,63812,2,0,P|184:260|104:216,1,170,0|8,0:0|0:0,0:0:0:0:
64,60,64432,5,0,0:0:0:0:
144,124,64639,1,0,0:0:0:0:
106,219,64846,1,8,0:0:0:0:
32,288,65053,2,0,P|8:192|52:132,1,170,8|0,0:0|0:0,0:0:0:0:
265,177,65674,5,0,0:0:0:0:
201,257,65881,1,8,0:0:0:0:
106,219,66088,1,8,0:0:0:0:
106,219,66191,1,8,0:0:0:0:
106,219,66294,6,0,P|91:174|102:130,1,93.5000028533936,14|0,0:0|2:0,0:0:0:0:
260,168,66708,2,0,P|215:182|171:171,1,93.5000028533936,8|8,0:0|0:0,0:0:0:0:
208,16,67122,2,0,P|222:60|211:104,1,93.5000028533936,2|0,0:0|2:0,0:0:0:0:
106,219,67536,1,8,0:0:0:0:
210,104,67743,6,0,B|308:68|308:136|392:104,1,187.000005706787,2|0,0:0|0:0,0:0:0:0:
484,168,68363,1,8,0:0:0:0:
484,168,68570,2,0,L|484:264,1,93.5000028533936,8|0,0:0|0:0,0:0:0:0:
360,364,68984,5,0,0:0:0:0:
268,300,69191,1,8,0:0:0:0:
156,296,69398,1,8,0:0:0:0:
156,296,69501,1,8,0:0:0:0:
156,296,69605,6,0,P|152:249|171:208,1,93.5000028533936,10|0,0:0|2:0,0:0:0:0:
340,208,70019,2,0,P|359:249|356:296,1,93.5000028533936,8|8,0:0|0:0,0:0:0:0:
256,372,70432,1,0,0:0:0:0:
256,372,70639,2,0,L|256:276,1,93.5000028533936,0|8,0:0|0:0,0:0:0:0:
256,96,71053,6,0,B|224:184|288:184|256:278,1,187.000005706787,2|0,0:0|0:0,0:0:0:0:
160,336,71674,1,8,0:0:0:0:
160,336,71881,2,0,L|66:343,1,93.5000028533936,8|0,0:0|0:0,0:0:0:0:
188,232,72294,5,0,0:0:0:0:
256,320,72501,1,8,0:0:0:0:
324,232,72708,1,8,0:0:0:0:
324,232,72812,1,8,0:0:0:0:
324,232,72915,6,0,P|336:187|324:142,1,93.5000028533936,10|0,0:0|0:0,0:0:0:0:
187,142,73329,2,0,P|175:187|188:232,1,93.5000028533936,8|8,0:0|0:0,0:0:0:0:
256,320,73743,1,0,0:0:0:0:
324,232,73950,2,0,P|368:219|413:230,1,93.5000028533936,0|8,0:0|0:0,0:0:0:0:
483,374,74363,6,0,P|411:320|412:230,1,187.000005706787,2|0,0:0|0:0,0:0:0:0:
504,276,74984,1,8,0:0:0:0:
352,368,75191,2,0,L|252:368,1,93.5000028533936,8|0,0:0|0:0,0:0:0:0:
112,368,75605,5,0,0:0:0:0:
208,312,75812,1,8,0:0:0:0:
96,296,76019,1,8,0:0:0:0:
96,296,76122,1,8,0:0:0:0:
96,296,76225,5,10,0:0:0:0:
191,236,76432,2,0,P|237:240|272:270,1,93.5000028533936,0|8,0:0|0:0,0:0:0:0:
112,368,76846,2,0,P|66:363|31:333,1,93.5000028533936,8|0,0:0|0:0,0:0:0:0:
24,172,77260,5,0,0:0:0:0:
68,68,77467,1,8,0:0:0:0:
144,152,77674,2,0,L|240:152,1,93.5000028533936,2|0,0:0|0:0,0:0:0:0:
393,183,78088,5,8,0:0:0:0:
300,246,78294,1,8,0:0:0:0:
237,152,78501,1,8,0:0:0:0:
330,90,78708,1,8,0:0:0:0:
300,246,78915,5,8,0:0:0:0:
187,253,79122,1,8,0:0:0:0:
237,152,79329,1,8,0:0:0:0:
237,152,79432,1,8,0:0:0:0:
237,152,79536,5,14,0:0:0:0:
412,102,79743,1,0,0:0:0:0:
300,246,79950,1,10,0:0:0:0:
306,64,80156,1,8,0:0:0:0:
408,214,80363,2,0,B|440:268|424:328|424:328|444:304|484:296,2,187.000005706787,2|10|2,0:0|0:0|0:0,0:0:0:0:
237,152,81398,5,8,0:0:0:0:
200,256,81605,1,10,0:0:0:0:
312,236,81812,1,8,0:0:0:0:
160,188,82019,2,0,B|80:188|80:188|91:177,1,93.5000028533936,2|0,0:0|2:0,0:0:0:0:
260,120,82432,1,10,0:0:0:0:
312,236,82639,1,8,0:0:0:0:
312,236,82743,1,8,0:0:0:0:
312,236,82846,6,0,B|312:316|312:316|301:304,1,93.5000028533936,10|0,0:0|2:0,0:0:0:0:
216,228,83260,1,10,0:0:0:0:
296,156,83467,1,8,0:0:0:0:
296,156,83674,2,0,P|377:188|380:277,1,187.000005706787,2|10,0:0|0:0,0:0:0:0:
136,360,84501,5,2,0:0:0:0:
40,304,84708,1,0,0:0:0:0:
144,260,84915,1,10,0:0:0:0:
38,214,85122,2,0,P|27:259|40:304,1,93.5000028533936,8|2,0:0|0:0,0:0:0:0:
144,260,85536,6,0,P|154:214|142:170,1,93.5000028533936,0|10,0:0|0:0,0:0:0:0:
48,104,85950,1,8,0:0:0:0:
48,104,86053,1,8,0:0:0:0:
48,104,86157,1,10,0:0:0:0:
142,170,86363,2,0,L|238:170,1,93.5000028533936,0|10,0:0|0:0,0:0:0:0:
332,228,86777,1,8,0:0:0:0:
235,170,86984,2,0,P|222:125|232:79,1,93.5000028533936,2|0,0:0|2:0,0:0:0:0:
316,8,87398,1,10,0:0:0:0:
396,108,87605,5,0,0:0:0:0:
336,204,87812,1,2,0:0:0:0:
396,108,88019,1,0,0:0:0:0:
280,148,88226,1,10,0:0:0:0:
396,108,88432,5,8,0:0:0:0:
268,72,88639,1,2,0:0:0:0:
396,108,88846,1,0,0:0:0:0:
304,0,89053,1,10,0:0:0:0:
396,108,89260,5,8,0:0:0:0:
396,108,89363,1,8,0:0:0:0:
396,108,89467,2,0,L|396:208,1,93.5000028533936,10|0,0:0|1:0,0:0:0:0:
396,316,89881,1,10,0:0:0:0:
396,316,90088,1,8,0:0:0:0:
304,252,90294,2,0,P|259:239|214:251,1,93.5000028533936,2|0,0:0|2:0,0:0:0:0:
112,300,90708,2,0,L|112:200,1,93.5000028533936,10|0,0:0|2:0,0:0:0:0:
72,72,91122,6,0,P|116:84|160:70,1,93.5000028533936,2|8,0:0|0:0,0:0:0:0:
256,12,91536,1,10,0:0:0:0:
260,124,91743,1,8,0:0:0:0:
160,69,91950,1,2,0:0:0:0:
308,68,92156,5,0,0:0:0:0:
404,125,92363,1,10,0:0:0:0:
304,180,92570,1,8,0:0:0:0:
304,180,92674,1,8,0:0:0:0:
304,180,92777,5,14,0:0:0:0:
212,116,92983,1,0,0:0:0:0:
256,12,93191,1,10,0:0:0:0:
348,76,93398,1,8,0:0:0:0:
212,116,93605,2,0,B|152:148|88:108|88:108|68:172,2,187.000005706787,2|10|2,0:0|0:0|0:0,0:0:0:0:
348,76,94639,1,0,0:0:0:0:
319,200,94846,6,0,P|310:245|325:288,1,93.5000028533936,10|8,0:0|0:0,0:0:0:0:
185,288,95260,2,0,P|200:245|192:200,1,93.5000028533936,2|0,0:0|2:0,0:0:0:0:
256,108,95674,1,8,0:0:0:0:
319,200,95881,1,8,0:0:0:0:
319,200,95984,1,8,0:0:0:0:
319,200,96088,6,0,P|363:212|408:199,1,93.5000028533936,10|0,0:0|0:0,0:0:0:0:
484,120,96501,1,10,0:0:0:0:
484,232,96708,1,8,0:0:0:0:
484,232,96915,2,0,B|480:356|480:356|448:300,1,187.000005706787,2|10,0:0|0:0,0:0:0:0:
304,104,97743,5,2,0:0:0:0:
256,196,97950,1,0,0:0:0:0:
208,104,98156,2,0,B|168:88|128:108|128:108|152:120,1,93.5000028533936,10|8,0:0|0:0,0:0:0:0:
256,196,98570,2,0,B|296:212|336:192|336:192|312:180,1,93.5000028533936,2|0,0:0|2:0,0:0:0:0:
137,112,98984,5,10,0:0:0:0:
88,212,99191,1,8,0:0:0:0:
88,212,99295,1,8,0:0:0:0:
88,212,99398,1,10,0:0:0:0:
208,104,99605,2,0,P|187:62|147:40,1,93.5000028533936,0|10,0:0|0:0,0:0:0:0:
180,180,100019,1,8,0:0:0:0:
180,180,100225,2,0,P|266:161|281:75,1,187.000005706787,2|10,0:0|0:0,0:0:0:0:
126,27,100846,5,0,0:0:0:0:
103,136,101053,1,2,0:0:0:0:
208,104,101260,1,0,0:0:0:0:
126,27,101467,1,10,0:0:0:0:
24,136,101674,5,8,0:0:0:0:
1,245,101881,1,2,0:0:0:0:
106,213,102088,1,0,0:0:0:0:
24,136,102295,1,10,0:0:0:0:
76,288,102501,5,8,0:0:0:0:
76,288,102605,1,8,0:0:0:0:
76,288,102708,2,0,P|162:273|181:186,1,187.000005706787,10|10,0:0|0:0,0:0:0:0:
48,140,103329,1,8,0:0:0:0:
48,140,103536,2,0,L|106:213,1,93.5000028533936,2|0,0:0|2:0,0:0:0:0:
100,76,103950,2,0,P|58:56|12:63,1,93.5000028533936,10|0,0:0|2:0,0:0:0:0:
36,228,104363,5,10,0:0:0:0:
112,364,104570,1,8,0:0:0:0:
188,228,104777,1,10,0:0:0:0:
35,323,104984,1,8,0:0:0:0:
189,323,105191,1,10,0:0:0:0:
112,184,105398,1,8,0:0:0:0:
112,364,105605,1,10,0:0:0:0:
112,184,105812,1,8,0:0:0:0:
112,184,105915,1,8,0:0:0:0:
112,184,106019,5,14,0:0:0:0:
212,160,106225,1,0,0:0:0:0:
188,260,106432,1,8,0:0:0:0:
288,236,106638,1,8,0:0:0:0:
212,160,106846,2,0,L|204:72,1,85
112,184,107260,1,8,0:0:0:0:
188,260,107467,1,0,0:0:0:0:
293,149,107674,6,0,P|251:144|211:160,1,85,0|8,0:0|0:0,0:0:0:0:
138,325,108088,2,0,P|171:298|188:260,1,85,8|0,0:0|2:0,0:0:0:0:
101,102,108501,2,0,P|96:143|111:183,1,85,0|0,0:0|2:0,0:0:0:0:
188,260,108915,1,8,0:0:0:0:
341,198,109122,1,8,0:0:0:0:
341,198,109226,1,8,0:0:0:0:
341,198,109329,5,8,0:0:0:0:
180,158,109536,1,0,0:0:0:0:
286,284,109743,1,8,0:0:0:0:
274,119,109950,1,8,0:0:0:0:
188,260,110156,2,0,P|147:272|106:261,1,85,0|0,0:0|2:0,0:0:0:0:
256,204,110570,5,8,0:0:0:0:
256,204,110777,1,0,0:0:0:0:
332,136,110984,1,0,0:0:0:0:
304,40,111191,1,0,0:0:0:0:
256,204,111398,5,8,0:0:0:0:
256,204,111605,2,0,L|256:288,1,85
200,376,112019,1,0,0:0:0:0:
312,376,112225,1,8,0:0:0:0:
256,289,112432,1,8,0:0:0:0:
256,289,112536,1,8,0:0:0:0:
256,289,112639,5,8,0:0:0:0:
400,240,112846,1,0,0:0:0:0:
312,344,113053,1,8,0:0:0:0:
272,212,113260,1,8,0:0:0:0:
456,188,113467,2,0,P|474:225|472:267,1,85,0|0,0:0|2:0,0:0:0:0:
312,344,113881,5,8,0:0:0:0:
312,344,114088,1,0,0:0:0:0:
212,372,114295,1,0,0:0:0:0:
128,312,114501,1,8,0:0:0:0:
136,211,114708,2,0,P|159:131|134:51,1,170,8|0,0:0|0:0,0:0:0:0:
38,12,115329,5,0,0:0:0:0:
53,113,115536,1,8,0:0:0:0:
133,50,115743,1,8,0:0:0:0:
133,50,115846,1,8,0:0:0:0:
133,50,115950,2,0,P|212:24|288:56,1,170,8|8,0:0|0:0,0:0:0:0:
256,192,116570,1,8,0:0:0:0:
256,192,116777,2,0,P|176:217|100:185,1,170,0|8,0:0|0:0,0:0:0:0:
28,88,117398,5,0,0:0:0:0:
32,208,117605,1,0,0:0:0:0:
100,112,117812,1,8,0:0:0:0:
32,208,118019,2,0,B|8:256|32:316|32:316|80:280,2,170,8|0|8,0:0|0:0|0:0,0:0:0:0:
84,36,119053,5,8,0:0:0:0:
84,36,119157,1,8,0:0:0:0:
84,36,119260,1,12,0:0:0:0:
140,120,119467,1,0,0:0:0:0:
224,60,119674,2,0,L|328:60,1,85,8|0,0:0|2:0,0:0:0:0:
408,144,120088,2,0,P|399:185|416:228,1,85,0|0,0:0|2:0,0:0:0:0:
464,312,120501,1,8,0:0:0:0:
364,308,120708,1,0,0:0:0:0:
300,228,120915,5,0,0:0:0:0:
256,320,121122,1,8,0:0:0:0:
211,227,121329,2,0,P|170:219|128:227,1,85,8|0,0:0|2:0,0:0:0:0:
300,228,121743,2,0,P|341:236|383:228,1,85,0|0,0:0|2:0,0:0:0:0:
468,172,122157,1,8,0:0:0:0:
396,56,122363,1,8,0:0:0:0:
396,56,122467,1,8,0:0:0:0:
396,56,122570,5,8,0:0:0:0:
268,120,122777,1,0,0:0:0:0:
268,264,122984,1,8,0:0:0:0:
396,328,123191,1,8,0:0:0:0:
448,192,123398,2,0,P|404:184|360:192,1,85,0|0,0:0|2:0,0:0:0:0:
180,319,123812,5,8,0:0:0:0:
174,217,124019,1,0,0:0:0:0:
268,264,124226,1,0,0:0:0:0:
180,319,124432,1,8,0:0:0:0:
256,152,124639,5,8,0:0:0:0:
256,152,124846,2,0,L|344:112,1,85
256,232,125260,2,0,L|168:272,1,85,0|8,0:0|0:0,0:0:0:0:
28,332,125674,1,8,0:0:0:0:
28,332,125778,1,8,0:0:0:0:
28,332,125881,5,8,0:0:0:0:
178,267,126088,1,0,0:0:0:0:
28,204,126294,1,8,0:0:0:0:
178,139,126501,1,8,0:0:0:0:
80,12,126708,2,0,P|68:48|80:100,1,85,0|0,0:0|2:0,0:0:0:0:
178,139,127122,5,8,0:0:0:0:
262,196,127329,1,0,0:0:0:0:
271,94,127536,1,0,0:0:0:0:
178,139,127743,1,8,0:0:0:0:
340,143,127950,2,0,P|356:86|283:10,1,170,8|0,0:0|0:0,0:0:0:0:
178,139,128570,5,0,0:0:0:0:
262,196,128777,1,8,0:0:0:0:
271,94,128984,1,8,0:0:0:0:
271,94,129088,1,8,0:0:0:0:
271,94,129191,2,0,P|341:61|419:111,1,170,8|8,0:0|0:0,0:0:0:0:
329,287,129812,1,8,0:0:0:0:
329,287,130019,2,0,P|296:217|346:139,1,170,0|8,0:0|0:0,0:0:0:0:
414,319,130639,5,0,0:0:0:0:
331,368,130845,1,0,0:0:0:0:
252,312,131052,1,8,0:0:0:0:
271,218,131260,2,0,P|298:139|262:65,1,170,8|0,0:0|0:0,0:0:0:0:
72,66,131881,5,0,0:0:0:0:
115,155,132088,1,8,0:0:0:0:
173,71,132294,1,8,0:0:0:0:
173,71,132398,1,8,0:0:0:0:
173,71,132501,6,0,P|217:57|262:65,1,93.5000028533936,14|0,0:0|2:0,0:0:0:0:
382,110,132915,2,0,P|373:64|387:20,1,93.5000028533936,8|8,0:0|0:0,0:0:0:0:
487,110,133329,2,0,P|495:155|481:199,1,93.5000028533936,0|0,0:0|2:0,0:0:0:0:
360,233,133743,1,8,0:0:0:0:
201,225,133950,6,0,P|282:187|360:233,1,187.000005706787,2|0,0:0|0:0,0:0:0:0:
275,371,134570,1,8,0:0:0:0:
275,371,134777,2,0,P|263:326|279:283,1,93.5000028533936,8|0,0:0|0:0,0:0:0:0:
436,236,135191,5,0,0:0:0:0:
368,324,135398,1,8,0:0:0:0:
352,212,135605,1,8,0:0:0:0:
352,212,135708,1,8,0:0:0:0:
352,212,135812,6,0,P|340:167|349:121,1,93.5000028533936,10|0,0:0|2:0,0:0:0:0:
162,121,136225,2,0,P|171:167|160:212,1,93.5000028533936,8|8,0:0|0:0,0:0:0:0:
256,336,136639,1,0,0:0:0:0:
256,336,136846,2,0,L|256:240,1,93.5000028533936,0|8,0:0|0:0,0:0:0:0:
256,56,137260,6,0,P|332:65|285:126,1,187.000005706787,2|0,0:0|0:0,0:0:0:0:
162,121,137881,1,8,0:0:0:0:
162,121,138088,2,0,B|80:120|80:120|85:129,1,93.5000028533936,8|0,0:0|0:0,0:0:0:0:
188,232,138501,5,0,0:0:0:0:
256,320,138708,1,8,0:0:0:0:
324,232,138915,1,8,0:0:0:0:
324,232,139019,1,8,0:0:0:0:
324,232,139122,6,0,L|324:132,1,93.5000028533936,10|0,0:0|2:0,0:0:0:0:
244,28,139536,2,0,P|200:43|156:31,1,93.5000028533936,8|8,0:0|0:0,0:0:0:0:
40,100,139950,1,0,0:0:0:0:
40,100,140156,2,0,L|40:193,1,93.5000028533936,0|8,0:0|0:0,0:0:0:0:
40,348,140570,6,0,P|94:276|184:277,1,187.000005706787,2|0,0:0|0:0,0:0:0:0:
138,369,141191,1,8,0:0:0:0:
112,192,141398,2,0,P|100:147|113:103,1,93.5000028533936,8|0,0:0|0:0,0:0:0:0:
256,8,141812,5,0,0:0:0:0:
324,100,142019,1,8,0:0:0:0:
212,112,142226,1,8,0:0:0:0:
212,112,142329,1,8,0:0:0:0:
212,112,142432,5,10,0:0:0:0:
347,27,142639,2,0,P|385:54|400:98,1,93.5000028533936,0|8,0:0|0:0,0:0:0:0:
264,182,143053,2,0,P|226:155|211:111,1,93.5000028533936,8|0,0:0|0:0,0:0:0:0:
347,27,143467,5,0,0:0:0:0:
451,71,143674,1,8,0:0:0:0:
367,146,143881,2,0,P|351:190|366:233,1,93.5000028533936,2|0,0:0|0:0,0:0:0:0:
500,317,144294,5,8,0:0:0:0:
474,207,144501,1,8,0:0:0:0:
365,232,144708,1,8,0:0:0:0:
390,342,144915,1,8,0:0:0:0:
474,207,145122,5,8,0:0:0:0:
396,124,145329,1,8,0:0:0:0:
365,232,145536,1,8,0:0:0:0:
365,232,145639,1,8,0:0:0:0:
365,232,145743,5,14,0:0:0:0:
474,207,145950,1,0,0:0:0:0:
328,164,146157,1,10,0:0:0:0:
476,120,146363,1,8,0:0:0:0:
432,276,146570,2,0,B|464:320|456:376|456:376|476:344|540:360,2,187.000005706787,2|10|2,0:0|0:0|0:0,0:0:0:0:
256,192,147605,5,0,0:0:0:0:
256,304,147812,1,10,0:0:0:0:
328,220,148019,1,8,0:0:0:0:
184,219,148225,2,0,P|139:232|93:222,1,93.5000028533936,2|0,0:0|2:0,0:0:0:0:
20,140,148639,1,10,0:0:0:0:
92,56,148846,1,8,0:0:0:0:
92,56,148950,1,8,0:0:0:0:
92,56,149053,6,0,P|136:43|182:53,1,93.5000028533936,2|0,0:0|2:0,0:0:0:0:
256,140,149467,1,10,0:0:0:0:
300,36,149674,1,8,0:0:0:0:
326,186,149881,2,0,P|245:223|176:168,1,187.000005706787,2|10,0:0|0:0,0:0:0:0:
496,16,150708,5,2,0:0:0:0:
412,92,150915,1,0,0:0:0:0:
496,164,151122,1,10,0:0:0:0:
412,240,151329,2,0,P|401:285|414:330,1,93.5000028533936,8|2,0:0|0:0,0:0:0:0:
256,360,151743,6,0,L|160:360,1,93.5000028533936,0|10,0:0|0:0,0:0:0:0:
48,360,152157,1,8,0:0:0:0:
48,360,152260,1,8,0:0:0:0:
48,360,152364,1,10,0:0:0:0:
107,268,152570,2,0,P|119:223|106:179,1,93.5000028533936,0|10,0:0|0:0,0:0:0:0:
24,100,152984,1,8,0:0:0:0:
106,179,153191,2,0,L|204:180,1,93.5000028533936,2|0,0:0|2:0,0:0:0:0:
312,180,153605,1,10,0:0:0:0:
419,122,153812,5,0,0:0:0:0:
362,15,154019,1,2,0:0:0:0:
254,72,154225,1,8,0:0:0:0:
312,180,154432,1,10,0:0:0:0:
362,15,154639,5,8,0:0:0:0:
312,180,154846,1,2,0:0:0:0:
254,72,155053,1,0,0:0:0:0:
419,122,155260,1,10,0:0:0:0:
296,256,155467,5,8,0:0:0:0:
296,256,155570,1,8,0:0:0:0:
296,256,155674,2,0,P|248:268|200:256,1,93.5000028533936,10|0,0:0|0:0,0:0:0:0:
136,168,156088,1,10,0:0:0:0:
92,272,156295,1,8,0:0:0:0:
46,169,156502,2,0,P|91:156|136:168,1,93.5000028533936,2|0,0:0|2:0,0:0:0:0:
181,270,156915,2,0,P|136:283|91:271,1,93.5000028533936,10|0,0:0|2:0,0:0:0:0:
256,192,157329,6,0,P|301:179|346:191,1,93.5000028533936,2|8,0:0|0:0,0:0:0:0:
396,292,157743,1,10,0:0:0:0:
456,196,157950,1,8,0:0:0:0:
345,190,158157,1,2,0:0:0:0:
474,269,158363,5,0,0:0:0:0:
329,261,158570,1,10,0:0:0:0:
408,136,158777,1,8,0:0:0:0:
408,136,158881,1,8,0:0:0:0:
408,136,158984,5,14,0:0:0:0:
400,248,159191,1,0,0:0:0:0:
308,184,159398,1,10,0:0:0:0:
408,136,159605,1,8,0:0:0:0:
492,212,159812,2,0,P|496:280|408:348,2,187.000005706787,2|10|2,0:0|0:0|0:0,0:0:0:0:
408,136,160846,1,0,0:0:0:0:
316,248,161053,6,0,B|288:264|288:264|224:264,1,93.5000028533936,10|10,0:0|0:0,0:0:0:0:
196,136,161467,2,0,B|224:120|224:120|288:120,1,93.5000028533936,2|0,0:0|2:0,0:0:0:0:
388,164,161881,1,10,0:0:0:0:
316,248,162088,1,8,0:0:0:0:
316,248,162191,1,8,0:0:0:0:
316,248,162294,6,0,P|304:292|317:337,1,93.5000028533936,2|0,0:0|0:0,0:0:0:0:
420,292,162708,1,10,0:0:0:0:
404,180,162915,1,8,0:0:0:0:
404,180,163122,2,0,B|368:124|376:52|408:24|452:32|452:68|408:76,1,187.000005706787,2|10,0:0|0:0,0:0:0:0:
188,192,163950,5,2,0:0:0:0:
256,280,164157,1,0,0:0:0:0:
323,192,164363,2,0,P|336:147|326:101,1,93.5000028533936,10|8,0:0|0:0,0:0:0:0:
185,101,164777,2,0,P|175:147|188:192,1,93.5000028533936,2|0,0:0|2:0,0:0:0:0:
256,280,165191,5,10,0:0:0:0:
323,192,165398,1,8,0:0:0:0:
323,192,165502,1,8,0:0:0:0:
323,192,165605,1,10,0:0:0:0:
184,250,165812,2,0,P|178:295|201:335,1,93.5000028533936,0|10,0:0|0:0,0:0:0:0:
312,336,166225,1,8,0:0:0:0:
256,192,166432,2,0,P|174:155|99:204,1,187.000005706787,2|10,0:0|0:0,0:0:0:0:
161,359,167053,5,0,0:0:0:0:
266,327,167260,1,2,0:0:0:0:
184,250,167467,1,8,0:0:0:0:
161,359,167674,1,10,0:0:0:0:
348,248,167881,5,8,0:0:0:0:
266,171,168088,1,2,0:0:0:0:
184,250,168294,1,0,0:0:0:0:
266,327,168501,1,10,0:0:0:0:
266,171,168708,5,8,0:0:0:0:
266,171,168812,1,8,0:0:0:0:
266,171,168915,2,0,P|324:128|424:164,1,187.000005706787,10|10,0:0|0:0,0:0:0:0:
350,312,169536,1,8,0:0:0:0:
350,312,169743,2,0,P|335:268|347:223,1,93.5000028533936,2|0,0:0|2:0,0:0:0:0:
421,75,170156,2,0,P|435:118|423:163,1,93.5000028533936,10|0,0:0|2:0,0:0:0:0:
256,304,170570,5,8,0:0:0:0:
201,137,170777,1,8,0:0:0:0:
364,192,170984,1,10,0:0:0:0:
200,244,171191,1,8,0:0:0:0:
256,80,171398,1,10,0:0:0:0:
312,244,171605,1,8,0:0:0:0:
148,192,171812,1,10,0:0:0:0:
311,137,172019,1,8,0:0:0:0:
311,137,172122,1,8,0:0:0:0:
311,137,172225,6,0,P|372:116|440:192,1,170,14|10,0:0|0:0,0:0:0:0:
412,284,172846,1,8,0:0:0:0:
364,192,173053,2,0,L|412:8,1,170,2|10,0:0|0:0,0:0:0:0:
256,88,173674,5,0,0:0:0:0:
164,132,173881,2,0,P|152:91|161:50,2,85,2|0|10,0:0|0:0|0:0,0:0:0:0:
248,188,174501,1,8,0:0:0:0:
256,88,174708,1,2,0:0:0:0:
184,248,174915,6,0,L|184:352,1,85,0|10,0:0|0:0,0:0:0:0:
248,188,175329,1,8,0:0:0:0:
248,188,175432,1,8,0:0:0:0:
248,188,175536,2,0,P|171:160|105:209,1,170,10|10,0:0|0:0,0:0:0:0:
104,312,176156,1,8,0:0:0:0:
184,248,176363,6,0,L|156:68,1,170,2|10,0:0|0:0,0:0:0:0:
256,52,176984,1,0,0:0:0:0:
323,127,177191,2,0,P|364:140|405:129,1,85,2|8,0:0|0:0,0:0:0:0:
484,64,177605,1,10,0:0:0:0:
484,212,177812,6,0,L|484:297,1,85,8|2,0:0|0:0,0:0:0:0:
404,360,178225,1,0,0:0:0:0:
304,352,178432,1,10,0:0:0:0:
256,260,178639,1,8,0:0:0:0:
256,260,178743,1,8,0:0:0:0:
256,260,178846,6,0,L|256:168,1,85,10|0,0:0|2:0,0:0:0:0:
204,48,179260,2,0,B|132:52|132:52|148:72,1,85,10|8,0:0|0:0,0:0:0:0:
308,48,179674,2,0,B|380:44|380:44|364:24,1,85,2|0,0:0|2:0,0:0:0:0:
204,47,180088,6,0,P|192:88|204:128,1,85,10|0,0:0|2:0,0:0:0:0:
307,128,180501,2,0,P|319:88|307:47,2,85,2|8|10,0:0|0:0|0:0,0:0:0:0:
208,228,181122,6,0,L|124:240,1,85,8|2,0:0|0:0,0:0:0:0:
24,264,181536,1,0,0:0:0:0:
96,336,181743,1,10,0:0:0:0:
60,192,181950,1,8,0:0:0:0:
60,192,182053,1,8,0:0:0:0:
60,192,182156,6,0,P|47:151|60:111,1,85,10|0,0:0|2:0,0:0:0:0:
188,44,182570,2,0,P|200:84|187:124,1,85,10|8,0:0|0:0,0:0:0:0:
324,124,182984,2,0,P|311:84|324:44,1,85,2|0,0:0|2:0,0:0:0:0:
451,111,183398,2,0,P|464:151|452:192,1,85,10|0,0:0|2:0,0:0:0:0:
356,228,183812,1,2,0:0:0:0:
256,256,184019,6,0,P|216:248|164:260,1,85,0|10,0:0|0:0,0:0:0:0:
92,192,184432,1,8,0:0:0:0:
92,192,184639,1,2,0:0:0:0:
173,128,184846,2,0,P|214:136|256:128,1,85,0|10,0:0|0:0,0:0:0:0:
393,90,185260,1,8,0:0:0:0:
393,90,185363,1,8,0:0:0:0:
393,90,185467,6,0,P|313:71|255:128,1,170,14|10,0:0|0:0,0:0:0:0:
284,224,186088,1,8,0:0:0:0:
284,224,186294,2,0,P|363:242|421:185,1,170,2|10,0:0|0:0,0:0:0:0:
392,89,186916,5,0,0:0:0:0:
392,89,187123,2,0,P|380:48|389:7,2,85,2|8|10,0:0|0:0|0:0,0:0:0:0:
492,112,187743,1,8,0:0:0:0:
432,196,187950,1,2,0:0:0:0:
336,160,188157,6,0,L|248:160,1,85,0|10,0:0|0:0,0:0:0:0:
148,160,188571,1,8,0:0:0:0:
148,160,188674,1,8,0:0:0:0:
148,160,188778,2,0,P|176:237|127:303,1,170,10|10,0:0|0:0,0:0:0:0:
68,220,189398,1,8,0:0:0:0:
256,232,189605,6,0,B|336:204|336:268|421:235,1,170,2|10,0:0|0:0,0:0:0:0:
496,168,190226,1,0,0:0:0:0:
416,104,190432,2,0,P|404:64|420:16,1,85,2|8,0:0|0:0,0:0:0:0:
508,64,190846,1,10,0:0:0:0:
324,64,191054,6,0,P|282:56|240:62,1,85,8|2,0:0|0:0,0:0:0:0:
168,140,191467,1,0,0:0:0:0:
168,244,191674,1,10,0:0:0:0:
240,321,191881,1,8,0:0:0:0:
240,321,191985,1,8,0:0:0:0:
240,321,192088,6,0,P|281:327|323:319,1,85,10|0,0:0|2:0,0:0:0:0:
168,244,192501,2,0,P|126:237|84:245,1,85,10|8,0:0|0:0,0:0:0:0:
8,124,192916,2,0,B|8:24,1,85,2|0,0:0|2:0,0:0:0:0:
132,31,193329,2,0,P|172:19|212:31,1,85,10|0,0:0|0:0,0:0:0:0:
299,116,193743,2,0,P|339:128|380:116,2,85,2|8|10,0:0|0:0|0:0,0:0:0:0:
448,76,194363,6,0,P|460:116|448:156,1,85,8|2,0:0|0:0,0:0:0:0:
384,236,194777,1,0,0:0:0:0:
284,220,194985,1,10,0:0:0:0:
256,124,195192,1,8,0:0:0:0:
256,124,195295,1,8,0:0:0:0:
256,124,195398,6,0,L|348:100,1,85,10|0,0:0|2:0,0:0:0:0:
256,260,195812,2,0,L|164:284,1,85,10|0,0:0|0:0,0:0:0:0:
323,191,196225,2,0,P|347:226|351:268,1,85,2|0,0:0|2:0,0:0:0:0:
188,192,196639,2,0,P|164:157|160:115,1,85,10|0,0:0|2:0,0:0:0:0:
256,40,197053,6,0,L|344:40,2,85,2|8|10,0:0|0:0|0:0,0:0:0:0:
159,115,197674,1,8,0:0:0:0:
159,115,197881,2,0,P|96:84|160:40,1,170,2|10,0:0|0:0,0:0:0:0:
256,192,198501,5,8,0:0:0:0:
256,192,198605,1,8,0:0:0:0:
256,192,198708,2,0,L|256:280,1,76.4999976654053,6|0,0:0|0:0,0:0:0:0:
256,359,199122,2,0,P|218:367|181:362,1,76.4999976654053,2|0,0:0|0:0,0:0:0:0:
120,291,199536,2,0,P|139:219|110:150,2,152.999995330811,2|2|2,0:0|0:0|0:0,0:0:0:0:
92,380,200570,5,0,0:0:0:0:
181,362,200777,2,0,L|260:360,1,76.4999976654053,2|0,0:0|0:0,0:0:0:0:
348,360,201191,1,2,0:0:0:0:
256,200,201605,2,0,L|168:200,1,76.4999976654053,2|0,0:0|0:0,0:0:0:0:
256,200,202019,6,0,P|227:130|257:62,1,152.999995330811,2|2,0:0|0:0,0:0:0:0:
340,24,202639,1,0,0:0:0:0:
257,62,202846,2,0,B|180:88|180:40|107:59,1,152.999995330811,2|2,0:0|0:0,0:0:0:0:
116,244,203674,5,2,0:0:0:0:
256,364,204088,1,2,0:0:0:0:
396,244,204501,2,0,P|432:256|476:240,1,76.4999976654053,2|0,0:0|0:0,0:0:0:0:
468,138,204915,2,0,P|431:128|396:140,1,76.4999976654053,2|0,0:0|0:0,0:0:0:0:
320,192,205329,6,0,L|240:192,1,76.4999976654053,2|0,0:0|0:0,0:0:0:0:
168,248,205743,2,0,P|152:180|200:108,2,152.999995330811,2|2|2,0:0|0:0|0:0,0:0:0:0:
256,280,206777,5,0,0:0:0:0:
296,196,206984,2,0,L|384:188,1,76.4999976654053,2|0,0:0|0:0,0:0:0:0:
256,280,207398,2,0,L|168:288,1,76.4999976654053,2|0,0:0|0:0,0:0:0:0:
92,256,207812,2,0,P|100:218|92:181,1,76.4999976654053,2|0,0:0|0:0,0:0:0:0:
12,136,208225,1,2,0:0:0:0:
180,76,208639,6,0,B|256:112|256:56|328:78,1,152.999995330811,2|2,0:0|0:0,0:0:0:0:
332,308,209467,2,0,B|256:272|256:328|183:305,1,152.999995330811,2|2,0:0|0:0,0:0:0:0:
40,192,210294,6,0,B|16:140|56:80|56:80|39:49,2,152.999995330811,2|2|2,0:0|0:0|0:0,0:0:0:0:
96,268,211329,1,0,0:0:0:0:
96,268,211536,2,0,P|56:284|12:284,1,76.4999976654053,2|0,0:0|0:0,0:0:0:0:
184,240,211950,6,0,L|260:232,1,76.4999976654053,6|0,0:0|0:0,0:0:0:0:
328,144,212363,2,0,L|251:151,1,76.4999976654053,2|0,0:0|0:0,0:0:0:0:
184,240,212777,2,0,P|164:304|212:368,2,152.999995330811,2|2|2,0:0|0:0|0:0,0:0:0:0:
256,48,214019,5,2,0:0:0:0:
328,240,214432,2,0,P|348:304|300:368,2,152.999995330811,2|2|2,0:0|0:0|0:0,0:0:0:0:
256,48,215674,6,0,L|176:48,1,76.4999976654053,2|0,0:0|0:0,0:0:0:0:
136,128,216088,2,0,P|156:200|131:271,1,152.999995330811,2|2,0:0|0:0,0:0:0:0:
380,271,216915,6,0,P|355:200|375:128,1,152.999995330811,2|2,0:0|0:0,0:0:0:0:
192,32,217743,1,2,0:0:0:0:
64,191,218156,2,0,P|55:229|61:266,1,76.4999976654053,2|0,0:0|0:0,0:0:0:0:
84,356,218570,6,0,L|164:356,1,76.4999976654053,2|0,0:0|0:0,0:0:0:0:
236,304,218984,2,0,L|316:304,1,76.4999976654053,2|0,0:0|0:0,0:0:0:0:
380,368,219398,2,0,P|400:297|361:234,1,152.999995330811,2|2,0:0|0:0,0:0:0:0:
256,192,220019,5,0,0:0:0:0:
332,140,220225,2,0,P|341:103|333:66,1,76.4999976654053,2|0,0:0|0:0,0:0:0:0:
256,192,220639,2,0,P|247:229|255:266,1,76.4999976654053,2|0,0:0|0:0,0:0:0:0:
336,308,221053,2,0,P|344:270|336:233,1,76.4999976654053,2|0,0:0|0:0,0:0:0:0:
256,192,221467,1,2,0:0:0:0:
132,56,221881,6,0,B|124:164|124:164|164:204,1,152.999995330811,2|2,0:0|0:0,0:0:0:0:
380,328,222708,2,0,B|388:220|388:220|348:180,1,152.999995330811,2|2,0:0|0:0,0:0:0:0:
155,195,223536,6,0,P|135:267|159:339,1,152.999995330811,2|2,0:0|0:0,0:0:0:0:
356,188,224363,2,0,P|376:116|352:44,1,152.999995330811,2|2,0:0|0:0,0:0:0:0:
