osu file format v9

[General]
AudioFilename: Bruno Mars - Just The Way You Are.mp3
AudioLeadIn: 0
PreviewTime: 51415
Countdown: 1
SampleSet: Soft
StackLeniency: 0.7
Mode: 0
LetterboxInBreaks: 1

[Editor]
Bookmarks: 17837,53067,66278,70681,83892,88296,123525,136736,141140,154351,158755,171966,176369,193984,211599
DistanceSpacing: 1
BeatDivisor: 4
GridSize: 8

[Metadata]
Title:Just The Way You Are
Artist:Bruno Mars
Creator:GladiOol
Version:Normal
Source:
Tags:Peter Gene Hernandez Gladi

[Difficulty]
HPDrainRate:3
CircleSize:4
OverallDifficulty:3
ApproachRate:4
SliderMultiplier:1
SliderTickRate:2

[Events]
//Background and Video events
0,0,"must-not-fap.jpg"
//Break Periods
2,88496,96334
//Storyboard Layer 0 (Background)
//Storyboard Layer 1 (Fail)
//Storyboard Layer 2 (Pass)
//Storyboard Layer 3 (Foreground)
//Storyboard Sound Samples
//Background Colour Transformations
3,100,163,162,255

[TimingPoints]
223,550.45871559633,4,2,1,40,1,0
53067,-100,4,2,1,40,0,1
66278,-100,4,2,1,40,0,0
70681,-100,4,2,1,40,0,1
83892,-100,4,2,1,40,0,0
123525,-100,4,2,1,40,0,1
136736,-100,4,2,1,40,0,0
141140,-100,4,2,1,40,0,1
154351,-100,4,2,1,40,0,0
158755,-100,4,2,1,40,0,1
171966,-100,4,2,1,40,0,0

[Colours]
Combo1 : 11,172,234
Combo2 : 181,228,82
Combo3 : 250,207,39

[HitObjects]
176,64,17562,1,2
176,64,17837,2,0,B|376:40,1,200,12|2
448,112,19489,1,8
392,200,20039,1,8
296,232,20589,1,8
208,184,21140,2,0,B|184:80,1,100,2|8
96,64,22241,6,0,B|40:96|40:192|96:240,1,200,12|2
184,280,23892,1,8
256,208,24443,2,0,B|304:160|368:200,1,100,8|8
432,248,25544,1,2
480,160,26094,1,8
424,80,26645,6,0,B|312:56,1,100,12|8
192,128,28021,1,8
192,128,28296,1,8
240,216,28846,1,8
168,288,29397,2,0,B|115:310|64:264,1,100,8|2
24,184,30498,1,8
88,104,31048,6,0,B|160:184|328:152|320:24,1,300,12|8
392,112,33250,2,0,B|336:208|472:248|400:360,1,250,8|2
328,288,35177,1,2
328,288,35452,5,12
240,336,36002,2,0,B|216:280|120:256|64:320,1,200,8|8
8,232,37654,1,8
104,192,38204,2,0,B|128:136|96:88,1,100,8|2
100,95,39030,1,8
100,95,39305,1,8
184,40,39856,6,0,B|384:16,1,200,12|2
448,96,41507,1,8
376,168,42057,2,0,B|256:184,1,100,8|8
232,272,43158,2,0,B|352:256,1,100,2|8
432,240,44259,5,12
456,144,44810,1,8
360,112,45360,2,0,B|336:16,1,100,2|8
256,72,46461,1,8
280,168,47011,2,0,B|232:200|176:168,1,100,8|2
96,128,48112,1,0
32,208,48663,1,12
256,192,48800,12,8,50865
168,80,51415,6,0,B|320:48,1,150,8|2
408,88,52791,5,2
408,88,53067,2,0,B|440:136|416:192,1,100,8|8
344,248,54167,2,8,B|232:232,1,100
176,304,55268,1,8
136,216,55819,2,0,B|104:168|128:112,1,100,8|8
152,80,56645,2,0,B|320:56,1,150,2|12
384,104,58021,5,8
336,192,58571,1,8
408,264,59122,1,8
360,352,59672,2,0,B|332:291|232:272|184:336,1,200,8|8
104,272,61323,1,8
160,192,61874,2,0,B|128:136|168:80,1,100,12|8
197,65,62700,2,0,B|349:49,1,150,2|8
395,44,63800,5,2
459,116,64351,1,0
419,212,64901,1,2
323,236,65452,1,0
251,172,66002,1,2
256,192,66278,12,8,68479
104,168,69305,5,2
104,168,69580,2,0,B|152:200|223:180|240:112,1,150,8|2
248,88,70681,6,0,B|368:80,1,100,12|8
408,160,71782,2,0,B|288:168,1,100,8|8
240,240,72883,1,8
240,240,73158,1,2
240,240,73434,2,0,B|195:205|144:232,1,100,8|8
72,304,74534,1,8
40,208,75085,6,0,B|-16:152|0:56|72:32,1,200,12|8
128,112,76736,1,8
128,112,77011,1,2
128,112,77287,2,0,B|192:128|224:64,1,100,8|8
304,32,78388,2,8,B|424:56,1,100
440,144,79489,2,8,B|320:120,1,100,12|8
296,144,80314,2,0,B|256:176|248:240|280:296,1,150,2|8
296,328,81415,5,2
392,352,81966,1,0
472,296,82516,1,2
496,200,83067,1,0
440,120,83617,1,2
256,192,83892,12,12,88296
40,88,97654,6,0,B|144:72,1,100,8|2
188,65,98479,1,8
188,65,98755,1,8
256,136,99305,1,8
224,232,99856,1,8
280,312,100406,2,0,B|384:328,1,100,2|8
448,256,101507,6,0,B|344:240,1,100,12|8
300,230,102333,2,0,B|260:182|268:118|316:86,1,150,2|8
216,40,103709,1,8
176,128,104259,2,0,B|152:184|79:196|33:152,1,150,8|8
80,312,105911,6,0,B|192:280,1,100,12|8
270,250,107011,2,0,B|294:194|254:138,1,100,2|8
192,80,108112,1,8
280,32,108663,1,8
280,32,108938,2,0,B|448:48,1,150,2|8
464,144,110314,6,0,B|440:200|480:256,1,100,12|8
416,320,111415,2,0,B|304:296,1,100,2|8
224,336,112516,1,8
176,248,113067,1,8
176,248,113342,2,0,B|200:200|184:128|120:112,1,150,2|8
200,40,114718,5,12
264,112,115268,2,0,B|384:96,1,100,8|2
448,152,116369,1,8
392,232,116920,1,8
440,320,117470,1,8
304,376,118296,1,8
304,376,118571,1,8
256,288,119122,1,12
256,192,119259,12,8,121323
344,80,121874,6,0,B|192:48,1,150,8|2
104,88,123250,5,2
104,88,123526,2,0,B|72:136|96:192,1,100,8|8
168,248,124626,2,8,B|280:232,1,100
336,304,125727,1,8
376,216,126278,2,0,B|408:168|384:112,1,100,8|8
360,80,127104,2,0,B|192:56,1,150,2|12
128,104,128480,5,8
176,192,129030,1,8
104,264,129581,1,8
152,352,130131,2,0,B|180:291|280:272|328:336,1,200,8|8
408,272,131782,1,8
352,192,132333,2,0,B|384:136|344:80,1,100,12|8
315,65,133159,2,0,B|163:49,1,150,2|8
116,42,134259,5,2
52,114,134810,1,0
92,210,135360,1,2
188,234,135911,1,0
260,170,136461,1,2
256,192,136737,12,8,138938
408,168,139764,5,2
408,168,140039,2,0,B|360:200|289:180|272:112,1,150,8|2
264,88,141140,6,0,B|144:80,1,100,12|8
104,160,142241,2,0,B|224:168,1,100,8|8
272,240,143342,1,8
272,240,143617,1,2
272,240,143893,2,0,B|317:205|368:232,1,100,8|8
440,304,144993,1,8
472,208,145544,6,0,B|528:152|512:56|440:32,1,200,12|8
384,112,147195,1,8
384,112,147470,1,2
384,112,147746,2,0,B|320:128|288:64,1,100,8|8
208,32,148847,2,8,B|88:56,1,100
72,144,149948,2,8,B|192:120,1,100,12|8
216,144,150773,2,0,B|256:176|264:240|232:296,1,150,2|8
216,328,151874,5,2
120,352,152425,1,0
40,296,152975,1,2
16,200,153526,1,0
72,120,154076,1,2
256,192,154351,12,8,156553
80,312,157103,5,8
80,312,157378,2,0,B|56:200,1,100,2|0
88,120,158479,5,2
88,120,158755,2,0,B|116:59|216:40|264:104,1,200,12|8
320,176,160406,2,0,B|360:224|432:192,1,100,8|8
456,288,161507,1,8
456,288,161782,1,2
376,344,162333,1,0
288,296,162883,5,2
288,296,163158,2,0,B|336:240|320:144|240:128,1,200,12|8
176,192,164810,2,8,B|136:152|80:176,2,100
240,272,166461,1,8
240,272,166736,1,0
240,272,167011,1,8
312,344,167562,2,8,B|384:384|472:360|480:272,1,200,12|8
488,192,169213,5,8
488,192,169489,1,2
440,104,170039,1,0
344,72,170589,1,2
264,136,171140,1,0
256,232,171690,1,2
256,192,171966,12,8,174167
48,120,174718,6,8,B|112:168|176:40|248:120,1,200,8|2
304,176,176369,2,0,B|408:160,1,100,4|0
452,152,177195,1,2
424,248,177745,1,2
336,288,178296,1,0
336,288,178571,2,0,B|296:248|224:280,1,100,2|2
208,312,179397,2,0,B|96:288,1,100,2|2
24,168,180773,6,0,B|192:200,1,150,2|2
272,184,182149,1,2
320,96,182700,1,0
320,96,182975,2,0,B|368:64|416:88,1,100,2|0
448,128,183800,2,0,B|464:248,1,100,2|2
352,328,185177,2,0,B|326:276|256:264|216:304,1,150,2|2
144,352,186553,1,2
72,288,187103,5,2
40,192,187654,1,0
88,104,188204,1,2
184,88,188755,1,0
256,160,189305,2,0,B|264:232|384:264|424:192,2,200,2|2|0
247,110,191782,1,2
128,200,192608,6,0,B|168:240|152:304,1,100,0|2
232,352,193709,1,2
232,352,193984,2,4,B|352:328,1,100,4|2
448,168,195635,1,2
352,136,196186,1,0
368,232,196736,2,0,B|352:304|256:328|200:264,1,200,2|2
128,208,198388,6,0,B|80:160|16:192,1,100,0|2
168,32,200039,1,2
200,128,200589,1,0
272,56,201140,2,0,B|342:66|374:165|312:232,1,200,2|2
248,280,202791,2,0,B|200:240|136:272,1,100,0|2
8,88,204443,5,2
8,88,204718,1,0
71,172,205268,1,0
169,177,205819,1,2
247,116,206369,1,0
263,17,206920,1,2
256,192,207195,12,2,211599
