osu file format v9

[General]
AudioFilename: Bruno Mars - Just The Way You Are.mp3
AudioLeadIn: 0
PreviewTime: 51415
Countdown: 1
SampleSet: Soft
StackLeniency: 0.7
Mode: 0
LetterboxInBreaks: 1

[Editor]
Bookmarks: 17837,53067,66278,70681,83892,88296,123525,136736,141140,154351,158755,171966,176369,193984,211599
DistanceSpacing: 1
BeatDivisor: 4
GridSize: 8

[Metadata]
Title:Just The Way You Are
Artist:Bruno Mars
Creator:GladiOol
Version:Hard
Source:
Tags:Peter Gene Hernandez Gladi

[Difficulty]
HPDrainRate:5
CircleSize:5
OverallDifficulty:7
ApproachRate:7
SliderMultiplier:1.6
SliderTickRate:2

[Events]
//Background and Video events
0,0,"must-not-fap.jpg"
//Break Periods
2,88496,96754
//Storyboard Layer 0 (Background)
//Storyboard Layer 1 (Fail)
//Storyboard Layer 2 (Pass)
//Storyboard Layer 3 (Foreground)
//Storyboard Sound Samples
//Background Colour Transformations
3,100,163,162,255

[TimingPoints]
223,550.45871559633,4,2,1,40,1,0
53067,-100,4,2,1,40,0,1
66278,-100,4,2,1,40,0,0
70681,-100,4,2,1,40,0,1
83892,-100,4,2,1,40,0,0
123525,-100,4,2,1,40,0,1
136736,-100,4,2,1,40,0,0
141140,-100,4,2,1,40,0,1
154351,-100,4,2,1,40,0,0
158755,-100,4,2,1,40,0,1
171966,-100,4,2,1,40,0,0

[Colours]
Combo1 : 11,172,234
Combo2 : 181,228,82
Combo3 : 250,207,39

[HitObjects]
152,232,17562,1,2
152,232,17837,2,0,B|136:144,1,80,12|0
176,80,18388,2,0,B|336:48,1,160,8|2
375,116,19213,2,0,B|464:96,1,80,8|8
392,232,19764,5,0
392,232,19901,1,0
392,232,20039,2,0,B|372:193|312:184|280:216,1,120,8|8
224,256,20727,1,0
168,200,21002,1,2
200,128,21278,1,0
200,128,21415,2,0,B|216:88|192:48,2,80,8|8|2
64,184,22241,6,0,B|48:224|64:264,1,80,12|0
120,320,22791,2,0,B|280:288,1,160,8|2
354,269,23617,1,8
354,269,23892,1,8
424,304,24167,1,0
480,168,24443,6,0,B|496:120|464:80,1,80,8|0
453,75,24856,2,0,B|357:67,1,80,8|0
328,136,25406,1,2
264,88,25681,2,0,B|248:48|184:32|144:72,1,120,0|8
200,128,26369,1,2
200,128,26645,5,12
104,256,27195,1,8
104,256,27333,1,0
152,320,27608,2,0,B|200:328|224:288,1,80,2|0
256,216,28158,2,0,B|224:160|256:112|288:64|240:0,1,200,2|8
352,120,29259,5,0
352,120,29397,1,8
408,184,29672,1,0
413,207,29810,1,0
410,230,29947,1,2
398,251,30085,2,0,B|366:280|312:256,1,80,0|2
256,216,30635,2,0,B|216:184|160:192|136:248,1,120,0|12
64,312,31461,5,0
64,312,31599,2,0,B|32:216,1,80,8|2
80,80,32424,2,0,B|160:56,1,80,8|10
256,112,32975,2,0,B|176:136,1,80,0|8
192,280,33663,5,0
192,280,33800,2,0,B|231:252|270:277,1,80,8|2
416,336,34626,2,0,B|432:256,2,80,8|10|0
384,184,35452,5,12
416,112,35727,1,0
416,112,36002,2,0,B|248:64,1,160,8|2
136,104,36828,2,0,B|232:136,1,80,8|8
256,248,37378,5,0
256,248,37516,1,0
256,248,37654,1,8
208,312,37929,1,0
208,312,38067,1,8
128,328,38342,1,0
64,280,38617,1,0
64,280,38755,2,0,B|48:192,3,80,2|8|8|2
120,80,39856,5,12
120,80,39993,1,0
120,80,40131,1,0
168,144,40406,2,0,B|336:112,1,160,8|2
402,92,41232,2,0,B|416:48|386:12,1,80,8|8
480,128,41782,5,0
480,128,41920,1,0
480,128,42057,2,0,B|467:170|488:208,1,80,8|0
495,228,42470,2,0,B|407:261,1,80,8|0
346,287,43021,1,2
296,224,43296,2,0,B|272:184|280:120|336:104,1,120,0|8
368,176,43984,1,2
368,176,44259,5,12
360,56,44672,1,0
360,56,44810,1,8
360,56,44947,1,0
288,24,45222,1,2
224,72,45498,2,0,B|192:40|144:56,2,80,0|2|0
296,176,46323,6,0,B|328:208|376:192,2,80,2|0|0
224,144,47149,1,0
232,224,47424,2,0,B|150:248|126:116|21:182,1,200,2|8
88,304,48525,1,0
88,304,48663,1,12
256,192,48800,12,8,50865
128,40,51415,5,8
96,112,51690,1,2
128,184,51966,1,0
200,216,52241,2,0,B|376:184,1,160,8|2
472,248,53067,6,0,B|296:280,1,160,12|8
272,344,53892,2,0,B|248:288|176:272|128:312,1,160,2|2
72,352,54718,1,8
24,288,54993,1,2
64,216,55268,2,0,B|240:176,1,160,8|8
297,158,56094,2,0,B|312:116|293:81,1,80,2|8
224,40,56645,1,2
224,40,57195,1,2
120,120,57470,6,0,B|80:152|77:224|123:264,1,160,12|8
200,288,58296,2,0,B|368:248,2,160,2|0|2
168,360,59672,1,8
88,224,60222,1,8
184,96,60773,1,8
240,152,61048,2,0,B|336:136,1,80,2|8
400,120,61599,1,2
320,216,61874,6,0,B|152:240,1,160,12|8
80,256,62700,2,0,B|26:230|15:148|72:112,1,160,2|0
200,40,63800,5,2
357,192,64351,1,0
140,161,64901,1,2
334,58,65452,1,0
238,255,66002,1,2
238,255,66140,1,0
238,255,66278,1,8
368,344,66828,5,8
424,288,67103,2,0,B|456:232|440:160|376:144,1,160,2|2
368,72,67929,1,8
440,40,68204,1,2
368,72,68479,2,0,B|192:48,1,160,8|8
264,152,69305,5,2
264,152,69580,1,8
264,152,69856,2,0,B|88:128,1,160,2|2
168,216,70681,6,0,B|218:222|230:275,1,80,12|0
284,379,71232,1,8
284,379,71369,2,0,B|264:331|304:294,1,80
295,303,71782,1,8
364,196,72057,1,0
364,196,72195,1,0
364,196,72333,2,0,B|332:235|281:220,1,80,8|0
268,220,72745,1,0
268,220,72883,2,0,B|176:192,1,80,8|0
115,172,73434,1,8
88,96,73709,1,2
136,32,73984,1,8
136,32,74259,2,0,B|176:80|264:72|280:-16,1,160,2|2
328,128,75085,6,0,B|440:144,1,80,12|0
424,156,75498,1,0
424,156,75635,2,0,B|448:192|432:232,1,80,8|0
360,344,76186,2,0,B|336:308|352:268,1,80,8|2
359,244,76599,1,0
359,244,76736,1,8
296,192,77011,1,2
232,240,77287,2,0,B|64:264,1,160,8|8
24,200,78112,1,2
80,144,78388,1,8
80,144,78663,2,0,B|88:96|64:64,2,80,2|0|2
168,280,79489,6,0,B|128:232|152:152|216:144,1,160,12|8
279,131,80314,2,0,B|463:107,1,160,2|0
437,110,81140,1,8
336,192,81415,5,2
184,349,81966,1,0
215,132,82516,1,2
318,326,83067,1,0
121,230,83617,1,2
256,192,83892,12,8,86645
256,192,86782,12,12,88296
72,48,97654,5,8
72,48,97791,1,0
40,120,98067,2,0,B|64:208,1,80,2|0
120,256,98617,2,0,B|202:280|226:148|331:214,1,200,2|8
408,296,99718,5,0
408,296,99856,1,8
456,232,100131,1,0
463,209,100268,1,0
463,184,100406,1,2
455,161,100544,2,0,B|376:128,1,80,0|2
344,200,101094,2,0,B|224:152,1,120,2|12
224,32,101920,5,0
224,32,102057,2,0,B|176:16|136:64,1,80,8|2
40,168,102883,2,0,B|16:80,2,80,8|10|2
16,280,103709,6,0,B|72:304|128:264|120:216,1,120,8|8
128,222,104259,2,0,B|220:211,1,80,8|2
336,312,105085,2,0,B|244:323,2,80,8|10|0
440,208,105911,6,0,B|424:160|464:112,1,80,12|0
288,128,106461,2,0,B|337:138|359:196,1,80,8|0
440,40,107011,2,0,B|406:77|344:67,1,80,2|8
288,48,107562,1,8
288,48,107837,1,2
168,128,108112,6,0,B|152:32,2,80,8|0|8
184,208,108938,2,0,B|344:184,1,160,2|8
421,170,109764,1,8
421,170,110039,1,2
368,304,110314,6,0,B|328:272|280:304,1,80,12|0
256,144,110865,2,0,B|248:194|300:220,1,80,8|0
176,320,111415,2,0,B|223:301|220:243,1,80,2|8
144,248,111966,1,8
144,248,112241,1,2
96,120,112516,5,8
160,72,112791,1,0
232,104,113067,1,8
232,104,113342,2,0,B|250:271,1,160,2|8
257,342,114167,1,8
257,342,114443,1,2
368,248,114718,5,12
416,136,115131,1,0
416,136,115268,1,8
416,136,115406,2,0,B|496:96,2,80,0|2|0
336,120,116232,2,0,B|256:160,2,80,2|0|2
296,56,117057,1,0
216,48,117333,1,2
216,48,117608,1,0
168,112,117883,2,0,B|248:288,1,160,2|0
234,257,118571,1,8
234,257,118709,1,2
256,192,119259,12,8,121324
384,40,121874,5,8
416,112,122149,1,2
384,184,122425,1,0
312,216,122700,2,0,B|136:184,1,160,8|2
40,248,123526,6,0,B|216:280,1,160,12|8
240,344,124351,2,0,B|264:288|336:272|384:312,1,160,2|2
440,352,125177,1,8
488,288,125452,1,2
448,216,125727,2,0,B|272:176,1,160,8|8
215,158,126553,2,0,B|200:116|219:81,1,80,2|8
288,40,127104,1,2
288,40,127654,1,2
392,120,127929,6,0,B|432:152|435:224|389:264,1,160,12|8
312,288,128755,2,0,B|144:248,2,160,2|0|2
344,360,130131,1,8
424,224,130681,1,8
328,96,131232,1,8
272,152,131507,2,0,B|176:136,1,80,2|8
112,120,132058,1,2
192,216,132333,6,0,B|360:240,1,160,12|8
432,256,133159,2,0,B|486:230|497:148|440:112,1,160,2|0
312,40,134259,5,2
155,192,134810,1,0
372,161,135360,1,2
178,58,135911,1,0
274,255,136461,1,2
274,255,136599,1,0
274,255,136737,1,8
144,344,137287,5,8
88,288,137562,2,0,B|56:232|72:160|136:144,1,160,2|2
144,72,138388,1,8
72,40,138663,1,2
144,72,138938,2,0,B|320:48,1,160,8|8
248,152,139764,5,2
248,152,140039,1,8
248,152,140315,2,0,B|424:128,1,160,2|2
344,216,141140,6,0,B|293:222|281:275,1,80,12|0
228,379,141691,1,8
228,379,141828,2,0,B|247:331|207:294,1,80
217,303,142241,1,8
148,196,142516,1,0
148,196,142654,1,0
148,196,142792,2,0,B|179:235|230:220,1,80,8|0
244,220,143204,1,0
244,220,143342,2,0,B|336:192,1,80,8|0
397,172,143893,1,8
424,96,144168,1,2
376,32,144443,1,8
376,32,144718,2,0,B|336:80|248:72|232:-16,1,160,2|2
184,128,145544,6,0,B|72:144,1,80,12|0
88,156,145957,1,0
88,156,146094,2,0,B|64:192|80:232,1,80,8|0
152,344,146645,2,0,B|176:308|160:268,1,80,8|2
153,244,147058,1,0
153,244,147195,1,8
216,192,147470,1,2
280,240,147746,2,0,B|448:264,1,160,8|8
488,200,148571,1,2
432,144,148847,1,8
432,144,149122,2,0,B|424:96|448:64,2,80,2|0|2
344,280,149948,6,0,B|384:232|360:152|296:144,1,160,12|8
233,131,150773,2,0,B|49:107,1,160,2|0
75,110,151599,1,8
176,192,151874,5,2
328,349,152425,1,0
297,132,152975,1,2
194,326,153526,1,0
391,230,154076,1,2
256,192,154351,12,8,156553
160,136,157103,5,8
160,136,157378,2,0,B|-16:92,2,160,2|0|2
88,248,158755,5,12
136,312,159030,1,2
216,328,159305,1,8
216,328,159443,1,2
288,288,159718,1,2
288,288,159856,1,8
312,216,160131,1,0
312,216,160268,1,2
312,216,160406,1,8
272,144,160681,1,0
280,104,160819,1,2
288,64,160956,2,0,B|384:40,1,80,8|0
512,104,161507,5,8
512,104,161782,2,0,B|336:148,2,160,2|0|2
448,216,163158,5,12
400,280,163434,1,0
400,280,163571,1,2
400,280,163709,1,8
320,296,163984,1,2
248,256,164259,1,8
248,256,164397,1,2
216,184,164672,1,2
216,184,164810,2,0,B|240:96,1,80,8|2
249,68,165222,1,0
249,68,165360,1,8
184,24,165635,1,2
144,32,165773,1,0
104,40,165911,1,8
56,104,166186,1,2
88,176,166461,5,8
160,208,166736,1,2
216,264,167011,1,8
288,304,167287,1,2
288,304,167562,2,0,B|464:272,1,160,8|8
506,223,168388,2,0,B|545:168|525:90|458:76,1,160,2|0
296,144,169489,5,2
152,363,170039,1,0
138,100,170590,1,2
304,304,171141,1,0
51,237,171691,1,2
256,192,171966,12,8,174167
48,208,174718,5,8
96,272,174993,1,0
176,288,175268,1,8
240,240,175544,2,0,B|256:80,1,160,2|2
255,80,176369,5,4
408,32,176920,1,0
408,32,177195,1,2
376,192,177745,2,0,B|456:176,2,80,2|0|2
416,264,178571,2,0,B|240:296,1,160,2|2
179,308,179397,1,2
135,241,179672,1,0
170,169,179947,6,0,B|208:112|184:48|128:32,2,160,2|2|0
192,248,181323,1,0
192,248,181599,2,0,B|352:216,1,160,2|2
424,192,182424,1,0
439,113,182700,1,2
383,55,182975,2,0,B|223:87,1,160,2|2
149,108,183800,1,2
120,184,184076,5,0
168,248,184351,1,2
248,264,184626,1,0
312,216,184901,2,0,B|350:159|326:95|270:79,1,160,2|0
200,96,185727,1,0
200,96,186002,2,0,B|188:148|114:170|65:129,1,160,2|2
68,132,186828,1,0
16,192,187103,5,2
102,337,187654,1,0
270,300,188204,1,2
287,130,188755,1,0
128,61,189305,1,2
400,240,192608,5,0
440,168,192883,1,2
392,104,193158,2,0,B|208:72,1,160,0|2
120,136,193984,6,0,B|304:168,1,160,6|2
328,224,194810,2,0,B|352:168|424:152|472:192,1,160,0|0
488,264,195635,1,2
440,328,195911,1,0
360,344,196186,2,0,B|176:312,1,160,0|2
125,299,197011,1,0
104,224,197287,1,0
160,168,197562,6,0,B|208:128|208:48|144:16,2,160,0|0|0
200,240,198938,1,2
279,225,199213,2,0,B|447:201,1,160,0|0
431,282,200039,2,0,B|509:268,2,80,2|0|0
376,344,200865,1,0
304,320,201140,5,2
264,256,201415,1,0
296,184,201690,2,0,B|328:144|304:88,1,80
264,40,202241,1,2
264,40,202516,2,0,B|88:8,1,160
56,72,203342,1,2
56,72,203617,2,0,B|232:104,1,160
291,117,204443,1,2
369,133,204718,5,0
357,300,205269,1,0
190,340,205819,1,2
99,195,206370,1,0
212,62,206920,1,2
256,192,207195,12,2,211599
