osu file format v5

[General]
AudioFilename: Brunch-Imagine-03-Imagine.mp3
AudioLeadIn: 3000
PreviewTime: -1
Countdown: 0
SampleSet: Soft
StackLeniency: 0.8
Mode: 0
LetterboxInBreaks: 1
StoryFireInFront: 0

[Metadata]
Title:Imagine
Artist:Brunch
Creator:haki_chan
Version:Normal
Source:There she is! Step 5
Tags:Brunch, haki_chan, Imagine

[Difficulty]
HPDrainRate:9
CircleSize:6
OverallDifficulty:9
SliderMultiplier:1.5
SliderTickRate:3

[Events]
//Background and Video events
1,0,"0shvgw5thUU_0002.avi"
//Break Periods
2,21642,26487
2,50753,56487
2,61809,66209
2,71587,79487
2,95697,98153
//Storyboard Layer 0 (Background)
//Storyboard Layer 1 (Failing)
//Storyboard Layer 2 (Passing)
//Storyboard Layer 3 (Foreground)
//Storyboard Sound Samples
//Background Colour Transformations
3,100,255,0,0

[TimingPoints]
54,333.333333333333,3,2,0,100,1,0

[Colours]
Combo1 : 192,192,192
Combo2 : 255,255,255
Combo3 : 0,255,0
Combo4 : 255,0,128

[HitObjects]
168,136,9109,1,0
144,176,9720,1,0
160,208,10331,1,0
192,224,10942,1,0
224,232,11276,1,0
40,144,13942,2,0,C|416:160,3,375
416,160,16998,6,0,C|408:192|376:248,9,75
256,192,19609,12,0,21442
112,144,27387,5,8
120,200,28609,1,8
176,216,29109,1,8
176,216,29442,1,8
208,232,29776,1,8
256,232,30220,1,8
288,184,31109,2,8,C|160:40,3,175
200,64,34053,2,8,C|24:152|120:304,1,375
192,296,37831,5,2
232,248,39053,2,2,C|264:208|208:88,1,175
216,96,39887,2,0,C|40:64|40:232,1,350
256,192,41887,12,0,43331
112,152,44276,5,2
120,200,44831,1,2
120,232,45220,1,2
120,272,45553,1,2
256,192,48998,12,2,50553
200,312,57387,6,2,C|400:80,1,300
344,72,58387,2,2,C|72:80,2,250
256,192,59942,12,2,61609
120,112,67109,5,4
136,224,67776,2,4,C|176:328|328:304,1,250
328,256,68665,2,4,C|328:88,2,150
272,104,70387,1,4
208,128,70887,1,4
128,160,71165,1,4
128,160,71387,1,4
256,192,80387,12,2,81331
40,136,81831,6,10,C|496:144,1,450
464,192,83220,2,10,C|304:328,3,200
256,272,85998,2,10,C|104:48,2,250
248,272,88609,1,10
296,200,89442,1,10
240,184,89831,1,10
144,224,91220,1,10
80,216,91665,1,10
72,136,92220,1,10
96,120,92553,1,10
144,120,93720,6,10,C|504:136|96:304,1,800
256,192,99053,12,10,102553
24,208,103442,6,10,C|344:152|112:88|280:272,1,825
336,264,106220,1,8
400,184,106887,1,8
304,136,107387,1,8
232,168,108053,1,8
176,224,108831,1,8
176,224,109165,1,8
120,224,109498,1,8
112,168,109998,1,8
144,128,110387,1,8
240,128,110720,1,8
240,192,111831,2,8,C|472:184,4,225
248,272,114553,2,8,C|48:48|480:72,1,725
256,192,117331,12,8,118998
336,88,119553,5,2
272,144,119998,1,2
224,192,120442,1,2
144,184,121109,1,2
176,256,121887,2,2,C|64:48|480:72,2,650
232,248,124998,2,2,C|344:216|432:104,2,250
256,192,129442,12,2,130942
