osu file format v5

[General]
AudioFilename: Brunch-Imagine-03-Imagine.mp3
AudioLeadIn: 3000
PreviewTime: -1
Countdown: 0
SampleSet: Soft
StackLeniency: 0.7
Mode: 0
LetterboxInBreaks: 1
StoryFireInFront: 0

[Metadata]
Title:Imagine
Artist:Brunch
Creator:haki_chan
Version:Hard
Source:There she is! Step 5
Tags:Brunch, haki_chan, Imagine

[Difficulty]
HPDrainRate:9
CircleSize:5
OverallDifficulty:9
SliderMultiplier:1.8
SliderTickRate:3

[Events]
//Background and Video events
1,-256,"0shvgw5thUU_0002.avi"
//Break Periods
2,21865,26676
2,50753,56731
2,104920,111509
2,141865,149342
//Storyboard Layer 0 (Background)
//Storyboard Layer 1 (Failing)
//Storyboard Layer 2 (Passing)
//Storyboard Layer 3 (Foreground)
//Storyboard Sound Samples
//Background Colour Transformations
3,100,255,0,0

[TimingPoints]
54,333.333333333333,3,2,0,100,1,0

[Colours]
Combo1 : 192,192,192
Combo2 : 255,255,255
Combo3 : 0,255,0
Combo4 : 255,0,128

[HitObjects]
240,168,9053,2,0,C|384:264|448:176,2,270,0|0|8
240,168,10387,5,0
240,80,10831,1,0
336,96,11109,1,0
344,168,11665,6,0,C|104:216,2,240
400,88,12887,5,2
424,176,13387,1,2
344,224,13887,6,10,C|120:272,2,210
320,168,14942,6,0,C|224:128,1,90
144,120,15609,6,10,C|232:280|320:280,1,270
312,224,16609,5,8
296,152,16998,1,8
312,88,17553,1,8
384,88,18165,1,8
424,160,18498,1,8
424,160,18665,1,8
368,224,19498,5,8
288,224,19831,1,8
224,224,20165,1,8
176,192,20498,1,8
152,136,20831,1,8
152,72,21276,1,8
240,72,21665,1,12
200,176,27276,6,8,C|312:184,1,90
336,160,28609,5,8
384,80,29109,1,8
448,120,29442,1,8
456,216,29776,1,8
400,256,30109,1,8
320,208,30442,6,10,C|200:208,1,120
200,112,31276,5,0
264,64,31720,1,0
320,120,32053,1,0
256,176,32387,1,0
320,216,32887,6,8,C|408:272,1,90
424,184,33831,5,0
440,48,34276,1,0
344,80,34609,1,0
272,152,34998,1,0
224,200,35220,6,2,C|80:56|384:48|440:152,2,630,2|2|10
224,200,37831,5,2
224,200,38220,6,10,C|104:240,2,120
256,48,39109,5,10
256,128,39553,1,10
176,128,39887,1,10
176,208,40165,1,10
264,208,40553,1,10
264,208,40831,6,10,C|160:208,1,90,10|8
144,152,41387,5,10
224,152,41720,1,10
304,152,42220,1,10
304,72,42498,1,10
304,232,42887,1,10
200,240,43331,6,8,C|104:232,4,90
176,168,44276,6,0,C|256:88|400:232|232:296,2,510
256,192,46442,12,4,47609
104,56,48553,5,8
184,56,48831,1,8
184,128,49165,1,8
96,128,49498,1,8
96,200,49776,1,8
176,208,49942,1,8
88,272,50165,1,8
168,280,50331,1,8
248,288,50553,1,8
80,88,57331,5,2
96,216,57720,1,2
184,168,58109,1,2
240,104,58442,1,2
320,88,58776,2,0,C|392:256,1,180
390,253,59220,1,8
304,272,59831,6,0,C|80:96|216:48,2,420
304,272,61498,1,10
296,184,61776,6,10,C|488:48,1,210
280,128,62498,5,8
216,128,63053,1,8
160,160,63387,1,8
136,232,63665,1,8
208,240,63887,2,8,C|304:240,1,90
320,152,64442,5,0
208,72,64831,1,0
176,160,65109,1,0
112,264,65498,1,0
208,264,65942,1,0
248,184,66331,1,0
296,136,66665,2,0,C|384:80,1,90
448,96,67220,6,2,C|248:296,1,270
257,286,67942,2,2,C|136:88|376:80,1,480
368,160,69276,6,10,C|264:232,1,120
256,192,70442,12,14,71720
96,88,72331,5,8
104,208,72998,1,8
192,144,73442,1,8
304,56,73887,1,8
392,80,74331,1,8
392,184,74942,1,8
312,200,75553,6,8,C|160:304,3,180
136,232,76887,5,8
136,128,77498,1,8
248,72,78165,1,8
376,80,78720,1,8
376,192,79165,1,8
400,280,79498,1,8
448,184,80165,1,8
456,88,80776,1,8
328,88,81276,1,8
256,192,81609,12,6,82165
88,120,83442,6,8,C|272:280|368:160,1,390
296,144,84553,5,8
224,80,84887,1,8
168,136,85387,5,2
160,208,85998,6,8,C|480:304|488:168,2,480,8|0|12
136,120,88553,5,0
200,64,89053,1,0
312,64,89387,1,0
416,128,89665,1,0
368,192,89942,6,8,C|168:192|72:216,2,270
312,248,91720,5,0
168,264,92053,1,0
64,160,92442,1,0
136,120,92776,6,8,C|312:152|280:240,2,270
128,192,94276,5,8
224,208,94609,1,8
264,120,94998,1,8
320,88,95331,1,8
328,168,95609,2,8,C|424:168,1,90
328,240,96498,5,2
224,264,96942,1,2
176,200,97276,1,2
128,152,97609,1,2
128,88,97942,2,2,C|248:88,1,120
256,192,98942,12,10,102276
32,80,103165,6,8,C|128:280|296:160,2,420
88,88,112109,5,10
88,216,112609,1,10
168,152,112942,1,10
208,80,113331,1,10
296,64,113720,1,10
392,80,114776,6,8,C|296:280,4,210
304,88,116665,6,0,C|120:288|416:272,1,570
400,208,117998,2,0,C|408:48,1,150
344,72,118776,5,8
344,72,118942,1,8
264,104,119331,5,2
216,160,119609,1,2
192,248,119887,1,2
312,208,120331,1,2
352,120,120720,1,2
432,88,121053,1,2
424,168,121331,6,8,C|416:264,1,90
256,192,121887,12,12,124553
256,192,125109,12,12,128942
112,144,129553,6,8,C|416:160|352:312|184:304,1,630
160,264,131609,5,8
104,144,131998,1,8
184,80,132331,1,8
336,112,132665,1,8
384,208,132998,1,8
464,152,133331,1,8
456,64,133665,1,8
368,32,133942,1,8
296,96,134276,6,2,C|104:304|400:288|440:176,1,690
408,144,136165,5,0
328,80,136498,1,0
248,144,136831,1,0
256,224,137220,1,0
320,232,137553,1,0
344,160,137887,1,0
440,120,138387,1,0
432,208,138720,1,0
408,272,139053,1,0
304,272,139442,1,0
200,232,139998,1,0
160,152,140331,1,0
112,80,140609,1,0
192,56,140998,5,0
192,56,141165,1,0
192,56,141331,1,0
192,56,141498,1,0
192,56,141665,1,0
56,96,149942,5,8
80,208,150387,1,8
208,208,150776,1,8
264,96,151109,1,8
408,88,151498,1,8
384,200,151831,1,8
384,200,151998,1,8
384,200,152165,1,8
384,200,152331,1,8
384,200,152498,1,8
256,192,152998,6,8,C|88:152|160:32,2,300
256,192,154498,5,8
344,88,155053,1,8
432,120,155442,5,10
432,256,155720,1,10
344,216,156498,5,10
248,216,156942,1,10
248,120,157276,1,10
144,120,157609,1,10
144,120,157887,6,12,C|144:240,1,120
184,280,158887,5,2
184,280,159053,1,2
184,280,159220,1,2
208,232,159665,1,2
216,160,159998,1,2
264,120,160387,1,2
320,112,160720,1,2
360,152,161053,1,2
376,200,161331,1,2
408,248,161609,1,2
432,208,161998,1,2
440,144,162331,1,2
392,104,162776,1,2
312,96,163220,5,4
312,96,163387,1,4
240,112,164220,6,8,C|48:312,2,270
280,128,165887,5,0
376,96,166831,5,2
376,160,167331,1,2
360,216,167665,1,2
312,256,168053,1,2
256,192,168331,12,10,169720
88,96,170220,6,0,C|80:208|224:224,2,240
152,104,171442,6,0,C|360:152|448:136,2,300
256,192,172887,12,4,173387
80,88,173998,5,8
80,168,174331,1,8
88,240,174665,1,8
176,200,175165,1,8
248,96,175498,1,8
320,88,175831,1,8
368,136,176165,6,10,C|368:224,1,60
280,200,176665,5,0
208,152,176998,1,0
128,176,177331,1,0
160,256,177776,1,0
256,264,178165,1,0
320,192,178553,1,0
328,120,178887,2,8,C|256:96,1,60
184,104,179942,5,2
176,200,180387,1,2
248,256,180720,1,2
272,160,181053,1,2
344,112,181387,1,2
440,112,182553,2,10,C|272:336|160:280,2,390
352,104,184387,5,2
264,104,184720,1,2
208,160,185053,1,2
240,240,185498,1,2
296,232,185942,1,2
320,192,186220,1,2
328,136,186498,6,10,C|408:88,1,90
256,88,187165,5,0
256,176,187498,1,0
256,272,187776,1,0
336,264,188276,1,0
336,176,188609,1,0
336,88,188942,1,0
408,88,189165,2,8,C|408:192,1,90
256,192,189665,12,4,192387
256,192,192887,12,4,194276
56,56,194942,6,2,C|192:72|224:296|360:264|440:56|472:320|384:352,1,1110
400,352,197498,2,10,C|176:352,3,210
192,352,199053,2,10,C|192:232,1,120
64,104,200165,6,0,C|152:256|320:96|136:120|96:368|384:232|456:104,1,1350
456,104,203053,2,8,C|200:16,3,270
256,192,205331,12,10,207442
256,192,208053,12,10,209887
88,72,210609,5,8
88,160,210942,1,8
88,256,211220,1,8
184,232,211720,1,8
184,232,212053,1,8
216,136,212387,1,8
288,104,212720,5,12
288,104,212887,1,12
288,176,213887,6,10,C|280:304|456:264|464:232,2,330
224,136,215498,6,12,C|160:232,1,90
280,120,216387,6,12,C|488:240,2,240
232,152,217665,5,0
232,248,218331,1,0
120,256,218998,1,0
96,152,219553,1,0
176,64,219998,1,0
288,72,220387,1,0
368,128,221053,1,0
352,232,221665,1,0
432,240,222165,1,0
128,72,223109,5,8
128,208,223609,1,8
208,256,224165,1,8
240,144,224776,1,8
256,192,225498,12,6,226776
