osu file format v7

[General]
AudioFilename: tiny toons adventures op hq.mp3
AudioLeadIn: 0
PreviewTime: -1
Countdown: 0
SampleSet: Normal
StackLeniency: 0.7
Mode: 0
LetterboxInBreaks: 1

[Editor]
Bookmarks: 28785,32746,34617,41270,42414
DistanceSpacing: 0.800000011920929
BeatDivisor: 4
GridSize: 16

[Metadata]
Title:Tiny Toon Adventures
Artist:Bruce Broughton
Creator:Ouendanmario64
Version:Normal (English)
Source:Tiny Toon Adventures
Tags:Tiny Toon toons Adventures opening OP english Bruce Broughton Steven Spielberg Looney Tunes Warner Bros brothers Buster Bunny Babs Plucky Duck ducky Hamton J Pig Elmyra Duff Montana Max Fifi La Fume Furrball Dizzy Devil Gogo Dodo Sweetie Li'l Sneezer Calamity Coyote Little Beeper Arnold the Pit Bull Bookworm Concord Condor Barky Marky Mary Melody

[Difficulty]
HPDrainRate:4
CircleSize:3
OverallDifficulty:3
SliderMultiplier:1.4
SliderTickRate:2

[Events]
//Background and Video events
Video,0,"tiny toon adventures bg vid.flv"
0,0,"tiny toons BG.jpg"
//Break Periods
//Storyboard Layer 0 (Background)
//Storyboard Layer 1 (Fail)
//Storyboard Layer 2 (Pass)
//Storyboard Layer 3 (Foreground)
//Storyboard Sound Samples
//Background Colour Transformations
3,100,0,0,0

[TimingPoints]
1042,415.800415800416,4,1,0,100,1,0

[HitObjects]
128,64,4576,1,8
128,320,5408,5,8
384,64,6239,5,0
384,192,6655,1,8
384,320,7071,1,8
256,128,7902,5,0
256,256,8734,5,8
256,192,9566,5,8
256,128,9982,1,0
256,64,10397,1,8
384,320,11229,5,0
128,320,12061,5,8
128,192,12892,5,0
256,128,13308,1,8
384,192,13724,1,8
384,320,14555,5,0
320,256,14971,1,8
256,192,15387,1,0
192,128,15803,5,8
112,128,16218,2,8,B|112:336|288:336,1,280
352,288,17466,5,0
400,192,17881,2,0,B|96:192|96:192,2,280
304,112,19960,1,8
208,112,20377,1,0
112,192,21208,6,0,B|416:192|416:192,2,280
224,272,23287,2,0,B|304:272,2,70
144,80,24430,2,0,B|352:240,1,245
384,256,25366,1,0
384,256,25574,1,0
256,320,25990,5,0
256,256,26198,2,0,B|256:160,5,70
256,176,27861,6,0,B|320:176|336:272|320:320|240:320|192:288|160:272|160:224,1,280
128,192,29108,1,0
48,192,29524,1,8
48,192,29940,1,0
48,192,30356,1,4
432,256,31083,5,8
432,176,31499,1,0
352,128,31915,5,0
352,208,32330,1,0
256,256,32746,5,0
256,176,32954,2,0,B|256:0,2,140
176,144,34617,6,0,B|112:80|48:144|48:144,2,140
64,208,36073,5,0
144,208,36281,2,0,B|448:208,1,280
192,128,37736,6,0,B|96:128,2,70,0|8|0
384,128,38567,6,0,B|288:128,2,70,0|8|0
384,320,39607,5,0
336,256,40023,1,0
288,320,40439,2,0,B|224:256,1,70,8|0
128,256,41270,6,0,B|368:96,1,280,0|8
432,144,42310,1,0
432,224,42725,5,8
368,288,42933,2,0,B|160:80,1,280,0|8
144,112,44389,5,0
96,192,44597,2,0,B|400:192,2,280
216,272,46676,2,0,B|286:272,2,70,0|8|0
96,240,47715,5,0
128,160,47923,2,0,B|288:32|432:192|400:176,2,280,0|8|0
256,202,50002,2,8,B|256:272,2,70
400,256,51042,5,8
336,304,51458,1,0
272,256,51873,1,8
208,304,52289,1,8
160,256,52705,5,0
208,208,53121,1,8
272,160,53537,1,8
320,224,53953,1,0
400,224,54368,5,0
464,176,54576,2,0,B|432:64|336:16|256:16,1,280
256,112,55823,1,0
256,208,56239,1,8
256,208,56655,1,8
256,208,57071,1,12
256,192,58734,12,0,60085
