osu file format v7

[General]
AudioFilename: Tiny toons opening latino.mp3
AudioLeadIn: 0
PreviewTime: -1
Countdown: 0
SampleSet: Normal
StackLeniency: 0.7
Mode: 1
LetterboxInBreaks: 1

[Editor]
Bookmarks: 28785,32746,41270,42414
DistanceSpacing: 0.800000011920929
BeatDivisor: 4
GridSize: 8

[Metadata]
Title:Tiny Toon Adventures
Artist:Bruce Broughton
Creator:Ouendanmario64
Version:Hard (Spanish)
Source:Tiny Toon Adventures
Tags:Tiny Toon toons Adventures opening OP english Bruce Broughton Steven Spielberg Looney Tunes Warner Bros brothers Buster Bunny Babs Plucky Duck ducky Hamton J Pig Elmyra Duff Montana Max Fifi La Fume Furrball Dizzy Devil Gogo Dodo Sweetie Li'l Sneezer Calamity Coyote Little Beeper Arnold the Pit Bull Bookworm Concord Condor Barky Marky Mary Melody

[Difficulty]
HPDrainRate:6
CircleSize:3
OverallDifficulty:5
SliderMultiplier:1.4
SliderTickRate:2

[Events]
//Background and Video events
Video,-576,"tiny toon adventures bg vid.flv"
0,0,"tiny toons BG.jpg"
//Break Periods
//Storyboard Layer 0 (Background)
//Storyboard Layer 1 (Fail)
//Storyboard Layer 2 (Pass)
//Storyboard Layer 3 (Foreground)
//Storyboard Sound Samples
//Background Colour Transformations
3,100,0,0,0

[TimingPoints]
522.874536289728,415.800415800416,4,1,0,100,1,0

[HitObjects]
96,64,3848,1,0
160,64,4056,1,8
224,64,4264,1,0
256,128,4680,5,0
192,128,4888,1,8
128,128,5096,1,0
96,192,5512,5,0
128,240,5719,1,0
176,192,5927,1,0
208,240,6135,1,8
256,192,6343,1,0
288,240,6551,1,8
336,192,6759,1,8
400,144,7175,5,0
352,96,7383,1,0
304,144,7591,1,0
256,96,7798,1,0
208,144,8006,1,0
160,96,8214,1,8
112,144,8422,1,0
112,208,8630,5,0
160,256,8838,1,0
208,208,9046,1,8
256,256,9254,1,0
304,304,9462,1,0
352,256,9670,1,8
352,256,9877,1,8
416,304,10501,5,0
352,304,10709,1,0
288,304,10917,1,0
256,240,11333,5,0
320,240,11541,1,8
384,240,11749,1,0
432,192,12164,5,0
384,144,12372,1,0
336,96,12580,1,0
288,144,12788,1,8
240,96,12996,1,0
192,144,13204,1,8
144,192,13412,1,0
64,320,13828,5,8
112,272,14035,1,0
160,320,14243,1,0
208,272,14451,1,8
256,320,14659,1,0
304,272,14867,1,0
352,320,15075,1,0
400,272,15283,5,8
448,224,15491,1,8
496,176,15699,2,8,B|464:64|368:16|288:16,1,280
96,80,16946,5,0
96,144,17362,2,0,B|96:288,1,140
96,352,18090,1,8
96,352,18193,1,8
160,304,18401,1,8
160,304,18609,1,8
160,304,18817,1,8
208,352,19025,1,0
256,304,19233,1,8
304,352,19441,1,0
304,352,19649,1,8
304,352,19857,1,0
432,304,20480,5,0
432,240,20688,2,0,B|432:96,1,140
336,96,21520,2,0,B|336:256,1,140
256,256,22351,2,0,B|256:176,4,70
288,96,24014,6,0,B|208:96,1,70,8|0
216,160,24430,2,0,B|286:160,1,70
288,224,24846,2,0,B|218:224,1,70,8|0
256,256,25470,5,0
256,208,25678,2,0,B|256:112,5,70
256,176,27341,6,0,B|320:176|336:272|320:320|240:320|192:288|160:272|160:224,1,280
128,192,28380,1,0
80,128,28588,1,0
80,128,28796,1,0
48,192,29004,1,8
48,192,29420,1,0
48,192,29836,1,4
432,256,30563,5,8
432,192,30771,2,0,B|432:112,1,70
352,128,31395,5,0
352,192,31603,2,8,B|352:272,1,70
256,256,32226,5,0
256,192,32434,2,0,B|256:96,5,70
160,128,33786,5,0
160,192,33994,2,0,B|160:288,5,70
64,256,35241,5,0
64,256,35449,1,0
64,256,35657,1,0
64,192,35865,2,0,B|64:96,4,70
128,96,37216,5,0
176,96,37424,1,0
256,96,37736,1,0
336,96,38047,5,0
368,128,38255,1,8
416,192,38567,1,0
384,320,38879,5,0
336,256,39087,1,0
304,320,39295,1,0
256,256,39503,2,0,B|256:304,3,35
192,320,40022,1,8
112,256,40439,6,0,B|256:248|400:136|248:64,1,350
176,64,41998,5,0
176,64,42205,1,0
112,96,42413,1,8
112,96,42621,1,0
112,96,42829,1,8
48,144,43037,1,0
80,224,43245,2,8,B|160:160,2,70
80,304,43869,5,0
160,304,44077,2,0,B|336:304,1,140
368,304,44701,1,0
432,304,44908,1,8
432,304,45116,1,0
432,304,45324,1,0
432,240,45532,1,8
384,192,45740,1,0
336,240,45948,1,8
288,192,46156,1,0
240,240,46364,1,8
240,240,46571,1,0
96,240,47195,5,0
96,160,47403,2,0,B|96:80,1,70
176,88,47819,2,8,B|176:184,1,70
256,160,48235,2,0,B|256:80,1,70
336,88,48650,2,8,B|336:168,1,70
416,160,49066,2,0,B|416:80,4,70
400,256,50522,5,8
352,304,50730,1,8
320,256,50938,1,0
272,304,51353,5,8
240,256,51561,1,0
192,304,51769,1,8
160,256,52185,5,0
192,192,52393,1,0
256,192,52601,1,8
320,192,52808,1,0
288,128,53017,1,8
224,128,53225,1,8
160,128,53433,1,0
384,176,53848,5,0
464,176,54056,2,0,B|432:64|336:16|256:16,1,280
256,64,55095,1,0
256,128,55303,1,0
256,192,55511,1,0
256,256,55719,1,8
256,256,56135,1,8
256,256,56551,1,12
256,208,58214,12,0,59565
