osu file format v7

[General]
AudioFilename: Tiny Toon Adventures japanese op.mp3
AudioLeadIn: 0
PreviewTime: -1
Countdown: 0
SampleSet: Soft
StackLeniency: 0.7
Mode: 1
LetterboxInBreaks: 1

[Editor]
Bookmarks: 28785,32746,41270,42414
DistanceSpacing: 0.800000011920929
BeatDivisor: 6
GridSize: 8

[Metadata]
Title:Tiny Toon Adventures
Artist:Bruce Broughton
Creator:Ouendanmario64
Version:Hard (Japanese)
Source:Tiny Toon Adventures
Tags:Tiny Toon toons Adventures opening OP english Bruce Broughton Steven Spielberg Looney Tunes Warner Bros brothers Buster Bunny Babs Plucky Duck ducky Hamton J Pig Elmyra Duff Montana Max Fifi La Fume Furrball Dizzy Devil Gogo Dodo Sweetie Li'l Sneezer Calamity Coyote Little Beeper Arnold the Pit Bull Bookworm Concord Condor Barky Marky Mary Melody

[Difficulty]
HPDrainRate:6
CircleSize:3
OverallDifficulty:5
SliderMultiplier:1.4
SliderTickRate:2

[Events]
//Background and Video events
Video,-961,"tiny toon adventures bg vid.flv"
0,0,"tiny toons BG.jpg"
//Break Periods
//Storyboard Layer 0 (Background)
//Storyboard Layer 1 (Fail)
//Storyboard Layer 2 (Pass)
//Storyboard Layer 3 (Foreground)
//Storyboard Sound Samples
//Background Colour Transformations
3,100,0,0,0

[TimingPoints]
0,415.800415800416,4,2,0,100,1,0

[HitObjects]
96,64,3328,1,0
160,64,3536,1,8
224,64,3744,1,0
256,128,4160,5,0
192,128,4368,1,8
128,128,4576,1,0
96,192,4992,5,0
128,240,5199,1,0
176,192,5407,1,0
208,240,5615,1,8
256,192,5823,1,0
288,240,6031,1,8
336,192,6239,1,8
400,144,6655,5,0
352,96,6863,1,0
304,144,7071,1,0
208,144,7486,1,0
160,96,7694,1,8
112,144,7902,1,0
160,256,8318,5,0
208,208,8526,1,8
256,256,8734,1,0
304,304,8942,1,0
352,256,9150,1,8
352,256,9357,1,8
416,304,9981,5,0
352,304,10189,1,0
288,304,10397,1,0
256,240,10813,5,0
320,240,11021,1,8
384,240,11229,1,0
432,192,11644,5,0
384,144,11852,1,0
336,96,12060,1,0
288,144,12268,1,8
240,96,12476,1,0
192,144,12684,1,8
144,192,12892,1,0
64,320,13308,5,8
112,272,13515,1,0
160,320,13723,1,0
208,272,13931,1,8
256,320,14139,1,0
304,272,14347,1,0
352,320,14555,1,0
400,272,14763,5,8
448,224,14971,1,8
496,176,15179,2,8,B|464:64|368:16|288:16,1,280
96,80,16426,5,0
96,80,16634,1,0
96,144,16842,2,0,B|96:288,1,140
96,352,17570,1,8
96,352,17673,1,8
160,304,17881,1,8
160,304,18089,1,8
160,304,18297,1,8
208,352,18505,1,0
256,304,18713,1,8
304,352,18921,1,0
304,352,19129,1,8
304,352,19337,1,0
432,304,20027,5,0
432,240,20235,2,0,B|432:96,1,140
336,96,21067,2,0,B|336:256,1,140
256,256,21898,2,0,B|256:176,4,70
352,64,23287,5,0
288,112,23494,2,0,B|208:112,1,70,8|0
160,160,24118,5,0
218,208,24326,2,0,B|288:208,1,70
256,256,24950,5,0
256,208,25158,2,0,B|256:112,5,70
256,176,26613,5,0
256,176,26821,2,0,B|320:176|336:272|320:320|240:320|192:288|160:272|160:224,1,280
128,192,27860,1,0
80,128,28068,1,0
80,128,28276,1,0
48,192,28484,1,8
48,192,28900,1,0
48,192,29316,1,4
432,256,30006,5,8
432,192,30214,2,0,B|432:112,1,70
352,128,30838,5,0
352,192,31046,2,8,B|352:272,1,70
256,256,31669,5,0
256,192,31877,2,0,B|256:96,5,70
160,128,33332,5,0
160,192,33540,2,0,B|160:288,5,70
64,256,34788,5,0
64,256,34996,1,0
64,192,35204,2,0,B|64:96,4,70
128,96,36659,5,0
128,96,36867,1,0
128,96,37075,1,0
384,96,37491,5,0
384,96,37699,1,8
384,96,37907,1,0
384,320,38530,5,0
384,320,38738,1,0
336,256,38946,1,8
304,320,39154,1,0
256,256,39362,1,8
256,256,39569,1,8
224,320,39778,1,0
144,288,40193,6,0,B|320:144,1,210
368,112,41025,1,8
368,112,41233,1,0
48,48,41648,5,0
112,96,41856,1,8
112,96,42064,1,0
112,96,42272,1,8
48,144,42480,1,0
80,224,42688,2,8,B|160:160,2,70
80,304,43312,5,0
160,304,43520,2,0,B|336:304,1,140
368,304,44144,1,0
432,304,44351,1,8
432,304,44559,1,0
432,304,44767,1,0
432,240,44975,1,8
384,192,45183,1,0
336,240,45391,1,8
288,192,45599,1,0
240,240,45807,1,8
240,240,46014,1,0
96,240,46638,5,0
96,160,46846,2,0,B|96:80,1,70
176,88,47262,2,8,B|176:184,1,70
256,160,47678,2,0,B|256:80,1,70
336,88,48093,2,8,B|336:168,1,70
416,160,48509,2,0,B|416:80,4,70
400,256,49965,5,8
352,304,50173,1,8
320,256,50381,1,0
272,304,50796,5,8
240,256,51004,1,0
192,304,51212,1,8
160,256,51628,5,0
192,192,51836,1,0
256,192,52044,1,8
320,192,52251,1,0
288,128,52460,1,8
224,128,52668,1,8
160,128,52876,1,0
464,176,53499,6,0,B|432:64|336:16|256:16,1,280
256,64,54538,1,0
256,128,54746,1,0
256,192,54954,1,0
256,256,55162,1,8
256,256,55578,1,8
256,256,55994,1,12
256,208,57657,12,0,59008
