osu file format v12

[General]
AudioFilename: Brown Eyed Girls - Sign J-pop.mp3
AudioLeadIn: 0
PreviewTime: 19680
Countdown: 0
SampleSet: None
StackLeniency: 0.7
Mode: 0
LetterboxInBreaks: 1
WidescreenStoryboard: 1

[Editor]
Bookmarks: 12616,19780,34108,48437,77093,105750,109332,112914,116496,171373,189244,207173
DistanceSpacing: 1.2
BeatDivisor: 4
GridSize: 4
TimelineZoom: 1.64

[Metadata]
Title:Sign
TitleUnicode:Sign
Artist:Brown Eyed Girls
ArtistUnicode:Brown Eyed Girls
Creator:waxman
Version:Insane
Source:
Tags:kpop jpop
BeatmapID:429839
BeatmapSetID:177548

[Difficulty]
HPDrainRate:7
CircleSize:4
OverallDifficulty:7
ApproachRate:9
SliderMultiplier:1.79999990463257
SliderTickRate:1

[Events]
//Background and Video events
0,0,"[vanthorn-pm]sign beg.jpg",0,0
//Break Periods
2,148388,151618
//Storyboard Layer 0 (Background)
//Storyboard Layer 1 (Fail)
//Storyboard Layer 2 (Pass)
//Storyboard Layer 3 (Foreground)
//Storyboard Sound Samples
//Background Colour Transformations
3,100,163,162,255

[TimingPoints]
5352,447.761194029851,4,2,0,100,1,0
12516,-100,4,2,0,100,0,0
17889,-133.333333333333,4,2,0,100,0,0
19232,-50,4,2,0,100,0,0
19680,-100,4,2,0,100,0,1
24157,-200,4,2,0,100,0,1
25053,-100,4,2,0,100,0,1
25501,-133.333333333333,4,2,0,100,0,1
25949,-100,4,2,0,100,0,1
32217,-200,4,2,0,100,0,1
32665,-66.6666666666667,4,2,0,100,0,1
33113,-200,4,2,0,100,0,1
34008,-100,4,2,0,100,0,0
35799,-100,4,2,0,100,0,0
36135,-100,4,2,0,100,0,0
36247,-66.6666666666667,4,2,0,100,0,0
36583,-100,4,2,0,100,0,0
36695,-86.9565217391304,4,2,0,100,0,0
37031,-100,4,2,0,100,0,0
37143,-200,4,2,0,100,0,0
37590,-100,4,2,0,100,0,0
44307,-133.333333333333,4,2,0,100,0,0
44419,-100,4,2,0,100,0,0
44531,-66.6666666666667,4,2,0,100,0,0
44643,-100,4,2,0,100,0,0
48337,-100,4,2,0,100,0,0
62665,-100,4,2,0,100,0,0
63001,-66.6666666666667,4,2,0,100,0,0
63113,-100,4,2,0,100,0,0
69829,-66.6666666666667,4,2,0,100,0,0
70165,-100,4,2,0,100,0,0
71396,-100,4,2,0,100,0,0
71620,-66.6666666666667,4,2,0,100,0,0
71956,-100,4,2,0,100,0,0
75202,-100,4,2,0,100,0,0
76993,-100,4,2,0,100,0,1
78784,-200,4,2,0,100,0,1
79568,-100,4,2,0,100,0,1
91322,-100,4,2,0,100,0,0
92217,-200,4,2,0,100,0,0
93001,-100,4,2,0,100,0,0
94904,-200,4,2,0,100,0,0
95799,-100,4,2,0,100,0,0
96583,-100,4,2,0,100,0,0
97590,-200,4,2,0,100,0,0
97926,-100,4,2,0,100,0,0
104307,-133.333333333333,4,2,0,100,0,0
104531,-100,4,2,0,100,0,0
105650,-100,4,2,0,100,0,0
116396,-133.333333333333,4,2,0,100,0,0
116844,-100,4,2,0,100,0,0
117292,-100,4,2,0,100,0,0
117740,-80,4,2,0,100,0,0
118187,-100,4,2,0,100,0,0
119083,-200,4,2,0,100,0,0
119531,-133.333333333333,4,2,0,100,0,0
119978,-66.6666666666667,4,2,0,100,0,0
120426,-100,4,2,0,100,0,0
123560,-66.6666666666667,4,2,0,100,0,0
123896,-100,4,2,0,100,0,0
125799,-66.6666666666667,4,2,0,100,0,0
125911,-100,4,2,0,100,0,0
126695,-66.6666666666667,4,2,0,100,0,0
126919,-133.333333333333,4,2,0,100,0,0
127143,-66.6666666666667,4,2,0,100,0,0
128710,-100,4,2,0,100,0,0
128934,-100,4,2,0,100,0,0
134307,-100,4,2,0,100,0,1
145501,-200,4,2,0,100,0,1
145949,-80,4,2,0,100,0,1
146396,-66.6666666666667,4,2,0,100,0,1
146844,-80,4,2,0,100,0,1
147292,-200,4,2,0,100,0,1
147740,-100,4,2,0,100,0,1
148187,-100,4,2,0,100,0,0
148635,472.44094488189,4,2,0,100,1,0
152218,447.761194029851,4,2,0,100,1,0
170128,-100,4,2,0,100,0,1
184456,-100,4,2,0,100,0,0
191397,-80,4,2,0,100,0,0
191620,-100,4,2,0,100,0,0
194531,-76.9230769230769,4,2,0,100,0,0
194755,-62.5,4,2,0,100,0,0
194979,-52.6315789473684,4,2,0,100,0,0
195203,-100,4,2,0,100,0,0
196994,-100,4,2,0,100,0,0
202367,-100,4,2,0,20,0,0

[HitObjects]
248,192,5351,5,0,0:0:0:0:
376,76,6247,5,0,0:0:0:0:
152,160,7143,5,0,0:0:0:0:
408,288,8038,5,0,0:0:0:0:
312,88,8934,5,0,0:0:0:0:
100,296,9829,5,0,0:0:0:0:
476,208,10725,1,0,0:0:0:0:
344,108,11172,1,0,0:0:0:0:
152,308,11620,1,0,0:0:0:0:
72,40,12068,1,0,0:0:0:0:
416,312,12516,5,0,0:0:0:0:
424,120,12740,1,0,0:0:0:0:
395,106,12852,1,0,0:0:0:0:
364,101,12963,2,0,P|296:125|284:177,1,90
96,72,13411,5,0,0:0:0:0:
112,268,13635,1,0,0:0:0:0:
147,264,13747,1,0,0:0:0:0:
182,257,13859,2,0,P|226:226|246:193,1,89.9999952316285
344,68,14307,5,0,0:0:0:0:
300,60,14419,1,0,0:0:0:0:
256,60,14531,1,0,0:0:0:0:
212,68,14643,1,0,0:0:0:0:
176,96,14755,2,0,B|156:140|156:140|176:216,1,89.9999952316285
132,244,15202,6,0,B|188:204,1,44.9999976158143
368,100,15426,2,0,L|324:152,1,44.9999976158143
272,328,15650,2,0,L|284:264,1,44.9999976158143
188,88,15874,2,0,L|248:144,1,44.9999976158143
440,132,16098,5,0,0:0:0:0:
440,177,16210,1,0,0:0:0:0:
424,219,16322,1,0,0:0:0:0:
393,252,16434,1,0,0:0:0:0:
300,148,16546,2,0,L|268:80,1,44.9999976158143
221,263,16770,2,0,L|177:315,1,44.9999976158143
126,155,16993,2,0,L|82:139,3,44.9999976158143
188,87,17441,2,0,L|216:31,3,45
24,276,17889,6,0,L|368:84,1,371.250014162064
368,128,19232,6,0,B|356:216|356:216|428:192|428:192|448:84,1,269.999985694885
152,88,19680,6,0,L|260:88,1,89.9999952316285
276,168,20128,2,0,L|176:216,1,89.9999952316285
251,343,20575,2,0,L|195:311,1,44.9999976158143
349,292,20799,2,0,L|397:312,1,44.9999976158143
315,190,21023,2,0,L|267:162,1,44.9999976158143
418,154,21247,2,0,L|470:166,1,44.9999976158143
412,60,21471,6,0,P|324:36|248:56,1,134.999992847443
176,92,21919,2,0,P|216:168|288:176,1,134.999992847443
444,256,22366,1,0,0:0:0:0:
160,116,22590,1,0,0:0:0:0:
232,284,22814,1,0,0:0:0:0:
412,60,23038,1,0,0:0:0:0:
412,60,23150,1,0,0:0:0:0:
412,60,23262,6,0,P|408:176|364:268,1,179.999990463257
332,300,23934,1,0,0:0:0:0:
64,124,24157,6,0,P|112:104|144:116,1,67.4999964237214
288,212,24605,2,0,P|256:236|216:244,1,67.4999964237214
152,225,25053,6,0,P|170:129|221:83,1,134.999992847443
255,30,25501,2,0,P|289:93|284:130,1,101.249998497963
408,204,25949,1,0,0:0:0:0:
408,204,26172,1,0,0:0:0:0:
408,204,26396,1,0,0:0:0:0:
220,280,26620,1,0,0:0:0:0:
80,96,26844,6,0,L|280:112,1,179.999990463257
339,175,27516,1,0,0:0:0:0:
365,301,27740,2,0,P|309:269|221:277,1,134.999992847443
220,280,28187,2,0,P|296:252|376:264,1,134.999992847443
432,160,28635,6,0,L|240:152,1,179.999990463257
108,156,29307,1,0,0:0:0:0:
132,72,29531,2,0,L|184:120,1,44.9999976158143
376,176,29754,2,0,L|300:144,1,44.9999976158143
144,312,29978,2,0,L|192:272,1,44.9999976158143
392,344,30202,2,0,L|336:312,1,44.9999976158143
144,312,30426,6,0,P|240:224|268:228,1,134.999992847443
180,146,30874,2,0,P|136:234|179:284,1,134.999992847443
102,110,31321,2,0,P|166:121|215:78,1,134.999992847443
136,25,31769,2,0,P|108:85|49:113,1,134.999992847443
428,124,32217,6,0,P|449:173|447:202,1,67.4999964237214
360,227,32665,6,0,P|307:106|354:22,1,202.499996995926
440,328,33113,1,0,0:0:0:0:
72,64,33337,1,0,0:0:0:0:
236,340,33560,1,0,0:0:0:0:
72,184,34008,6,0,P|144:124|216:132,1,134.999992847443
168,152,34456,2,0,L|80:112,1,89.9999952316285
192,80,34904,1,0,0:0:0:0:
408,212,35128,1,0,0:0:0:0:
424,64,35352,1,0,0:0:0:0:
160,176,35575,1,0,0:0:0:0:
160,176,35687,1,0,0:0:0:0:
160,176,35799,6,0,P|196:256|256:268,1,134.999992847443
244,184,36247,6,0,P|308:160|380:268,1,202.499996995926
298,245,36695,6,0,L|130:161,1,155.249994735718
304,128,37143,6,0,L|372:128,1,67.4999964237214
132,112,37590,5,0,0:0:0:0:
208,64,37702,2,0,L|144:8,1,44.9999976158143
396,224,38038,5,0,0:0:0:0:
312,264,38150,2,0,L|376:320,1,44.9999976158143
356,80,38486,5,0,0:0:0:0:
308,56,38598,1,0,0:0:0:0:
256,56,38710,2,0,L|180:72,1,44.9999976158143
152,144,38934,1,0,0:0:0:0:
196,176,39046,1,0,0:0:0:0:
248,200,39157,1,0,0:0:0:0:
304,192,39269,1,0,0:0:0:0:
432,168,39381,5,0,0:0:0:0:
432,168,39493,1,0,0:0:0:0:
432,168,39605,2,0,L|376:220,1,44.9999976158143
248,136,39829,1,0,0:0:0:0:
248,136,39941,1,0,0:0:0:0:
248,136,40053,2,0,L|292:96,1,44.9999976158143
338,101,40277,5,0,0:0:0:0:
382,158,40389,1,0,0:0:0:0:
346,230,40501,1,0,0:0:0:0:
261,274,40613,1,0,0:0:0:0:
316,336,40725,5,0,0:0:0:0:
440,272,40837,1,0,0:0:0:0:
492,168,40949,1,0,0:0:0:0:
428,84,41061,1,0,0:0:0:0:
64,252,41172,5,0,0:0:0:0:
80,96,41396,5,0,0:0:0:0:
112,120,41508,1,0,0:0:0:0:
160,136,41620,1,0,0:0:0:0:
344,100,41844,5,0,0:0:0:0:
312,76,41956,1,0,0:0:0:0:
264,60,42068,1,0,0:0:0:0:
128,252,42292,5,0,0:0:0:0:
160,276,42404,1,0,0:0:0:0:
208,292,42516,2,0,P|216:224|160:184,1,134.999992847443
168,185,42963,1,0,0:0:0:0:
384,284,43187,5,0,0:0:0:0:
408,232,43299,1,0,0:0:0:0:
400,168,43411,1,0,0:0:0:0:
279,149,43635,1,0,0:0:0:0:
167,96,43859,2,0,P|240:32|316:32,1,134.999992847443
140,210,44307,2,0,L|164:250,1,33.749999499321
168,254,44531,2,0,L|196:154,1,67.499998998642
368,124,44754,6,0,P|400:192|400:236,1,89.9999952316285
208,248,45202,2,0,P|168:204|160:152,1,89.9999952316285
376,116,45650,2,0,P|411:191|411:239,1,89.9999952316285
200,252,46098,2,0,P|156:204|147:147,1,89.9999952316285
172,72,46546,5,0,0:0:0:0:
284,292,46769,1,0,0:0:0:0:
268,124,46993,1,0,0:0:0:0:
416,280,47217,1,0,0:0:0:0:
448,84,47441,1,0,0:0:0:0:
92,312,47665,1,0,0:0:0:0:
336,32,47889,1,0,0:0:0:0:
112,160,48113,5,0,0:0:0:0:
112,160,48225,1,0,0:0:0:0:
112,160,48337,2,0,P|164:220|196:148,1,179.999990463257
309,206,49008,1,0,0:0:0:0:
383,104,49232,1,0,0:0:0:0:
431,132,49344,1,0,0:0:0:0:
160,224,49568,1,0,0:0:0:0:
112,196,49680,1,0,0:0:0:0:
407,104,49904,1,0,0:0:0:0:
455,132,50016,1,0,0:0:0:0:
488,176,50128,6,0,L|408:180,1,44.9999976158143
304,192,50352,2,0,L|240:184,1,44.9999976158143
304,268,50575,2,0,L|472:300,1,134.999992847443
472,280,51023,1,0,0:0:0:0:
464,232,51135,1,0,0:0:0:0:
436,184,51247,1,0,0:0:0:0:
348,136,51359,5,0,0:0:0:0:
272,160,51471,1,0,0:0:0:0:
228,212,51583,1,0,0:0:0:0:
204,260,51695,1,0,0:0:0:0:
196,300,51807,1,0,0:0:0:0:
196,340,51919,6,0,L|76:360,1,89.9999952316285
312,248,52366,2,0,L|416:236,1,89.9999952316285
136,212,52814,2,0,L|44:184,1,89.9999952316285
236,108,53262,2,0,L|344:76,1,89.9999952316285
156,116,53710,5,0,0:0:0:0:
169,154,53822,1,0,0:0:0:0:
199,187,53934,1,0,0:0:0:0:
246,201,54046,1,0,0:0:0:0:
294,196,54157,2,0,P|357:172|386:126,1,89.9999952316285
340,48,54493,1,0,0:0:0:0:
472,212,54605,5,0,0:0:0:0:
420,296,54717,1,0,0:0:0:0:
324,328,54829,1,0,0:0:0:0:
244,264,54941,5,0,0:0:0:0:
308,160,55053,1,0,0:0:0:0:
408,92,55277,5,0,0:0:0:0:
408,92,55501,6,0,P|320:92|288:112,1,89.9999952316285
176,108,55949,2,0,P|248:172|344:168,1,179.999990463257
368,168,56508,1,0,0:0:0:0:
416,152,56620,1,0,0:0:0:0:
452,128,56732,1,0,0:0:0:0:
488,88,56844,5,0,0:0:0:0:
488,128,56956,1,0,0:0:0:0:
480,176,57068,1,0,0:0:0:0:
456,216,57180,1,0,0:0:0:0:
420,256,57292,6,0,L|448:312,1,44.9999976158143
352,328,57516,2,0,L|336:285,1,44.9999976158143
252,320,57740,2,0,L|256:376,1,44.9999976158143
168,352,57963,2,0,L|168:307,1,44.9999976158143
152,252,58187,1,0,0:0:0:0:
116,212,58299,1,0,0:0:0:0:
60,132,58411,2,0,L|105:132,1,44.9999976158143
147,98,58635,1,0,0:0:0:0:
188,63,58747,1,0,0:0:0:0:
239,48,58859,1,0,0:0:0:0:
292,43,58971,1,0,0:0:0:0:
338,184,59083,6,0,L|390:172,1,44.9999976158143
281,187,59307,2,0,L|237:196,1,44.9999976158143
367,136,59531,2,0,L|406:113,1,44.9999976158143
252,235,59754,2,0,L|212:257,1,44.9999976158143
382,91,59978,2,0,L|419:67,1,44.9999976158143
237,280,60202,2,0,L|199:303,1,44.9999976158143
378,38,60426,2,0,L|417:15,1,44.9999976158143
241,333,60650,2,0,L|201:355,1,44.9999976158143
156,360,60874,5,0,0:0:0:0:
111,359,60985,1,0,0:0:0:0:
72,337,61097,1,0,0:0:0:0:
49,299,61209,1,0,0:0:0:0:
84,276,61322,5,0,0:0:0:0:
52,259,61433,1,0,0:0:0:0:
29,231,61545,1,0,0:0:0:0:
27,197,61657,1,0,0:0:0:0:
56,196,61769,5,0,0:0:0:0:
105,176,61880,1,0,0:0:0:0:
146,140,61992,1,0,0:0:0:0:
172,92,62105,1,0,0:0:0:0:
184,50,62217,5,0,0:0:0:0:
394,59,62441,1,0,0:0:0:0:
418,95,62553,1,0,0:0:0:0:
442,139,62665,2,0,L|410:243,1,89.9999952316285
184,304,63001,6,0,L|246:244,1,67.499998998642,0|0,0:0|0:0,0:0:0:0:
312,68,63337,6,0,L|376:28,1,44.9999976158143
277,180,63560,2,0,L|292:92,1,89.9999952316285
193,241,64008,2,0,P|262:284|343:253,1,134.999992847443
341,177,64456,5,0,0:0:0:0:
341,177,64680,2,0,P|409:128|475:151,1,134.999992847443
496,216,65128,1,0,0:0:0:0:
172,118,65352,2,0,L|212:140,1,44.9999976158143
300,78,65687,2,0,L|236:54,1,44.9999976158143
80,104,66023,5,0,0:0:0:0:
56,156,66135,1,0,0:0:0:0:
56,208,66247,2,0,P|112:252|172:252,1,89.9999952316285
248,216,66695,2,0,L|344:252,1,89.9999952316285
352,208,67031,1,0,0:0:0:0:
328,172,67143,2,0,L|256:76,1,89.9999952316285
280,55,67478,1,0,0:0:0:0:
325,55,67590,1,0,0:0:0:0:
456,88,67814,1,0,0:0:0:0:
500,120,67926,1,0,0:0:0:0:
508,176,68038,6,0,L|472:236,3,44.9999976158143,0|0|0|0,0:0|0:0|0:0|0:0,0:0:0:0:
456,240,68486,2,0,L|420:300,3,44.9999976158143,0|0|0|0,0:0|0:0|0:0|0:0,0:0:0:0:
384,296,68934,1,0,0:0:0:0:
342,313,69045,1,0,0:0:0:0:
298,323,69157,1,0,0:0:0:0:
253,326,69269,1,0,0:0:0:0:
209,321,69381,1,0,0:0:0:0:
166,309,69493,1,0,0:0:0:0:
124,284,69605,6,0,L|76:336,1,44.9999976158143
160,240,69829,6,0,P|236:252|364:192,1,202.499996995926
364,176,70277,1,0,0:0:0:0:
236,19,70501,1,0,0:0:0:0:
236,20,70725,5,0,0:0:0:0:
188,32,70837,1,0,0:0:0:0:
140,56,70949,1,0,0:0:0:0:
108,88,71060,5,0,0:0:0:0:
148,104,71172,1,0,0:0:0:0:
184,100,71284,1,0,0:0:0:0:
232,84,71396,1,0,0:0:0:0:
272,72,71508,1,0,0:0:0:0:
320,52,71620,6,0,P|304:140|168:208,1,202.499996995926
217,205,72068,1,0,0:0:0:0:
88,256,72292,1,0,0:0:0:0:
368,176,72516,2,0,L|296:88,1,89.9999952316285
88,256,72964,2,0,L|168:344,1,89.9999952316285
192,104,73411,5,0,0:0:0:0:
316,260,73635,1,0,0:0:0:0:
156,68,73859,1,0,0:0:0:0:
352,296,74083,1,0,0:0:0:0:
100,44,74307,1,0,0:0:0:0:
408,320,74531,1,0,0:0:0:0:
40,32,74754,1,0,0:0:0:0:
468,332,74978,1,0,0:0:0:0:
256,192,75202,12,0,76769,0:0:0:0:
376,224,76993,6,0,P|328:292|270:303,1,134.999992847443
185,332,77441,2,0,P|196:246|272:205,1,179.999990463257
396,328,78113,1,0,0:0:0:0:
136,152,78337,1,0,0:0:0:0:
368,348,78560,1,0,0:0:0:0:
352,144,78784,6,0,P|336:96|308:80,1,67.4999964237214
160,240,79232,2,0,P|176:288|204:304,1,67.4999964237214
352,144,79680,5,0,0:0:0:0:
188,297,79904,1,0,0:0:0:0:
324,84,80128,1,0,0:0:0:0:
144,60,80352,1,0,0:0:0:0:
116,100,80463,1,0,0:0:0:0:
111,147,80575,6,0,P|166:185|232:181,1,134.999992847443
216,104,81023,2,0,P|156:188|164:248,1,134.999992847443
356,208,81471,2,0,L|416:176,3,44.9999976158143
220,292,81919,2,0,L|156:324,3,44.9999976158143
416,36,82366,5,0,0:0:0:0:
76,316,82590,1,0,0:0:0:0:
312,72,82814,1,0,0:0:0:0:
188,288,83038,1,0,0:0:0:0:
200,72,83262,5,0,0:0:0:0:
324,288,83486,1,0,0:0:0:0:
96,36,83710,1,0,0:0:0:0:
96,36,83822,1,0,0:0:0:0:
96,36,83934,1,0,0:0:0:0:
436,316,84157,6,0,P|428:224|368:176,1,134.999992847443
353,170,84605,1,0,0:0:0:0:
305,146,84717,1,0,0:0:0:0:
253,170,84829,1,0,0:0:0:0:
193,170,84941,1,0,0:0:0:0:
141,158,85053,2,0,L|81:134,1,44.9999976158143
348,65,85277,2,0,L|404:45,1,44.9999976158143
227,269,85501,2,0,L|171:313,1,44.9999976158143
211,88,85725,2,0,L|187:44,1,44.9999976158143
260,260,85949,5,0,0:0:0:0:
260,41,86172,1,0,0:0:0:0:
131,218,86396,1,0,0:0:0:0:
303,163,86620,1,0,0:0:0:0:
131,83,86844,1,0,0:0:0:0:
131,83,87068,1,0,0:0:0:0:
260,260,87292,1,0,0:0:0:0:
387,301,87516,2,0,L|344:288,1,44.9999976158143
474,313,87740,6,0,P|477:245|455:182,1,134.999992847443
333,44,88187,2,0,L|381:91,1,44.9999976158143
396,119,88411,2,0,P|330:149|309:194,1,89.9999952316285
293,208,88747,1,0,0:0:0:0:
277,259,88859,1,0,0:0:0:0:
96,120,89083,1,0,0:0:0:0:
140,160,89195,1,0,0:0:0:0:
144,220,89307,1,0,0:0:0:0:
428,256,89531,5,0,0:0:0:0:
372,180,89643,1,0,0:0:0:0:
376,88,89754,1,0,0:0:0:0:
128,280,89978,1,0,0:0:0:0:
128,280,90426,5,0,0:0:0:0:
436,16,90650,1,0,0:0:0:0:
128,280,90874,1,0,0:0:0:0:
356,136,91322,6,0,P|412:64|480:52,1,134.999992847443
172,240,91769,2,0,P|108:288|28:296,1,134.999992847443
356,136,92217,6,0,P|352:100|328:76,1,67.4999964237214
172,240,92665,2,0,P|188:288|216:304,1,67.4999964237214
408,68,93113,5,0,0:0:0:0:
382,104,93224,1,0,0:0:0:0:
341,120,93336,1,0,0:0:0:0:
296,117,93448,1,0,0:0:0:0:
197,200,93560,5,0,0:0:0:0:
222,163,93671,1,0,0:0:0:0:
264,148,93783,1,0,0:0:0:0:
308,151,93895,1,0,0:0:0:0:
82,255,94008,6,0,L|60:216,1,44.9999976158143
190,130,94232,2,0,L|222:163,1,44.9999976158143
195,271,94456,2,0,L|168:236,1,44.9999976158143
220,300,94680,2,0,L|256:344,1,44.9999976158143
356,136,94904,6,0,P|352:100|328:76,1,67.4999964237214
172,240,95352,2,0,P|188:288|216:304,1,67.4999964237214
356,136,95799,6,0,P|412:64|480:52,1,134.999992847443
150,214,96247,2,0,P|94:286|26:298,1,134.999992847443
88,184,96695,5,0,0:0:0:0:
153,100,96807,1,0,0:0:0:0:
296,72,96919,1,0,0:0:0:0:
172,240,97143,5,0,0:0:0:0:
448,52,97366,1,0,0:0:0:0:
216,76,97590,6,0,L|144:104,1,67.4999964237214
340,296,98038,6,0,L|472:232,1,134.999992847443
461,237,98486,1,0,0:0:0:0:
428,105,98710,1,0,0:0:0:0:
405,143,98822,1,0,0:0:0:0:
368,169,98934,2,0,P|323:186|276:166,1,89.9999952316285
207,103,99381,1,0,0:0:0:0:
101,91,99605,1,0,0:0:0:0:
41,121,99717,1,0,0:0:0:0:
249,53,99941,1,0,0:0:0:0:
314,35,100053,1,0,0:0:0:0:
0,165,100277,1,0,0:0:0:0:
206,103,100501,5,0,0:0:0:0:
250,53,100613,1,0,0:0:0:0:
314,35,100725,2,0,L|367:68,3,44.9999976158143
432,107,101172,1,0,0:0:0:0:
384,166,101284,1,0,0:0:0:0:
321,210,101396,1,0,0:0:0:0:
246,228,101508,1,0,0:0:0:0:
182,163,101620,2,0,L|129:110,1,44.9999976158143
125,263,101844,2,0,L|79:302,1,44.9999976158143
44,328,102068,5,0,0:0:0:0:
334,36,102292,1,0,0:0:0:0:
167,323,102516,1,0,0:0:0:0:
210,51,102740,1,0,0:0:0:0:
295,313,102963,1,0,0:0:0:0:
52,166,103187,1,0,0:0:0:0:
459,81,103411,1,0,0:0:0:0:
167,323,103635,1,0,0:0:0:0:
188,136,103859,6,0,L|104:73,1,89.9999952316285
336,229,104307,6,0,L|423:236,1,67.499998998642
296,36,104754,5,0,0:0:0:0:
105,323,104978,1,0,0:0:0:0:
409,45,105202,1,0,0:0:0:0:
229,231,105426,1,0,0:0:0:0:
278,187,105538,1,0,0:0:0:0:
319,132,105650,5,0,0:0:0:0:
288,98,105762,1,0,0:0:0:0:
243,99,105874,1,0,0:0:0:0:
91,126,106098,1,0,0:0:0:0:
406,178,106322,1,0,0:0:0:0:
406,178,106434,1,0,0:0:0:0:
406,178,106546,2,0,L|355:241,1,44.9999976158143
228,310,106769,1,0,0:0:0:0:
228,310,106881,2,0,L|237:244,1,44.9999976158143
243,220,107105,1,0,0:0:0:0:
276,173,107217,1,0,0:0:0:0:
325,128,107329,1,0,0:0:0:0:
422,88,107441,6,0,P|361:28|278:35,1,134.999992847443
128,166,107889,2,0,L|197:254,1,89.9999952316285
198,60,108337,1,0,0:0:0:0:
228,66,108449,2,0,L|289:80,1,44.9999976158143
438,185,108672,1,0,0:0:0:0:
407,194,108784,2,0,L|331:218,1,44.9999976158143
216,196,109008,2,0,L|254:263,1,44.9999976158143
256,272,109232,5,0,0:0:0:0:
312,295,109344,1,0,0:0:0:0:
371,299,109456,1,0,0:0:0:0:
428,281,109568,1,0,0:0:0:0:
478,251,109680,2,0,L|526:282,1,44.9999976158143
332,154,109904,2,0,L|283:124,1,44.9999976158143
376,147,110128,5,0,0:0:0:0:
404,112,110240,1,0,0:0:0:0:
417,67,110352,1,0,0:0:0:0:
408,24,110463,1,0,0:0:0:0:
180,109,110575,1,0,0:0:0:0:
127,121,110687,1,0,0:0:0:0:
88,159,110799,1,0,0:0:0:0:
58,204,110911,1,0,0:0:0:0:
168,268,111023,6,0,L|224:224,1,44.9999976158143
228,204,111247,1,0,0:0:0:0:
276,184,111359,1,0,0:0:0:0:
328,176,111471,1,0,0:0:0:0:
360,184,111583,5,0,0:0:0:0:
336,136,111695,1,0,0:0:0:0:
336,80,111807,1,0,0:0:0:0:
292,96,111919,2,0,L|136:96,1,134.999992847443
220,324,112366,2,0,L|376:324,1,134.999992847443
355,324,112814,5,0,0:0:0:0:
128,80,113038,1,0,0:0:0:0:
107,114,113150,1,0,0:0:0:0:
102,149,113262,2,0,P|134:189|218:185,1,134.999992847443
284,136,113710,1,0,0:0:0:0:
332,100,113822,1,0,0:0:0:0:
380,84,113934,1,0,0:0:0:0:
440,84,114046,1,0,0:0:0:0:
464,184,114157,2,0,L|444:236,1,44.9999976158143
272,48,114381,2,0,L|220:12,1,44.9999976158143
235,22,114605,5,0,0:0:0:0:
372,316,114829,1,0,0:0:0:0:
172,140,115053,1,0,0:0:0:0:
400,204,115277,1,0,0:0:0:0:
316,160,115501,5,0,0:0:0:0:
312,168,115613,1,0,0:0:0:0:
308,176,115725,1,0,0:0:0:0:
304,184,115837,1,0,0:0:0:0:
288,208,115949,5,0,0:0:0:0:
260,232,116060,1,0,0:0:0:0:
208,244,116172,1,0,0:0:0:0:
148,224,116284,1,0,0:0:0:0:
211,144,116396,6,0,L|280:86,1,67.499998998642
301,240,116844,2,0,L|217:308,1,89.9999952316285,0|0,0:0|0:0,0:0:0:0:
182,113,117292,2,0,L|319:2,1,89.9999952316285,0|0,0:0|0:0,0:0:0:0:
329,270,117740,2,0,L|196:379,1,112.499994039536,0|0,0:0|0:0,0:0:0:0:
124,88,118187,5,0,0:0:0:0:
416,152,118411,1,0,0:0:0:0:
56,224,118635,1,0,0:0:0:0:
448,328,118859,1,0,0:0:0:0:
216,146,119083,6,0,L|176:82,1,67.4999964237214
224,160,119531,6,0,L|143:99,1,101.249998497963
78,13,119978,6,0,P|42:74|157:203,1,269.999995994568
251,309,120650,1,0,0:0:0:0:
133,161,120874,1,0,0:0:0:0:
153,117,120986,2,0,L|181:45,1,44.9999976158143
376,100,121210,1,0,0:0:0:0:
356,148,121322,1,0,0:0:0:0:
336,184,121434,2,0,L|308:240,1,44.9999976158143
384,224,121658,1,0,0:0:0:0:
448,220,121769,1,0,0:0:0:0:
448,220,121993,6,0,P|406:282|259:245,1,224.999988079071
226,234,122665,1,0,0:0:0:0:
186,194,122777,1,0,0:0:0:0:
178,142,122889,1,0,0:0:0:0:
198,90,123001,1,0,0:0:0:0:
232,48,123113,1,0,0:0:0:0:
344,56,123337,1,0,0:0:0:0:
384,92,123449,1,0,0:0:0:0:
416,140,123560,6,0,L|228:140,1,134.999997997284
248,232,124008,6,0,L|312:312,1,89.9999952316285
100,136,124456,1,0,0:0:0:0:
384,236,124680,1,0,0:0:0:0:
268,112,124904,2,0,L|192:32,1,89.9999952316285
76,272,125352,6,0,P|124:204|192:160,1,134.999992847443
244,240,125799,2,0,L|305:297,1,67.499998998642
38,90,126023,2,0,L|-14:58,1,44.9999976158143
84,124,126247,2,0,P|152:56|224:28,1,134.999992847443
343,102,126695,2,0,L|293:43,1,67.499998998642
216,176,126919,6,0,L|276:176,1,33.749999499321
468,136,127143,6,0,L|360:252,1,134.999992847443
176,184,128710,6,0,L|144:160,3,22.4999988079071
204,200,128934,6,0,L|346:200,1,134.999992847443
378,215,129381,2,0,L|495:255,1,89.9999952316285
93,93,129829,1,0,0:0:0:0:
192,298,130053,1,0,0:0:0:0:
343,103,130277,2,0,L|448:46,1,89.9999952316285,0|0,0:0|0:0,0:0:0:0:
366,319,130725,5,0,0:0:0:0:
204,145,130949,1,0,0:0:0:0:
130,121,131172,5,0,0:0:0:0:
446,339,131396,1,0,0:0:0:0:
254,63,131620,6,0,P|176:66|116:123,1,134.999992847443
256,332,132068,2,0,P|348:306|399:262,1,134.999992847443
256,192,132516,12,0,133859,0:0:0:0:
283,156,134307,6,0,L|428:101,1,134.999992847443
485,150,134754,1,0,0:0:0:0:
281,65,134978,1,0,0:0:0:0:
457,293,135202,2,0,L|286:318,1,134.999992847443
245,274,135650,1,0,0:0:0:0:
71,108,135874,1,0,0:0:0:0:
393,80,136098,5,0,0:0:0:0:
393,80,136321,1,0,0:0:0:0:
146,285,136545,1,0,0:0:0:0:
146,285,136769,1,0,0:0:0:0:
281,66,136993,1,0,0:0:0:0:
281,66,137105,1,0,0:0:0:0:
281,66,137217,1,0,0:0:0:0:
341,313,137441,1,0,0:0:0:0:
181,151,137665,6,0,L|139:182,1,44.9999976158143
160,193,137889,2,0,L|288:198,1,89.9999952316285
342,118,138336,1,0,0:0:0:0:
52,302,138560,1,0,0:0:0:0:
52,302,138784,6,0,P|94:338|171:330,1,134.999992847443
342,118,139232,2,0,P|281:50|216:37,1,134.999992847443
213,180,139680,2,0,L|116:180,1,89.9999952316285
420,271,140128,6,0,L|251:271,1,134.999992847443
75,62,140576,1,0,0:0:0:0:
75,62,140799,1,0,0:0:0:0:
75,62,141024,1,0,0:0:0:0:
174,74,141248,2,0,L|252:77,1,44.9999976158143
281,81,141472,6,0,P|220:161|118:203,1,179.999990463257
170,282,142143,1,0,0:0:0:0:
348,245,142367,2,0,L|396:217,3,44.9999976158143
192,248,142815,2,0,L|136:235,3,44.9999976158143
199,185,143263,6,0,P|255:93|348:80,1,179.999990463257
401,199,143934,1,0,0:0:0:0:
308,109,144158,6,0,L|365:92,1,44.9999976158143
219,164,144382,2,0,L|161:141,1,44.9999976158143
313,272,144606,2,0,L|365:249,1,44.9999976158143
240,325,144830,2,0,L|182:321,1,44.9999976158143
57,275,145054,6,0,P|91:193|135:153,1,134.999992847443
373,123,145501,6,0,P|403:164|400:197,1,67.4999964237214
192,256,145949,6,0,P|146:171|162:75,1,168.749991059303
320,42,146397,2,0,P|349:115|336:288,1,202.499996995926
228,221,146844,2,0,P|185:154|243:72,1,168.749991059303
408,153,147293,6,0,P|426:194|424:234,1,67.4999964237214
154,122,147740,5,0,0:0:0:0:
394,103,147964,1,0,0:0:0:0:
213,224,148188,1,0,0:0:0:0:
428,203,152218,5,0,0:0:0:0:
104,106,153113,5,0,0:0:0:0:
254,291,154009,5,0,0:0:0:0:
326,93,154904,5,0,0:0:0:0:
252,146,155352,1,0,0:0:0:0:
104,237,155800,5,0,0:0:0:0:
116,113,156695,5,0,0:0:0:0:
435,250,157591,5,0,0:0:0:0:
353,113,158486,5,0,0:0:0:0:
123,44,158710,1,0,0:0:0:0:
83,68,158822,1,0,0:0:0:0:
41,94,158934,1,0,0:0:0:0:
196,168,159158,1,0,0:0:0:0:
291,122,159382,6,0,L|371:68,1,89.9999952316285
264,245,159829,2,0,L|169:301,1,89.9999952316285
184,160,160277,2,0,L|80:224,1,89.9999952316285
237,84,160725,2,0,L|324:28,1,89.9999952316285
362,303,161173,5,0,0:0:0:0:
137,219,161397,1,0,0:0:0:0:
376,111,161620,1,0,0:0:0:0:
257,300,161844,1,0,0:0:0:0:
206,93,162068,1,0,0:0:0:0:
461,213,162292,1,0,0:0:0:0:
256,192,162516,1,0,0:0:0:0:
340,138,162740,2,0,L|384:105,1,44.9999976158143,0|0,0:0|0:0,0:0:0:0:
256,192,162964,12,0,164755,0:0:0:0:
255,111,165650,5,0,0:0:0:0:
255,111,166546,1,0,0:0:0:0:
394,150,167441,2,0,L|425:83,2,59.9999968210857
362,201,167889,1,0,0:0:0:0:
312,244,168038,1,0,0:0:0:0:
240,256,168188,1,0,0:0:0:0:
256,192,168337,12,0,169680,0:0:0:0:
116,128,170128,6,0,L|212:100,1,89.9999952316285
288,224,170576,2,0,L|212:276,1,89.9999952316285
248,160,171023,1,0,0:0:0:0:
280,124,171135,1,0,0:0:0:0:
336,108,171247,1,0,0:0:0:0:
392,112,171359,1,0,0:0:0:0:
384,168,171471,5,0,0:0:0:0:
348,212,171583,1,0,0:0:0:0:
296,248,171695,1,0,0:0:0:0:
228,260,171807,1,0,0:0:0:0:
392,112,171919,6,0,L|424:168,1,44.9999976158143
168,236,172367,6,0,L|80:320,1,89.9999952316285
88,312,172815,1,0,0:0:0:0:
64,332,173038,1,0,0:0:0:0:
40,352,173262,1,0,0:0:0:0:
156,24,173486,5,0,0:0:0:0:
156,24,173598,1,0,0:0:0:0:
156,24,173710,2,0,P|220:72|268:72,1,89.9999952316285
272,108,174046,1,0,0:0:0:0:
324,132,174158,1,0,0:0:0:0:
408,232,174270,1,0,0:0:0:0:
420,276,174382,2,0,L|372:336,1,44.9999976158143
148,212,174606,1,0,0:0:0:0:
136,168,174718,2,0,L|184:108,1,44.9999976158143
344,36,174941,1,0,0:0:0:0:
384,76,175053,5,0,0:0:0:0:
396,120,175165,2,0,L|348:180,1,44.9999976158143
328,184,175501,5,0,0:0:0:0:
124,124,175949,1,0,0:0:0:0:
124,124,176397,1,0,0:0:0:0:
460,344,176620,1,0,0:0:0:0:
52,44,176844,1,0,0:0:0:0:
460,44,177068,1,0,0:0:0:0:
460,44,177180,1,0,0:0:0:0:
460,44,177292,6,0,P|416:136|336:144,1,179.999990463257
364,64,177964,1,0,0:0:0:0:
168,160,178188,1,0,0:0:0:0:
192,220,178300,1,0,0:0:0:0:
232,264,178412,1,0,0:0:0:0:
164,176,178635,5,0,0:0:0:0:
188,236,178747,1,0,0:0:0:0:
228,280,178859,1,0,0:0:0:0:
352,288,178971,1,0,0:0:0:0:
460,228,179083,6,0,P|396:172|312:168,1,134.999992847443
72,324,179531,2,0,P|120:228|148:200,1,134.999992847443
248,128,179979,1,0,0:0:0:0:
262,95,180091,1,0,0:0:0:0:
295,109,180203,1,0,0:0:0:0:
280,142,180315,1,0,0:0:0:0:
224,137,180426,1,0,0:0:0:0:
253,71,180538,1,0,0:0:0:0:
319,100,180650,1,0,0:0:0:0:
290,166,180762,1,0,0:0:0:0:
72,124,180874,6,0,P|136:36|184:24,1,134.999992847443
200,24,181322,1,0,0:0:0:0:
256,32,181434,1,0,0:0:0:0:
312,52,181546,1,0,0:0:0:0:
364,76,181658,1,0,0:0:0:0:
407,100,181770,2,0,L|372:128,1,44.9999976158143
400,212,181994,2,0,L|413:168,1,44.9999976158143
468,136,182218,2,0,L|520:116,3,44.9999976158143
248,208,182665,6,0,L|192:224,3,44.9999976158143
364,76,183113,6,0,L|388:24,3,44.9999976158143
504,120,183561,5,0,0:0:0:0:
383,35,183785,1,0,0:0:0:0:
208,220,184009,1,0,0:0:0:0:
232,64,184232,1,0,0:0:0:0:
232,64,184344,1,0,0:0:0:0:
232,64,184456,6,0,P|272:136|308:144,1,89.9999952316285
424,184,184904,2,0,L|484:220,1,44.9999976158143
488,264,185128,1,0,0:0:0:0:
496,312,185240,1,0,0:0:0:0:
465,350,185352,2,0,L|413:326,1,44.9999976158143
236,304,185576,2,0,L|288:264,1,44.9999976158143
462,223,185800,2,0,L|374:215,1,44.9999976158143
341,342,186024,2,0,L|353:286,1,44.9999976158143
354,282,186247,5,0,0:0:0:0:
292,136,186471,1,0,0:0:0:0:
252,100,186583,1,0,0:0:0:0:
200,80,186695,1,0,0:0:0:0:
48,160,186919,2,0,L|112:196,1,44.9999976158143
148,208,187143,1,0,0:0:0:0:
444,100,187367,1,0,0:0:0:0:
188,72,187591,1,0,0:0:0:0:
320,80,187815,2,0,L|364:32,1,44.9999976158143
314,129,188038,6,0,L|350:46,1,89.9999952316285
232,168,188486,2,0,P|284:224|340:216,1,134.999992847443
177,276,188934,2,0,P|125:332|60:332,1,134.999992847443
48,152,189382,2,0,L|85:233,1,89.9999952316285
85,233,189718,1,0,0:0:0:0:
85,233,189829,5,0,0:0:0:0:
416,56,190277,1,0,0:0:0:0:
444,312,190725,1,0,0:0:0:0:
350,162,190948,1,0,0:0:0:0:
271,120,191172,1,0,0:0:0:0:
410,229,191397,2,0,P|376:240|320:232,1,56.2499970197678
312,228,191620,6,0,P|240:236|184:272,1,134.999992847443
159,304,192068,1,0,0:0:0:0:
140,345,192180,1,0,0:0:0:0:
280,336,192292,2,0,L|256:288,1,44.9999976158143
220,160,192516,5,0,0:0:0:0:
240,104,192628,1,0,0:0:0:0:
288,64,192740,1,0,0:0:0:0:
344,48,192852,1,0,0:0:0:0:
380,40,192964,5,0,0:0:0:0:
316,36,193076,1,0,0:0:0:0:
248,44,193188,1,0,0:0:0:0:
192,84,193300,1,0,0:0:0:0:
148,128,193412,5,0,0:0:0:0:
368,204,193635,1,0,0:0:0:0:
268,152,193859,1,0,0:0:0:0:
408,312,194083,1,0,0:0:0:0:
84,44,194307,6,0,L|160:56,1,44.9999976158143
236,140,194531,2,0,L|180:124,1,58.4999942226413
260,224,194755,2,0,L|332:248,1,71.9999961853028
372,322,194979,2,0,L|452:351,1,85.4999931869509
248,284,195203,5,0,0:0:0:0:
192,264,195315,1,0,0:0:0:0:
152,216,195427,1,0,0:0:0:0:
136,160,195539,1,0,0:0:0:0:
128,124,195651,5,0,0:0:0:0:
124,188,195763,1,0,0:0:0:0:
132,256,195875,1,0,0:0:0:0:
172,312,195987,1,0,0:0:0:0:
224,344,196098,5,0,0:0:0:0:
244,288,196210,1,0,0:0:0:0:
292,248,196322,1,0,0:0:0:0:
348,232,196434,1,0,0:0:0:0:
384,224,196546,5,0,0:0:0:0:
320,220,196658,1,0,0:0:0:0:
252,228,196770,1,0,0:0:0:0:
196,268,196882,1,0,0:0:0:0:
172,312,196994,5,0,0:0:0:0:
376,48,197441,1,0,0:0:0:0:
40,328,197889,1,0,0:0:0:0:
436,68,198113,1,0,0:0:0:0:
44,284,198337,1,0,0:0:0:0:
256,192,198785,1,0,0:0:0:0:
256,192,199009,12,0,202367,0:0:0:0:
