osu file format v6

[General]
AudioFilename: +++-+abracadabra.mp3
AudioLeadIn: 0
PreviewTime: 45413
Countdown: 1
SampleSet: Normal
StackLeniency: 0.7
Mode: 0
LetterboxInBreaks: 1

[Editor]
Bookmarks: 15648,29945,45413,61820,68148,106820,120413,165413
DistanceSpacing: 1
BeatDivisor: 2
GridSize: 8

[Metadata]
Title:Abracadabra
Artist:Brown Eyed Girls
Creator:mydoctor93
Version:Hard
Source:
Tags:

[Difficulty]
HPDrainRate:7
CircleSize:5
OverallDifficulty:7
SliderMultiplier:1.4
SliderTickRate:1

[Events]
//Background and Video events
0,0,"Sound-G.jpg"
//Break Periods
2,30153,44521
2,62028,67256
2,107027,119521
//Storyboard Layer 0 (Background)
//Storyboard Layer 1 (Fail)
//Storyboard Layer 2 (Pass)
//Storyboard Layer 3 (Foreground)
//Storyboard Sound Samples
//Background Colour Transformations
3,100,163,162,255

[TimingPoints]
421.78713301254,468.75,4,1,0,80,1,0
157913,-100,4,1,0,80,0,1

[HitObjects]
64,64,15656,1,0
128,64,15890,1,0
96,128,16124,1,0
160,128,16359,2,0,B|224:128,1,70
192,64,16828,1,0
256,64,17062,1,0
320,64,17296,6,0,B|384:64,3,35
384,64,17765,1,0
448,64,17999,2,0,B|448:128,1,35
424,120,18234,2,0,B|328:120,1,70
283,120,18703,1,0
213,120,18937,1,0
192,56,19171,5,0
120,56,19406,2,0,B|56:56,1,35
96,160,19874,1,0
96,224,20109,2,0,B|192:224,1,70
128,288,20578,2,0,B|224:288,1,70
256,288,21046,6,0,B|256:224|256:192,1,70
320,256,21515,2,0,B|320:160,1,70
384,160,21984,2,0,B|384:256,1,70
448,192,22453,2,0,B|448:288,1,70
320,320,23156,5,0
256,320,23390,1,0
192,320,23624,1,0
128,320,23859,1,0
160,256,24093,1,0
224,256,24328,2,0,B|320:256,1,70
352,256,24796,5,0
320,192,25031,1,0
288,128,25265,1,0
224,128,25499,1,0
256,192,25734,2,0,B|160:192,1,70
160,128,26203,1,0
128,192,26437,1,0
96,256,26671,6,0,B|160:256,1,35
192,256,27023,1,0
288,256,27374,1,0
256,192,27609,1,0
320,192,27843,1,0
288,128,28078,1,0
352,128,28312,1,0
416,128,28546,2,0,B|352:256,1,140
416,256,29249,1,0
288,320,29718,5,0
288,320,29953,1,0
128,128,45421,6,0,B|160:96|192:96,1,70
256,96,45890,2,0,B|288:96|320:128,1,70
352,192,46359,2,0,B|352:224|320:256,1,70
256,288,46828,2,0,B|224:288|192:256,1,70
160,192,47296,1,0
224,192,47531,1,0
192,128,47765,1,0
256,128,47999,1,0
224,64,48234,2,0,B|288:64|320:64,1,70
320,128,48703,2,0,B|320:224,1,70
384,256,49171,5,0
320,256,49406,1,0
352,192,49640,1,0
288,192,49874,1,0
256,128,50109,2,0,B|256:56,1,70
192,96,50578,2,0,B|96:96,1,70
96,160,51046,5,0
64,224,51281,1,0
96,288,51515,1,0
128,224,51749,1,0
160,288,51984,2,0,B|200:216,1,70
160,160,52453,2,0,B|256:160,1,70
288,96,52921,6,0,B|352:32,1,70,0|0
400,48,53390,2,0,B|464:112,1,70
448,160,53859,2,0,B|384:224,1,70
336,208,54328,2,0,B|272:144,1,70
224,160,54796,1,0
160,128,55031,1,0
96,160,55265,1,0
160,192,55499,1,0
96,224,55734,2,0,B|96:320,1,70
160,264,56203,2,0,B|320:264,1,140
352,192,56906,5,0
288,160,57140,1,0
352,128,57374,1,0
224,64,57843,1,0
160,64,58078,1,0
192,128,58312,1,0
64,192,58781,5,0
96,256,59015,1,0
160,256,59249,1,0
192,192,59484,1,0
128,192,59718,1,0
128,128,59953,1,0
192,128,60187,1,0
256,128,60421,2,0,B|320:96|384:96|352:160|320:192|288:224|480:160,1,280
256,192,61828,5,0
64,64,68156,5,0
128,64,68390,1,0
192,64,68624,1,0
160,128,68859,2,0,B|64:128,2,70
224,128,69562,1,0
288,128,69796,5,0
256,192,70031,1,0
192,192,70265,1,0
224,256,70499,1,0
288,256,70734,1,0
352,256,70968,1,0
384,192,71203,1,0
352,128,71437,1,0
320,192,71671,6,0,B|288:224,1,35
224,256,72023,1,0
96,256,72374,1,0
96,184,72609,1,0
64,120,72843,1,0
136,120,73078,1,0
160,192,73312,1,0
200,256,73546,2,0,B|248:192|200:120,1,140
280,120,74249,2,0,B|312:184,1,70
384,184,74718,5,0
384,184,74953,1,0
416,320,75421,6,0,B|384:352|352:320,1,70
288,320,75890,2,0,B|256:288|224:320,1,70
160,320,76359,2,0,B|128:288|160:256,1,70
160,192,76828,2,0,B|192:160|160:128,1,70
96,96,77296,2,0,B|128:64|160:64,1,70
192,64,77648,1,0
288,64,77999,1,0
416,128,78468,1,0
416,128,78703,1,0
384,272,79171,6,0,B|368:256|352:272,1,35
256,272,79640,1,0
192,272,79874,2,0,B|160:240|192:208,1,70
192,136,80343,1,0
192,136,80578,1,0
336,128,81046,6,0,B|352:112|368:128,1,35
352,224,81515,1,0
288,224,81749,2,0,B|256:192|224:224,1,70
184,168,82218,1,0
184,168,82453,1,0
48,96,82921,6,0,B|112:32|176:96,3,140
320,80,84796,2,0,B|352:48|384:80,1,70
400,112,85148,1,0
304,160,85499,1,0
176,192,85968,1,0
176,192,86203,1,0
64,96,86671,6,0,B|96:64|128:96,1,70
192,96,87140,1,0
272,96,87433,2,0,B|288:80|304:96,1,35
384,96,87843,1,0
384,96,88078,1,0
352,224,88546,6,0,B|320:192|288:224,1,70
224,224,89015,1,0
144,224,89308,2,0,B|128:208|112:224,1,35
80,144,89718,2,0,B|80:96,2,35
192,64,90421,6,0,B|288:64,1,70
320,64,90890,2,0,B|320:160,1,70
320,192,91359,2,0,B|416:192,1,70
384,256,91828,2,0,B|288:256,1,70
256,256,92296,1,0
256,192,92531,1,0
192,192,92765,1,0
192,256,92999,1,0
136,216,93234,2,0,B|136:120,1,70
192,128,93703,2,0,B|288:128,1,70
320,96,94171,5,0
384,96,94406,1,0
448,128,94640,1,0
384,160,94874,1,0
320,160,95109,2,0,B|256:128,1,70
256,192,95578,2,0,B|256:288,1,70
192,256,96046,5,0
128,288,96281,1,0
64,288,96515,1,0
0,256,96749,1,0
64,224,96984,2,0,B|136:224,1,70
96,160,97453,2,0,B|96:64,1,70
160,64,97921,6,0,B|256:64,1,70
288,96,98390,2,0,B|320:128|288:160,1,70
224,192,98859,2,0,B|128:192,1,70
96,160,99328,2,0,B|64:128|96:96,1,70
160,64,99796,1,0
160,128,100031,1,0
224,96,100265,1,0
224,160,100499,1,0
288,128,100734,2,0,B|288:224,1,70
224,224,101203,2,0,B|160:288|96:224,1,140
64,160,101906,5,0
96,96,102140,1,0
128,160,102374,1,0
256,160,102843,1,0
288,224,103078,1,0
320,160,103312,1,0
256,64,103781,5,0
192,64,104015,1,0
128,64,104249,1,0
160,128,104484,2,0,B|160:224,1,70
224,192,104953,1,0
224,128,105187,1,0
288,128,105421,2,0,L|288:224|384:224|384:128,1,280
256,64,106827,5,0
64,96,120421,6,0,B|96:64|128:96,1,70
150,118,120773,1,0
256,120,121124,1,0
320,96,121359,2,0,B|352:64|384:96,1,70
406,118,121710,1,0
408,224,122062,1,0
336,240,122296,2,0,B|304:272|272:240,1,70
249,217,122648,1,0
152,192,122999,1,0
152,192,123234,1,0
256,64,124171,6,0,B|224:96|256:128,1,70
278,150,124523,1,0
384,152,124874,1,0
416,216,125109,2,0,B|448:248|416:280,1,70
393,302,125460,1,0
288,302,125812,1,0
218,302,126046,2,0,B|186:270|218:238,1,70
241,215,126398,1,0
256,112,126749,1,0
256,112,126984,1,0
64,96,127921,6,0,B|96:64|128:96,1,70
160,93,128273,1,0
265,93,128624,1,0
335,93,128859,2,0,B|399:29|463:93,1,140
458,228,129796,6,0,B|426:260|394:228,1,70
362,231,130148,1,0
257,231,130499,1,0
187,231,130734,2,0,B|123:295|59:231,1,140
163,137,131671,5,0
113,87,131906,1,0
113,87,132023,1,0
218,87,132374,1,0
288,88,132609,1,0
288,157,132843,1,0
288,157,132960,1,0
213,232,133312,1,0
143,232,133546,1,0
94,182,133781,1,0
94,182,133898,1,0
94,77,134249,1,0
164,77,134484,1,0
164,147,134718,5,0
164,147,134953,1,0
304,128,135421,6,0,B|336:96|368:128,1,70
435,125,135890,1,0
464,192,136124,2,0,B|432:224|400:192,1,70
332,194,136593,1,0
312,264,136828,1,0
256,224,137062,5,0
206,273,137296,2,0,B|174:305|142:273,1,70
145,205,137765,1,0
75,205,137999,2,0,B|43:173|75:141,1,70
142,144,138468,1,0
213,144,138703,1,0
262,193,138937,5,0
416,96,139874,5,0
416,96,139992,1,0
416,96,140109,2,0,B|320:96,1,70
346,96,140460,1,0
344,96,140578,2,0,B|312:128|344:160,1,70,0|0
341,157,141046,1,0
256,192,141515,5,0
256,192,141749,1,0
128,128,142218,5,0
160,64,142453,1,0
96,64,142687,1,0
64,128,142921,2,0,B|64:224,1,70
64,198,143273,2,0,B|180:198,1,105
239,198,143859,1,0
239,128,144093,5,0
239,57,144328,1,0
309,57,144562,1,0
309,127,144796,2,0,B|405:127,1,70
378,127,145148,2,0,B|378:243,1,105
329,282,145734,1,0
259,282,145968,6,0,B|195:282,2,35
259,212,146437,2,0,B|259:148,1,35
259,142,146671,2,0,B|227:110|195:142,1,70
173,164,147023,1,0
173,269,147374,1,0
102,269,147609,2,0,B|70:237|102:205,1,70
100,137,148078,1,0
232,192,148546,5,0
232,192,149015,1,0
232,51,149484,2,0,B|264:83|296:51,1,70
328,54,149835,2,0,B|363:-11|427:52,1,105
392,104,150413,5,0
491,203,150882,1,0
392,302,151351,1,0
292,203,151820,1,0
184,288,152288,1,0
112,288,152523,1,0
48,256,152757,1,0
112,224,152991,1,0
184,224,153226,2,0,B|184:128,1,70
112,160,153695,2,0,B|48:192,1,70
48,120,154163,5,0
112,88,154398,1,0
176,120,154632,1,0
112,152,154866,1,0
168,192,155100,2,0,B|232:160,3,70
296,128,156038,5,0
296,198,156273,1,0
226,198,156507,1,0
200,264,156741,1,0
269,264,156975,2,0,B|341:264,3,70
389,214,157913,6,0,B|453:150|389:86,3,140
256,64,159788,1,0
192,96,160023,1,0
256,128,160257,1,0
192,160,160491,1,0
256,192,160726,2,0,B|256:288,1,70
192,224,161195,2,0,B|160:192|128:224,1,70
256,192,161663,12,0,165413
