osu file format v7

[General]
AudioFilename: Club Bizarre.mp3
AudioLeadIn: 0
PreviewTime: 164884
Countdown: 0
SampleSet: Soft
StackLeniency: 0.7
Mode: 0
LetterboxInBreaks: 0
StoryFireInFront: 0
EpilepsyWarning: 1

[Editor]
DistanceSpacing: 0.5
BeatDivisor: 8
GridSize: 8

[Metadata]
Title:Club Bizarre (Headhunterz vs Noisecontrollers Remix)
Artist:Brooklyn Bounce
Creator:iPown3G
Version:No-style
Source:
Tags:Brooklyn Bounce Club Bizarre Hardstyle Headhunterz Noiscontrollers Scantraxx Hardstyle Jumpstyle Rave Trance Techno

[Difficulty]
HPDrainRate:5
CircleSize:5
OverallDifficulty:5
SliderMultiplier:1.4
SliderTickRate:2

[Events]
//Background and Video events
0,0,"Clubbizarre.jpg"
//Break Periods
2,51484,68084
2,134684,139284
//Storyboard Layer 0 (Background)
//Storyboard Layer 1 (Fail)
//Storyboard Layer 2 (Pass)
//Storyboard Layer 3 (Foreground)
//Storyboard Sound Samples
//Background Colour Transformations
3,100,255,255,255

[TimingPoints]
84,400,4,2,0,100,1,0
13100,-100,4,2,0,0,0,0
13600,-100,4,2,0,100,0,0
25600,-100,4,1,0,100,0,0
25900,-100,4,2,0,100,0,0
32000,-100,4,1,0,100,0,0
34400,-100,4,2,0,100,0,0
35200,-100,4,1,0,100,0,0
49834,-100,4,2,0,100,0,0
67100,-100,4,2,0,100,0,0
70384,-100,4,1,0,100,0,0
74184,-100,4,2,0,0,0,0
74584,-100,4,1,0,100,0,0
76800,-100,4,1,0,100,0,1
95384,-100,4,2,0,100,0,0
96000,-100,4,1,0,100,0,1
115600,-100,4,2,0,100,0,0
140600,-100,4,1,0,100,0,0
141000,-100,4,2,0,100,0,0
143584,-100,4,1,0,100,0,0
144100,-100,4,2,0,100,0,0
145184,-100,4,1,0,100,0,0
165784,-100,4,1,0,0,0,0
166400,-100,4,1,0,100,0,1
177684,-100,4,2,0,100,0,0
179200,-100,4,1,0,100,0,1
203434,-100,4,2,0,100,0,0
229100,-100,4,2,0,0,0,0
230250,400,4,2,0,100,1,0

[Colours]
Combo1 : 0,128,255
Combo2 : 255,255,0
Combo3 : 128,255,0
Combo4 : 0,255,128
Combo5 : 0,255,255

[HitObjects]
168,136,11684,2,0,B|96:104,5,70
136,120,12884,2,0,B|296:192,1,157.5
336,208,13684,1,0
272,192,14084,2,0,B|184:192,1,70
80,72,15284,2,0,B|232:72|352:176,1,280
232,192,18084,6,0,B|232:104,1,70
232,88,18484,2,0,B|152:88,1,70
128,88,18884,2,0,B|128:168,1,70
128,192,19284,1,0
336,192,20084,6,0,B|336:112|272:64,1,140
248,48,20684,1,0
256,224,21884,1,0
256,152,22284,2,0,B|256:64|152:64|152:64|80:64|80:160|80:160|80:232|176:232|176:232|248:232|256:128,1,560
336,208,24484,6,0,B|256:208,1,70
264,176,24884,2,0,B|264:88,1,70
296,104,25284,2,0,B|384:104,1,70
368,136,25684,1,0
256,224,26484,6,0,B|256:144|144:144,1,140
128,168,27084,1,0
256,48,28084,2,0,B|256:136,1,70
256,192,28684,2,0,B|256:280,3,70
448,192,30884,6,0,B|360:192,1,70
376,224,31284,2,0,B|296:224,1,70
304,256,31684,2,0,B|224:256,1,70
256,192,32084,12,0,33684
256,240,34884,6,0,B|112:240,1,140
112,96,36084,1,0
216,192,36884,2,0,B|368:192,1,140
392,192,37484,1,0
320,112,38084,2,0,B|256:72|176:112,1,140,0|4
256,128,38884,5,0
256,200,39284,1,0
312,240,39684,2,0,B|256:304|184:240,1,140,0|4
256,200,40484,1,0
256,128,40884,1,0
256,56,41284,6,0,B|256:-32,2,70,0|0|4
184,56,42084,1,0
112,56,42484,1,0
112,128,42884,6,2,B|40:128,2,70,2|0|2
184,128,43684,1,0
256,128,44084,1,0
328,128,44484,2,0,B|416:128|416:232,1,140,0|8
416,288,45284,6,0,B|336:288|336:176,1,140
264,192,46084,2,2,B|176:192|176:96,1,140
104,104,46884,1,0
104,176,47284,1,0
176,176,47684,6,2,B|264:176|264:280,1,140
336,264,48484,1,0
336,192,48884,1,0
336,120,49284,6,2,B|296:56|296:56|272:128,1,140
256,184,50084,6,0,B|168:184,2,70
256,216,50684,2,0,B|336:216,2,70
256,248,51284,1,0
256,144,69284,6,0,B|256:64,1,70
256,40,69684,2,0,B|176:40,1,70
152,40,70084,2,0,B|64:40,1,70
80,72,70484,1,4
256,192,72084,5,4
184,64,73684,6,4,B|328:64,1,140
256,64,74484,2,0,B|256:208,1,140,0|4
256,192,76484,6,0,B|256:240|208:240,2,70,0|0|4
256,264,77284,1,0
256,336,77684,1,0
312,296,78084,6,0,B|360:296|360:240,1,70
360,216,78484,1,4
360,144,78884,1,0
360,72,79284,1,0
288,72,79684,6,0,B|224:128,1,70
208,144,80084,1,4
152,192,80484,2,0,B|152:272|256:272,1,140
256,200,81284,6,0,B|256:112,1,70
288,136,81684,1,2
288,208,82084,1,0
312,272,82484,1,0
256,312,82884,6,2,B|176:312|128:264,1,122.5
136,200,83684,1,2
136,128,84084,1,2
208,128,84484,6,2,B|296:128|344:176,1,140
344,240,85284,1,8
344,312,85684,1,8
272,312,86084,6,2,B|192:312,2,70,2|2|4
256,248,86884,1,0
256,176,87284,1,0
256,104,87684,6,2,B|256:32,2,70
256,144,88484,1,4
256,216,88884,2,2,B|256:368,1,140
256,288,89684,6,0,B|104:288,1,140
112,216,90484,2,0,B|256:216,1,140
184,192,91284,2,0,B|184:40,1,140
256,56,92084,1,4
256,128,92484,6,2,B|304:128|304:184,1,70
296,208,92884,1,2
232,200,93284,1,4
160,200,93684,1,4
88,200,94084,6,2,B|88:272,2,70
88,120,94834,1,4
168,120,95284,2,0,B|256:120,1,70,4|0
216,96,95684,2,0,B|304:96,1,70
304,128,96084,5,4
304,200,96484,1,0
304,272,96884,1,0
248,224,97284,6,0,B|248:144,2,70,0|0|4
184,192,98084,2,4,B|112:192,2,70
184,120,98884,6,0,B|272:120,2,70,4|0|4
184,192,100484,6,4,B|272:192,2,70
256,192,102484,5,4
224,128,102884,5,2
288,96,103284,1,2
320,160,103684,2,2,B|320:240,2,70,2|2|4
256,184,104484,5,4
256,256,104884,1,4
192,224,105284,2,4,B|192:136,2,70
256,192,106084,5,8
256,120,106484,2,0,B|400:120,1,140
432,120,107084,2,0,B|480:120,2,35,4|4|4
432,192,107684,5,0
432,264,108084,2,0,B|344:264,4,70,0|8|2|2|4
256,144,110084,6,2,B|176:144,2,70
256,192,111684,6,0,B|256:104,2,70
200,152,112484,1,4
136,120,112884,1,4
64,120,113284,2,4,B|64:200,2,70
256,96,116084,6,0,B|256:240,1,140
256,272,116684,1,0
296,104,117684,2,0,B|208:104,1,70
120,96,118284,2,0,B|120:240|328:240,1,280
376,64,120484,6,0,B|288:64,6,70,2|0|2|0|2|0|4
256,128,122484,2,0,B|256:280,1,140
256,268,123084,2,0,B|336:304|408:272|408:272|464:248|480:168,1,280
336,192,124684,2,0,B|120:192,3,210
136,120,126884,6,0,B|136:80|200:80,1,70
184,112,127284,2,0,B|184:160|128:160,1,70
144,120,127684,2,0,B|104:120|104:176,1,70
104,200,128084,1,4
256,192,128884,5,0
256,120,129284,2,0,B|256:32,1,70,0|4
256,192,130484,2,0,B|256:280,1,70
256,328,131084,2,0,B|104:168,3,210
176,152,133284,6,0,B|176:112|224:112,2,70
176,152,133884,2,0,B|176:200|232:200,2,70
176,152,134484,1,4
256,64,140484,6,0,B|256:216,1,140
256,272,141284,1,0
256,200,141684,1,0
288,136,142084,2,0,B|208:136,1,70
128,192,142884,5,0
128,264,143284,1,0
184,224,143684,2,2,B|272:224,1,70
254,224,143984,1,2
312,160,144484,5,0
240,160,144884,1,0
280,104,145284,2,0,B|192:104,1,70
210,104,145584,1,0
256,176,146084,5,0
256,248,146484,1,2
216,304,146884,2,2,B|296:304,2,70,2|2|4
256,192,147684,5,0
256,120,148084,1,0
288,56,148484,2,0,B|200:56,1,70
218,56,148784,1,0
152,112,149284,5,0
152,184,149684,1,0
112,240,150084,2,0,B|192:240,1,70
182,240,150384,1,0
256,192,150884,5,0
256,120,151284,1,0
256,48,151684,2,0,B|256:120,1,70
256,120,151984,1,0
256,208,152484,6,0,B|208:208|208:264,1,70
208,249,152884,2,0,B|208:288|160:288,1,70
160,287,153284,2,0,B|112:288|112:240,1,70
112,248,153684,1,4
112,176,154084,5,0
184,176,154484,1,0
256,176,154884,1,0
288,176,155084,1,0
256,280,155684,5,0
184,280,156084,1,0
112,280,156484,1,0
112,224,156784,2,0,B|112:112,1,105
112,136,157284,5,0
112,64,157684,1,0
184,64,158084,1,0
184,120,158384,2,0,B|304:120,1,105
360,120,159084,1,0
464,120,159684,2,4,B|464:200,2,70
256,192,160484,12,0,164484
256,336,166084,6,0,B|256:192,1,140,0|4
288,136,166884,1,0
216,136,167284,1,0
256,192,167684,1,0
256,224,167884,1,0
216,320,168484,5,0
288,320,168884,1,0
256,256,169284,2,0,B|256:168,1,70,2|0
256,184,169584,1,2
168,184,170084,5,0
96,184,170484,1,0
24,192,170884,2,0,B|64:128,1,70,2|0
61,132,171184,1,2
256,192,172884,5,4
256,120,173284,5,0
256,48,173684,1,0
256,120,174084,2,0,B|256:208,1,70
256,192,174384,1,0
192,248,174884,5,0
192,320,175284,1,0
256,296,175684,2,0,B|256:384,1,70
256,368,175984,1,0
336,312,176484,5,0
384,264,176884,1,0
440,216,177284,2,0,B|368:192,1,70
373,193,177584,2,0,B|264:192,1,105
200,192,178284,1,0
96,192,178884,2,0,B|96:336,1,140,0|4
152,296,179684,5,4
200,248,180084,1,4
256,200,180484,2,2,B|256:120,1,70
256,24,181284,5,0
184,24,181684,1,0
112,24,182084,2,0,B|32:24,1,70,4|0
42,24,182384,2,4,B|40:144,1,105
40,128,182884,2,4,B|192:128,1,140
248,136,183684,5,0
248,168,183884,2,0,B|248:208,10,35,0|0|0|0|0|0|0|0|0|0|4
256,240,185284,2,8,B|256:328,2,70,8|8|4
256,168,186084,5,8
256,96,186484,1,2
184,96,186884,2,6,B|112:96,1,70
114,96,187184,1,6
112,184,187684,5,4
184,184,188084,1,4
256,184,188484,2,0,B|336:184,1,70,6|2
326,184,188784,1,6
256,240,189284,5,4
256,312,189684,1,4
256,240,190084,6,4,B|296:240,3,35,4|0|0|4
256,112,192084,5,4
256,184,192484,1,4
256,256,192884,1,4
256,184,193284,2,2,B|256:96,1,70
168,168,194084,5,4
176,96,194484,1,4
232,136,194884,2,0,B|304:176,1,70
293,169,195184,1,0
256,248,195684,5,0
328,248,196084,1,0
400,248,196484,6,4,B|480:248,1,70
470,248,196784,2,4,B|392:160,1,105,4|0
344,128,197484,1,0
240,120,198084,2,4,B|160:120,2,70
256,192,198884,5,0
256,264,199284,1,0
256,336,199684,2,4,B|176:336,1,70,6|4
186,336,199984,1,6
96,336,200484,2,2,B|96:192,1,140
168,192,201284,6,4,B|248:192,1,70,6|4
238,192,201584,1,6
256,104,202084,1,4
256,32,202484,1,4
256,104,202884,2,0,B|256:152,3,35,4|8|8|4
256,192,204884,5,4
360,288,205684,2,0,B|224:288,1,122.5
237,288,206284,2,0,B|88:288|88:160|88:160|88:16|288:16,1,490
288,248,210084,6,0,B|208:248,6,70,2|0|2|0|2|0|4
256,112,212084,5,0
256,184,212484,1,0
256,216,212684,2,0,B|168:216|168:216|168:272|168:272|320:272|320:272|320:344|320:344|112:344,1,560
208,128,216484,6,0,B|288:128,2,70
208,128,217084,2,0,B|120:128,2,70
208,128,217684,1,4
256,256,218484,6,0,B|376:256,1,105
361,256,218984,2,0,B|360:32|128:32,1,350
148,32,220184,1,0
152,104,220584,1,4
264,224,222784,6,0,B|176:224,1,70
160,224,223184,1,0
128,224,223384,1,0
96,224,223584,2,0,B|96:144,1,70
96,120,223984,1,4
