osu file format v6

[General]
AudioFilename: Bronco (El Gigante de America) - Chocheman.mp3
AudioLeadIn: 0
PreviewTime: 47849
Countdown: 0
SampleSet: Normal
StackLeniency: 1
Mode: 0
LetterboxInBreaks: 1

[Editor]
Bookmarks: 11257,22966,31748,48336,56142,63948,72893,93221,109809,117616,125422,140221
DistanceSpacing: 0
BeatDivisor: 3
GridSize: 8

[Metadata]
Title:Chocheman
Artist:Bronco (El Gigante de America)
Creator:Gens
Version:Facil
Source:
Tags:grupero norteno nortena mexico mexican mexicanos choche man

[Difficulty]
HPDrainRate:3
CircleSize:4
OverallDifficulty:1
SliderMultiplier:1.2
SliderTickRate:3

[Events]
//Background and Video events
0,0,"chochefondo.png"
Video,500,"chochevideo.flv"
//Break Periods
2,73093,91704
//Storyboard Layer 0 (Background)
//Storyboard Layer 1 (Fail)
//Storyboard Layer 2 (Pass)
//Storyboard Layer 3 (Foreground)
//Storyboard Sound Samples
//Background Colour Transformations
3,100,0,128,192

[TimingPoints]
11420,487.884208814441,4,1,0,60,1,0
22966,-100,4,2,0,100,0,0
26544,-100,4,1,0,60,0,0
49474,-100,4,1,0,65,0,1
55329,-100,4,1,0,60,0,0
65087,-100,4,1,0,65,0,1
70941,-100,4,1,0,60,0,0
72893,-100,4,1,0,65,0,1
73056,-100,4,1,0,60,0,0
110948,-100,4,1,0,65,0,1
116802,-100,4,1,0,60,0,0
126560,-100,4,1,0,65,0,1
134854,-100,4,2,0,100,0,1
135179,-100,4,1,0,65,0,1
136806,-100,4,2,0,100,0,1
137294,-100,4,1,0,65,0,1
140058,-100,4,1,0,60,0,0
140221,-100,4,1,0,65,0,1

[HitObjects]
376,64,11420,6,0,B|256:32|136:64,1,240,6|0
256,152,13371,1,2
176,152,13859,1,2
136,216,14347,6,0,B|256:248|376:216,1,240,6|0
336,152,16786,1,2
256,152,17274,1,2
176,152,17762,1,2
168,80,18250,6,0,B|168:-8|344:-8|344:80,1,240,6|0
304,136,20201,1,2
232,152,20689,1,2
168,192,21177,6,0,B|168:280|344:280|344:192,1,240,6|0
304,40,23129,5,8
208,40,23617,1,2
256,120,24104,1,4
352,120,24592,5,8
352,120,25080,1,8
304,208,25568,1,2
208,208,26056,1,4
256,296,26544,5,8
352,296,27032,1,8
304,208,27520,1,2
208,208,28008,1,4
256,120,28495,5,8
160,120,28983,1,8
208,32,29471,1,2
304,32,29959,2,0,B|456:32|456:184,1,240,4|4
256,192,32886,5,6
208,32,33862,1,0
112,32,34350,1,0
16,32,34838,1,8
304,32,35814,5,2
400,32,36302,1,2
496,32,36790,1,4
264,104,37765,1,8
168,104,38253,1,8
216,192,38741,1,4
256,336,39717,5,2
296,192,40693,1,4
400,272,41668,5,8
448,192,42156,1,2
400,112,42644,1,4
256,48,43620,5,2
216,192,44596,1,4
112,112,45571,5,8
64,192,46059,1,2
112,272,46547,1,4
256,192,47523,1,0
24,80,48499,6,0,B|136:40|272:40,1,240,0|6
256,160,50450,6,8,B|256:240|184:240,2,120,8|8|6
488,80,52402,6,0,B|376:40|240:40,1,240,0|6
256,160,54353,6,8,B|256:240|328:240,2,120,8|8|6
144,64,56305,5,0
144,64,57281,1,6
368,64,58256,1,2
368,320,59232,1,6
144,320,60207,1,8
160,192,61184,6,0,B|256:56|360:200,2,240,6|8|6
200,296,64111,6,0,B|256:320|320:296,2,120,0|2|6
376,248,66063,6,8,B|416:192|376:128,2,120,8|8|6
312,96,68014,6,0,B|256:72|192:96,2,120,0|2|6
136,144,69966,6,8,B|96:200|136:264,2,120,8|8|6
256,192,71917,5,0
256,192,72405,1,8
256,192,72893,1,6
256,192,93384,5,8
144,104,94360,1,6
312,40,95336,2,8,B|256:72|256:16|192:48,2,120,8|8|4
256,192,97287,5,2
368,104,98263,1,4
200,40,99239,2,8,B|256:72|256:16|320:48,2,120,8|8|4
256,192,101190,5,2
256,368,102166,1,4
112,216,103142,2,2,B|176:88|312:64,1,240,2|4
256,192,105093,5,8
256,368,106069,1,4
400,216,107045,2,2,B|336:88|200:64,1,240,2|12
256,192,108996,1,0
208,40,109972,5,0
304,40,110460,1,2
256,120,110948,1,6
312,272,111924,6,8,B|256:320|200:268,1,120
256,192,112899,1,6
304,40,113875,5,0
208,40,114363,1,2
256,120,114851,1,6
200,272,115827,6,8,B|256:320|312:268,1,120
256,192,116802,1,6
112,152,117778,6,0,B|240:105|226:68|181:84|195:122|345:67,1,240,0|6
408,104,119242,1,0
344,152,119730,1,2
400,208,120218,1,0
344,264,120706,1,6
288,208,121193,1,0
232,264,121681,6,8,B|160:264|160:240|192:240|192:264|112:264,2,120,8|8|4
256,192,123145,1,0
280,120,123633,2,8,B|352:120|352:144|320:144|320:120|400:120,2,120,8|8|6
144,144,125584,6,0,B|104:176|72:88|24:136,2,120,0|2|6
256,40,127536,5,8
256,120,128024,1,8
256,200,128512,1,6
368,240,129487,6,0,B|408:208|440:296|488:248,2,120,0|2|6
256,344,131439,5,8
256,264,131927,1,8
256,184,132415,1,6
128,48,133391,5,0
192,8,133878,2,2,B|320:8,1,120,2|6
376,48,134854,1,4
256,120,135342,6,8,C|264:192|336:192,2,120,8|8|6
136,48,136806,1,4
256,192,137294,12,6,140221
