osu file format v5

[General]
AudioFilename: Britney_Spears_~_Womanizer.mp3
AudioLeadIn: 0
PreviewTime: -1
Countdown: 1
SampleSet: None
StackLeniency: 0.7
Mode: 0
LetterboxInBreaks: 1

[Metadata]
Title:Womanizer
Artist:Britney Spears
Creator:partyvan727
Version:Normal
Source:
Tags:

[Difficulty]
HPDrainRate:5
CircleSize:5
OverallDifficulty:5
SliderMultiplier:1.4
SliderTickRate:1

[Events]
//Background and Video events
1,0,"Womanizer.avi"
//Break Periods
//Storyboard Layer 0 (Background)
//Storyboard Layer 1 (Failing)
//Storyboard Layer 2 (Passing)
//Storyboard Layer 3 (Foreground)
//Storyboard Sound Samples
//Background Colour Transformations
3,100,163,162,255

[TimingPoints]
0,1000,4,0,0,100,1

[HitObjects]
80,122,14326,1,0
128,204,14671,1,0
205,104,15991,1,0
278,188,16846,1,0
348,125,17116,1,0
124,183,18136,1,0
174,117,19426,1,0
236,196,20301,1,0
327,125,20546,1,0
363,222,21161,1,0
363,222,21541,1,0
263,135,22016,1,0
263,135,22421,1,0
204,210,22861,1,0
204,210,23301,1,0
118,106,23746,1,0
118,106,24151,1,0
73,203,24606,1,0
233,124,24876,1,0
310,226,25026,1,0
137,219,26305,5,0
214,118,26570,1,0
305,230,26740,1,0
102,123,27220,1,0
368,138,27630,1,0
91,181,29825,5,0
91,181,30230,1,0
291,171,30689,1,0
291,171,30911,1,0
193,84,31536,1,0
193,84,31955,1,0
84,196,33270,1,0
222,210,33690,1,0
207,93,34160,1,0
154,96,34390,1,0
271,156,34970,1,0
164,192,35830,1,0
224,114,36710,1,0
269,193,37535,1,0
228,233,38450,1,0
132,178,38830,1,0
192,104,40135,1,0
192,104,40520,1,0
276,178,40990,1,0
276,178,41380,1,0
146,141,45290,5,0
314,188,45710,1,0
314,188,46169,1,0
229,237,46605,1,0
105,210,47045,1,0
105,210,47480,1,0
160,141,47900,1,0
303,160,48299,1,0
243,211,48740,1,0
243,211,49170,1,0
243,211,49420,1,0
136,135,49870,1,0
128,205,50468,1,0
128,205,50898,1,0
128,205,51167,1,0
234,156,51575,1,0
230,228,52270,1,0
230,228,52535,1,0
230,228,52653,1,0
162,178,53005,1,0
162,178,53135,1,0
162,178,53400,1,0
162,178,53550,1,0
162,178,53780,1,0
227,144,53940,1,0
227,144,54205,1,0
227,144,54350,1,0
24,150,55700,5,0
24,150,56095,1,0
105,217,56530,1,0
105,217,56985,1,0
142,124,57390,1,0
209,209,57815,1,0
307,125,58225,1,0
341,208,58450,1,0
419,152,58630,1,0
188,244,59120,1,0
188,244,59560,1,0
67,148,59980,1,0
67,148,60405,1,0
171,94,60830,1,0
171,94,61265,1,0
184,203,61670,1,0
263,125,61900,1,0
308,223,62120,1,0
83,179,63260,5,0
83,179,63435,1,0
83,179,63720,1,0
83,179,63845,1,0
83,179,64155,1,0
212,111,65045,1,0
212,111,65190,1,0
212,111,65470,1,0
212,111,65600,1,0
212,111,65860,1,0
312,190,66680,1,0
312,190,66820,1,0
312,190,67100,1,0
312,190,67265,1,0
312,190,67555,1,0
191,118,68435,1,0
191,118,68580,1,0
191,118,68905,1,0
191,118,69020,1,0
231,193,69465,1,0
231,193,69775,1,0
231,193,69900,1,0
231,193,70200,1,0
231,193,70339,1,0
231,193,70665,1,0
231,193,70795,1,0
231,193,71095,1,0
231,193,71255,1,0
231,193,71545,1,0
231,193,71710,1,0
231,193,71930,1,0
231,193,72290,1,0
231,193,72455,1,0
326,140,72955,1,0
326,140,73250,1,0
326,140,73410,1,0
156,120,73670,1,0
156,120,73820,1,0
156,120,74105,1,0
156,120,74259,1,0
238,180,74540,1,0
238,180,74725,1,0
238,180,74975,1,0
238,180,75115,1,0
202,226,75385,1,0
202,226,75550,1,0
202,226,75780,1,0
202,226,75930,1,0
247,118,77115,5,0
247,118,77269,1,0
247,118,77555,1,0
247,118,77704,1,0
247,118,78004,1,0
333,221,78810,1,0
333,221,78950,1,0
333,221,79238,1,0
333,221,79390,1,0
333,221,79689,1,0
74,198,80550,1,0
74,198,80690,1,0
74,198,80969,1,0
74,198,81119,1,0
208,112,81990,1,0
208,112,82265,1,0
208,112,82429,1,0
208,112,82710,1,0
256,192,85170,12,0,92825
46,56,94474,6,0,B|57:285|282:305|384:263|372:64|364:26,1,560
385,83,98732,2,0,B|342:214|220:84|139:207|260:318|70:239|22:100|107:53,1,420
91,104,104033,1,0
204,160,104918,1,0
315,78,105768,1,0
326,222,106648,1,0
195,118,107533,1,0
195,118,107773,1,0
195,118,107908,1,0
92,227,109218,5,0
92,227,109503,1,0
92,227,109628,1,0
207,208,110043,1,0
207,208,110513,1,0
85,84,110923,1,0
85,84,111238,1,0
85,84,111355,1,0
251,125,111663,1,0
251,125,111793,1,0
251,125,112063,1,0
251,125,112218,1,0
251,125,112498,1,0
251,125,112858,1,0
251,125,112998,1,0
176,167,113463,1,0
176,167,113928,1,0
327,224,114363,1,0
192,97,115668,5,0
332,116,116078,1,0
332,116,116457,1,0
256,168,116955,1,0
148,220,117413,1,0
148,220,117663,1,0
178,118,118298,5,0
178,118,118523,1,0
295,196,118898,1,0
259,132,119988,5,0
259,132,120183,1,0
184,209,120612,1,0
109,96,121278,1,0
109,96,121573,1,0
109,96,121703,1,0
243,176,122033,1,0
243,176,122158,1,0
243,176,122448,1,0
243,176,122578,1,0
243,176,122833,1,0
176,184,123068,1,0
176,184,123303,1,0
176,184,123438,1,0
176,184,123663,1,0
57,93,124743,5,0
129,210,125178,1,0
234,91,125603,1,0
281,212,126078,1,0
354,104,126483,1,0
188,104,126907,1,0
155,222,127336,1,0
66,139,127572,1,0
47,115,127702,1,0
155,222,128168,1,0
182,181,128618,1,0
224,116,129057,1,0
269,96,129457,1,0
294,178,129877,1,0
192,212,130328,1,0
168,160,130767,1,0
155,125,131053,1,0
155,125,131183,1,0
211,182,132382,1,0
211,182,132523,1,0
211,182,132802,1,0
211,182,132942,1,0
211,182,133233,1,0
312,133,134057,5,0
312,133,134197,1,0
312,133,134507,1,0
312,133,134647,1,0
312,133,134927,1,0
102,135,135842,5,0
102,135,135972,1,0
102,135,136237,1,0
102,135,136375,1,0
102,135,136633,1,0
228,192,137567,5,0
228,192,137712,1,0
228,192,137982,1,0
228,192,138106,1,0
328,132,138517,5,0
328,132,138992,1,0
244,94,139392,1,0
294,186,139837,1,0
182,181,140257,1,0
195,100,140687,1,0
106,88,141112,1,0
110,184,141377,1,0
158,212,141518,1,0
252,174,141997,1,0
267,97,142442,1,0
176,91,142852,1,0
154,147,143277,1,0
385,177,143687,1,0
346,80,144097,1,0
232,225,144557,1,0
144,167,144817,1,0
220,64,144977,1,0
284,194,145426,1,0
97,108,147177,5,0
329,102,148897,5,0
163,264,150687,5,0
275,150,152387,5,0
142,138,152812,1,0
168,228,153232,1,0
276,241,153657,1,0
256,165,154097,1,0
153,147,154507,1,0
169,225,154962,1,0
259,214,155422,1,0
244,157,155797,1,0
172,144,156182,1,0
236,68,156662,1,0
236,68,156957,1,0
236,68,157117,1,0
236,68,157372,1,0
264,145,157542,1,0
264,145,157837,1,0
264,145,157997,1,0
216,206,158332,1,0
216,206,158477,1,0
216,206,158707,1,0
216,206,158837,1,0
216,206,159062,1,0
216,206,159177,1,0
132,160,165177,5,0
249,140,165327,1,0
229,271,165657,1,0
152,160,167067,5,0
152,160,167502,1,0
212,84,167947,1,0
212,84,168322,1,0
310,152,168757,1,0
310,152,169177,1,0
204,218,169637,1,0
271,143,170102,1,0
271,143,170402,1,0
271,143,170522,1,0
271,143,170812,1,0
179,141,170952,1,0
179,141,171312,1,0
171,196,171797,1,0
184,224,172207,1,0
272,173,172637,1,0
272,173,172897,1,0
86,144,174822,5,0
186,223,175202,1,0
312,149,175487,1,0
453,167,175897,1,0
232,84,176487,1,0
232,84,176967,1,0
178,204,177376,1,0
178,204,177792,1,0
298,190,178251,1,0
298,190,178635,1,0
158,130,179987,5,0
158,130,180405,1,0
203,207,180842,1,0
253,144,181297,1,0
287,209,181672,1,0
287,209,182136,1,0
256,153,182581,1,0
208,214,182986,1,0
153,131,183416,1,0
153,131,183817,1,0
162,196,184276,1,0
225,118,184697,1,0
256,194,185076,1,0
256,194,185511,1,0
284,135,185976,1,0
201,194,186381,1,0
160,130,186866,1,0
118,119,188621,5,0
345,135,190346,5,0
129,280,192041,5,0
330,193,193785,5,0
237,124,194221,1,0
116,140,194641,1,0
151,232,195111,1,0
230,192,195541,1,0
316,125,195961,1,0
336,208,196396,1,0
382,169,196676,1,0
435,129,196806,1,0
244,193,197241,1,0
200,148,197676,1,0
286,114,198101,1,0
313,180,198531,1,0
256,252,198966,1,0
139,198,199406,1,0
92,139,199851,1,0
58,95,200146,1,0
58,95,200286,1,0
239,215,201466,1,0
239,215,201606,1,0
239,215,201866,1,0
239,215,202006,1,0
239,215,202270,1,0
321,157,203149,5,0
321,157,203296,1,0
321,157,203541,1,0
321,157,203706,1,0
321,157,203946,1,0
169,107,204916,5,0
169,107,205036,1,0
169,107,205301,1,0
169,107,205457,1,0
152,199,206311,5,0
152,199,206576,1,0
152,199,206741,1,0
152,199,206986,1,0
11,253,210398,2,0,B|38:54|101:38|217:50|295:78|328:89|371:116|272:186|82:222|92:281|100:296|132:328|216:338|322:336|412:302|432:217|442:122|420:57|508:25,1,980
52,308,217680,2,0,B|43:83|143:59|188:320|380:277,1,420
