osu file format v12

[General]
AudioFilename: Till The World Ends.mp3
AudioLeadIn: 0
PreviewTime: 154670
Countdown: 1
SampleSet: Normal
StackLeniency: 0.7
Mode: 0
LetterboxInBreaks: 0

[Editor]
DistanceSpacing: 0.9
BeatDivisor: 2
GridSize: 4

[Metadata]
Title:Till The World Ends
TitleUnicode:Till The World Ends
Artist:Britney Spears
ArtistUnicode:Britney Spears
Creator:musicage2010
Version:Easy
Source:
Tags:Britney Spears Till The World Ends
BeatmapID:240676
BeatmapSetID:88277

[Difficulty]
HPDrainRate:1
CircleSize:3
OverallDifficulty:2
ApproachRate:3
SliderMultiplier:1.1
SliderTickRate:2

[Events]
//Background and Video events
0,0,"bgb.jpg",1,1
//Break Periods
2,83315,88948
2,188570,198039
//Storyboard Layer 0 (Background)
//Storyboard Layer 1 (Fail)
//Storyboard Layer 2 (Pass)
//Storyboard Layer 3 (Foreground)
//Storyboard Sound Samples
//Background Colour Transformations
3,100,174,0,174

[TimingPoints]
3115.77777777778,454.545454545455,4,1,0,45,1,0
39479,-100,4,2,0,50,0,0
54024,-100,4,1,0,45,0,1
68456,-100,4,1,0,45,0,0
68570,-100,4,1,0,45,0,1
83115,-100,4,1,0,5,0,0
90388,-100,4,1,0,45,0,0
97661,-100,4,1,0,45,0,0
126752,-100,4,1,0,45,0,1
141183,-100,4,1,0,5,0,0
141297,-100,4,1,0,45,0,1
154933,-100,4,1,0,45,0,0
155843,-100,4,1,0,45,0,1
170388,-100,4,1,0,45,0,0
172433,-100,4,1,0,43,0,0
172888,-100,4,1,0,40,0,0
173343,-100,4,1,0,38,0,0
173797,-100,4,1,0,35,0,0
174252,-100,4,1,0,33,0,0
174706,-100,4,1,0,30,0,0
175161,-100,4,1,0,28,0,0
175615,-100,4,1,0,25,0,0
176070,-100,4,1,0,23,0,0
176524,-100,4,1,0,20,0,0
176979,-100,4,1,0,25,0,0
177206,-100,4,1,0,35,0,0
177433,-100,4,1,0,45,0,0
180615,-100,4,1,0,45,0,0
186752,-100,4,1,0,5,0,0
199479,-100,4,1,0,25,0,0
201070,-100,4,1,0,30,0,0
201752,-100,4,1,0,35,0,0
202206,-100,4,1,0,40,0,0
202547,-100,4,1,0,45,0,0
202661,-100,4,1,0,5,0,0
203115,-100,4,1,0,45,0,1
216752,-100,4,1,0,45,0,0
217661,-100,4,1,0,45,0,1
232093,-100,4,1,0,45,0,0
232206,-100,4,1,0,45,0,1
232320,-100,4,1,0,45,0,0

[Colours]
Combo1 : 255,0,255
Combo2 : 4,207,251
Combo3 : 255,103,30

[HitObjects]
208,108,10388,1,0,0:0:0:0:
308,108,10843,1,8,0:0:0:0:
256,192,11297,1,0,0:0:0:0:
204,276,11752,2,0,P|168:236|160:180,2,110,8|0|8,0:0|0:0|0:0,0:0:0:0:
304,276,13115,2,0,P|340:236|348:180,1,110,0|8,0:0|0:0,0:0:0:0:
356,88,14024,6,0,B|316:52|256:48|256:48|196:52|156:88,1,220
192,180,15388,1,8,0:0:0:0:
168,276,15843,2,0,B|224:296|256:340|256:340|288:296|344:276,1,220
316,180,17206,1,8,0:0:0:0:
256,100,17661,5,0,0:0:0:0:
196,180,18115,1,8,0:0:0:0:
256,260,18570,1,0,0:0:0:0:
308,344,19024,2,0,P|256:364|204:344,1,110,8|0,0:0|0:0,0:0:0:0:
152,264,19933,2,0,P|170:208|210:172,1,110,8|0,0:0|0:0,0:0:0:0:
306,176,20843,2,0,P|342:210|360:266,1,110,8|0,0:0|0:0,0:0:0:0:
452,232,21752,5,8,0:0:0:0:
356,60,22661,1,8,0:0:0:0:
160,60,23570,1,8,0:0:0:0:
60,232,24479,1,12,0:0:0:0:
104,320,24933,6,0,P|144:276|156:228,1,110,0|8,0:0|0:0,0:0:0:0:
196,136,25843,2,0,P|256:60|312:136,1,220
256,216,27206,1,8,0:0:0:0:
356,228,27661,2,0,P|368:276|408:320,2,110,0|8|0,0:0|0:0|0:0,0:0:0:0:
452,232,29024,1,8,0:0:0:0:
452,132,29479,2,0,B|448:72|404:40|404:40|348:24|296:56,1,220
356,132,30843,1,8,0:0:0:0:
256,144,31297,6,0,L|256:256,2,110,0|8|0,0:0|0:0|0:0,0:0:0:0:
156,132,32661,1,8,0:0:0:0:
84,200,33115,2,0,P|92:304|192:340,1,220
168,244,34479,1,8,0:0:0:0:
256,200,34933,1,0,0:0:0:0:
256,300,35388,1,8,0:0:0:0:
340,248,35843,6,0,P|408:176|368:68,1,220
312,152,37206,2,0,B|256:148|256:160|200:156,1,110,8|0,0:0|0:0,0:0:0:0:
140,80,38115,1,8,0:0:0:0:
76,156,38570,1,0,0:0:0:0:
140,232,39024,1,8,0:0:0:0:
256,192,39479,12,0,41297,0:0:0:0:
256,316,42206,5,2,0:0:0:0:
172,136,43115,2,0,P|256:76|340:144,1,220
256,192,44479,1,0,0:0:0:0:
256,192,44933,2,0,B|208:232|308:296|256:344,2,165,0|0|0,0:0|0:0|0:0,0:0:0:0:
256,192,46752,12,0,48570,0:0:0:0:
256,72,49479,5,2,0:0:0:0:
120,216,50388,2,0,B|188:236|200:316|200:316|208:248|304:248|312:316|312:316|328:236|396:216,1,440
348,128,52661,1,0,0:0:0:0:
256,88,53115,1,2,0:0:0:0:
164,128,53570,1,0,0:0:0:0:
72,164,54024,5,4,0:0:0:0:
56,260,54479,2,0,P|100:260|152:220,2,110,8|0|8,0:0|0:0|0:0,0:0:0:0:
40,360,55843,2,0,P|176:336|228:280,1,220
256,184,57206,1,8,0:0:0:0:
344,136,57661,6,0,P|256:80|168:136,1,220
280,280,59479,2,0,P|332:336|468:360,1,220
456,260,60843,6,0,P|412:260|360:221,1,110,8|0,0:0|0:0,0:0:0:0:
440,164,61752,1,8,0:0:0:0:
404,64,62206,2,0,P|352:112|316:152,1,110,0|8,0:0|0:0,0:0:0:0:
312,252,63115,2,0,B|304:312|304:312|256:328|256:328|212:312|212:312|200:252,1,220
172,156,64479,6,0,P|161:121|109:73,1,110,8|0,0:0|0:0,0:0:0:0:
72,164,65388,1,8,0:0:0:0:
124,248,65843,2,0,P|176:260|232:240,1,110,0|8,0:0|0:0,0:0:0:0:
256,192,66752,12,4,68570,0:0:0:0:
160,152,69024,6,0,L|132:260,2,110,8|0|8,0:0|0:0|0:0,0:0:0:0:
256,128,70388,1,0,0:0:0:0:
352,152,70843,2,0,L|379:258,2,110,8|0|8,0:0|0:0|0:0,0:0:0:0:
420,80,72206,6,0,P|368:52|312:60,2,110,0|8|0,0:0|0:0|0:0,0:0:0:0:
352,152,73570,1,8,0:0:0:0:
280,220,74024,2,0,P|332:248|388:240,2,110,0|8|0,0:0|0:0|0:0,0:0:0:0:
256,124,75388,5,8,0:0:0:0:
172,68,75843,2,0,L|128:176,1,110,0|8,0:0|0:0,0:0:0:0:
48,132,76752,2,0,L|4:244,1,110,0|8,0:0|0:0,0:0:0:0:
96,276,77661,5,0,0:0:0:0:
192,304,78115,1,8,0:0:0:0:
256,228,78570,1,0,0:0:0:0:
320,304,79024,1,8,0:0:0:0:
416,276,79479,6,0,P|468:192|408:100,1,220
372,192,80843,1,8,0:0:0:0:
256,192,81297,12,0,83115,0:0:0:0:
160,92,90388,5,0,0:0:0:0:
256,120,90843,1,0,0:0:0:0:
352,92,91297,1,0,0:0:0:0:
456,260,92206,2,0,B|400:320|316:300|300:256|324:216|256:240|192:216|212:256|196:300|120:320|56:252,1,440
136,192,94479,5,0,0:0:0:0:
184,104,94933,1,0,0:0:0:0:
256,36,95388,1,0,0:0:0:0:
328,104,95843,1,0,0:0:0:0:
376,192,96297,1,0,0:0:0:0:
300,256,96752,2,0,P|256:284|212:256,1,110
256,168,97661,6,0,L|256:112,2,55
164,132,98570,2,0,P|256:20|348:132,1,330
412,208,100388,2,0,L|444:256,1,55
348,284,101070,2,0,L|328:340,1,55
256,268,101752,1,0,0:0:0:0:
184,336,102206,2,0,L|165:284,1,55
69,253,102888,2,0,L|100:208,1,55
164,132,103570,1,0,0:0:0:0:
212,220,104024,6,0,P|264:132|208:40,1,220
32,132,105843,2,0,B|60:156|108:112|140:136,1,110
172,228,106752,2,0,L|144:280,2,55
256,176,107661,1,0,0:0:0:0:
256,276,108115,1,0,0:0:0:0:
340,228,108570,2,0,L|392:324,2,110
256,192,109933,12,0,112206,0:0:0:0:
184,120,112661,5,0,0:0:0:0:
256,52,113115,1,0,0:0:0:0:
328,120,113570,1,0,0:0:0:0:
256,188,114024,1,0,0:0:0:0:
180,252,114479,2,0,B|216:296|292:296|328:252,2,165
180,152,116297,5,0,0:0:0:0:
92,200,116752,1,0,0:0:0:0:
92,100,117206,1,0,0:0:0:0:
180,52,117661,1,0,0:0:0:0:
264,100,118115,1,0,0:0:0:0:
248,296,119024,5,0,0:0:0:0:
336,340,119479,1,0,0:0:0:0:
424,296,119934,1,0,0:0:0:0:
336,248,120388,2,0,B|360:192|316:192|340:140,1,110
304,48,121297,1,0,0:0:0:0:
208,48,121752,1,0,0:0:0:0:
172,141,122206,2,0,B|196:192|152:192|176:248,1,110
208,340,123115,6,0,P|256:360|308:340,1,110
308,240,124024,2,0,P|260:220|208:240,1,110
152,160,124933,2,0,B|160:84|224:72|244:56|256:40|256:40|268:56|288:72|356:84|360:160,1,330
440,220,126752,5,4,0:0:0:0:
455,121,127207,2,0,P|399:129|359:161,2,110,8|0|8,0:0|0:0|0:0,0:0:0:0:
472,24,128571,2,0,P|336:48|284:104,1,220
256,200,129934,1,8,0:0:0:0:
168,248,130389,6,0,P|256:304|344:248,1,220
232,104,132207,2,0,P|180:48|44:24,1,220
56,124,133571,6,0,P|100:124|152:163,1,110,8|0,0:0|0:0,0:0:0:0:
72,220,134480,1,8,0:0:0:0:
100,320,134934,2,0,P|136:280|176:236,1,110,0|8,0:0|0:0,0:0:0:0:
200,132,135843,2,0,B|256:120|320:56|256:36|192:56|256:120|312:132,1,220
340,228,137207,6,0,P|351:263|403:311,1,110,8|0,0:0|0:0,0:0:0:0:
440,220,138116,1,8,0:0:0:0:
388,136,138571,2,0,P|336:124|280:144,1,110,0|8,0:0|0:0,0:0:0:0:
256,192,139480,12,4,141298,0:0:0:0:
352,232,141752,6,0,L|380:124,2,110,8|0|8,0:0|0:0|0:0,0:0:0:0:
256,256,143116,1,0,0:0:0:0:
160,232,143571,2,0,L|133:126,2,110,8|0|8,0:0|0:0|0:0,0:0:0:0:
92,304,144934,2,0,P|144:332|200:324,2,110,0|8|0,0:0|0:0|0:0,0:0:0:0:
160,232,146298,1,8,0:0:0:0:
232,164,146752,2,0,P|180:136|124:144,2,110,0|8|0,0:0|0:0|0:0,0:0:0:0:
256,260,148116,5,8,0:0:0:0:
340,316,148571,2,0,L|384:208,1,110,0|8,0:0|0:0,0:0:0:0:
464,252,149480,2,0,L|508:140,1,110,0|8,0:0|0:0,0:0:0:0:
416,108,150389,5,0,0:0:0:0:
320,80,150843,1,8,0:0:0:0:
256,156,151298,1,0,0:0:0:0:
192,80,151752,1,8,0:0:0:0:
96,108,152207,6,0,P|44:192|104:284,1,220
140,192,153571,1,8,0:0:0:0:
256,192,154025,12,4,155843,0:0:0:0:
256,292,156297,5,8,0:0:0:0:
200,208,156752,2,0,B|256:196|256:196|308:208,2,110,0|8|0,0:0|0:0|0:0,0:0:0:0:
104,192,158115,1,8,0:0:0:0:
8,168,158570,1,0,0:0:0:0:
104,192,159024,5,8,0:0:0:0:
80,96,159479,2,0,B|96:60|132:48|132:48|168:36,1,110,0|8,0:0|0:0,0:0:0:0:
256,80,160388,1,0,0:0:0:0:
344,36,160843,2,0,B|380:48|380:48|416:60|432:96,2,110,8|0|8,0:0|0:0|0:0,0:0:0:0:
340,136,162206,6,0,P|308:172|248:184,1,110,0|8,0:0|0:0,0:0:0:0:
172,120,163115,2,0,P|144:184|156:224,1,110,0|8,0:0|0:0,0:0:0:0:
60,256,164024,6,0,P|108:312|144:320,1,110,0|8,0:0|0:0,0:0:0:0:
204,244,164933,1,0,0:0:0:0:
304,244,165388,1,8,0:0:0:0:
371,319,165843,2,0,P|404:312|452:256,1,110,0|8,0:0|0:0,0:0:0:0:
408,168,166752,2,0,L|384:56,1,110,0|8,0:0|0:0,0:0:0:0:
308,124,167661,1,0,0:0:0:0:
208,124,168115,1,8,0:0:0:0:
127,60,168570,2,0,L|104:168,1,110,0|8,0:0|0:0,0:0:0:0:
180,232,169479,6,0,P|256:296|336:228,1,220,0|4,0:0|0:0,0:0:0:0:
256,192,172206,12,0,176752,0:0:0:0:
256,320,177433,6,0,L|256:260,1,55
92,152,178570,2,0,B|108:120|140:112|140:112|188:100,2,110
176,204,179933,2,0,B|160:236|128:244|128:244|80:256,2,110
256,148,181297,5,0,0:0:0:0:
256,48,181752,1,0,0:0:0:0:
340,100,182206,1,0,0:0:0:0:
340,200,182661,1,0,0:0:0:0:
256,252,183115,1,0,0:0:0:0:
172,200,183570,1,0,0:0:0:0:
172,100,184024,1,0,0:0:0:0:
256,44,184479,1,0,0:0:0:0:
256,192,184933,12,0,186752,0:0:0:0:
192,284,199479,5,0,0:0:0:0:
256,92,200388,1,0,0:0:0:0:
320,284,201297,1,0,0:0:0:0:
156,172,202206,1,0,0:0:0:0:
356,172,203115,5,0,0:0:0:0:
456,172,203570,1,0,0:0:0:0:
456,72,204024,1,0,0:0:0:0:
356,72,204479,1,0,0:0:0:0:
276,132,204933,2,0,P|300:240|396:252,1,220
456,172,206297,5,0,0:0:0:0:
356,172,206752,2,0,P|252:200|188:288,1,220
256,360,208115,1,0,0:0:0:0:
324,288,208570,2,0,P|260:200|156:172,1,220
200,84,209933,6,0,B|256:92|256:92|312:84,1,110
352,176,210843,1,8,0:0:0:0:
380,272,211297,1,0,0:0:0:0:
308,340,211752,2,0,B|256:320|256:320|204:340,1,110,8|0,0:0|0:0,0:0:0:0:
132,272,212661,1,8,0:0:0:0:
160,176,213115,1,0,0:0:0:0:
203,84,213570,1,8,0:0:0:0:
256,192,214024,12,0,216752,0:0:0:0:
196,8,217661,5,0,0:0:0:0:
256,92,218115,1,8,0:0:0:0:
312,176,218570,2,0,B|256:188|256:188|204:176,2,110,0|8|0,0:0|0:0|0:0,0:0:0:0:
408,192,219933,1,8,0:0:0:0:
504,216,220388,1,0,0:0:0:0:
408,192,220842,5,8,0:0:0:0:
432,288,221297,2,0,B|416:324|380:336|380:336|344:348,1,110,0|8,0:0|0:0,0:0:0:0:
256,304,222206,1,0,0:0:0:0:
168,348,222661,2,0,B|132:336|132:336|96:324|80:288,2,110,8|0|8,0:0|0:0|0:0,0:0:0:0:
172,248,224024,6,0,P|204:212|264:200,1,110,0|8,0:0|0:0,0:0:0:0:
340,264,224933,2,0,P|368:200|356:160,1,110,0|8,0:0|0:0,0:0:0:0:
452,128,225842,6,0,P|404:72|368:64,1,110,0|8,0:0|0:0,0:0:0:0:
308,140,226751,1,0,0:0:0:0:
208,140,227206,1,8,0:0:0:0:
141,65,227661,2,0,P|108:72|60:128,1,110,0|8,0:0|0:0,0:0:0:0:
104,216,228570,2,0,L|128:328,1,110,0|8,0:0|0:0,0:0:0:0:
204,260,229479,1,0,0:0:0:0:
304,260,229933,1,8,0:0:0:0:
385,324,230388,2,0,L|408:216,1,110,0|8,0:0|0:0,0:0:0:0:
356,132,231297,6,0,B|300:104|256:148|256:148|212:104|152:132,1,220,0|4,0:0|0:0,0:0:0:0:
