osu file format v9

[General]
AudioFilename: I Wanna Go.mp3
AudioLeadIn: 0
PreviewTime: 40173
Countdown: 1
SampleSet: Normal
StackLeniency: 0.7
Mode: 0
LetterboxInBreaks: 0
SkinPreference:Nexus

[Editor]
Bookmarks: 8789,40174,54712,57943,90020,112174
DistanceSpacing: 0.8
BeatDivisor: 4
GridSize: 8

[Metadata]
Title:I Wanna Go
Artist:Britney Spears
Creator:BananasGoMoo
Version:Insane
Source:
Tags:britney spears i wanna go femme fatale

[Difficulty]
HPDrainRate:8
CircleSize:5
OverallDifficulty:5
ApproachRate:5
SliderMultiplier:1.4
SliderTickRate:1

[Events]
//Background and Video events
0,0,"Britney_Spears_02-1024x1024.jpg"
//Break Periods
2,76605,88820
//Storyboard Layer 0 (Background)
//Storyboard Layer 1 (Fail)
//Storyboard Layer 2 (Pass)
//Storyboard Layer 3 (Foreground)
//Storyboard Sound Samples
//Background Colour Transformations
3,100,255,128,128

[TimingPoints]
20,461.538461538462,4,1,0,100,1,0
148866,461.538461538462,4,1,0,100,1,1
149212,461.538461538462,4,1,0,100,1,0

[Colours]
Combo1 : 0,204,255
Combo2 : 255,0,0
Combo3 : 255,128,64
Combo4 : 255,255,255

[HitObjects]
112,96,8789,2,0,B|256:128,1,140
248,240,9712,1,0
224,288,9943,1,0
264,320,10174,1,0
352,256,10635,2,2,B|384:176|296:112,1,140
272,96,11328,1,2
104,88,12020,5,0
80,136,12251,2,0,B|80:208,1,70
104,256,12712,1,8
152,288,12943,1,8
160,176,13405,1,0
216,176,13635,1,0
184,128,13866,2,0,B|240:88|320:112|384:176|360:264,1,280,0|2
328,304,15020,1,8
336,192,15481,5,0
288,160,15712,1,0
336,128,15943,2,0,B|280:72,1,70
248,40,16405,1,0
416,40,17097,2,0,B|272:40,1,140,2|4
168,64,18020,5,0
144,176,18481,1,0
176,280,18943,1,0
232,288,19174,1,0
256,288,19289,1,0
280,288,19405,1,0
336,288,19635,1,0
344,232,19866,2,2,B|336:160,3,70
320,136,20674,1,4
200,136,21251,5,0
144,152,21481,1,0
96,120,21712,2,8,B|48:184|72:256,1,140
104,352,22635,1,0
80,304,22866,1,0
80,248,23097,1,0
96,192,23328,1,0
128,144,23558,2,2,B|144:112,4,35
160,192,24251,1,0
240,112,24712,6,0,B|176:72,1,70
128,48,25174,2,8,B|64:80|40:152|56:232,1,210,8|4
168,240,26328,2,0,B|208:184|184:88,1,140,4|8
248,200,27251,6,0,B|288:160|280:96|272:64|336:48|384:64,1,210
360,112,28174,2,0,B|360:160|384:184|400:216|352:248,1,140,2|2
312,272,28866,2,0,B|232:272,5,70
192,240,30251,1,2
168,224,30366,1,8
192,208,30481,1,2
176,152,30712,1,0
176,96,30943,6,0,B|240:56,1,70
288,64,31405,1,8
264,112,31635,2,0,B|200:152,1,70
224,200,32097,1,8
256,248,32328,1,8
312,256,32558,6,2,B|368:216|384:128,1,140,2|8
384,80,33251,1,2
336,56,33481,1,8
280,40,33712,1,0
224,40,33943,2,8,B|152:48,1,70
104,80,34405,5,0
64,120,34635,1,2
56,168,34866,1,8
56,224,35097,1,8
112,224,35328,2,2,B|168:224|208:208|240:168|240:120|224:80,1,210
224,32,36251,2,2,B|296:32,3,70
344,32,37174,1,8
344,88,37405,2,2,B|264:88,3,70
144,64,40174,6,8,B|192:120|272:112,1,140
320,88,40866,1,8
368,64,41097,1,8
384,120,41328,2,0,B|384:176|360:192|312:200,1,105,0|8
304,200,41789,2,8,B|160:200,1,140
112,200,42481,1,0
112,144,42712,2,2,B|88:104|40:112,1,70
48,168,43174,5,0
48,224,43405,2,0,B|48:296,1,70
104,296,43866,2,2,B|152:296|168:264|184:224,1,105
192,208,44328,1,2
216,160,44558,1,0
240,112,44789,1,2
264,64,45020,1,8
288,80,45135,5,2
312,96,45251,1,2
312,152,45481,2,0,B|312:200|352:224,1,70
376,256,45943,1,8
360,312,46174,1,0
312,336,46405,2,0,B|240:336,1,70,8|0
240,280,46866,2,2,B|240:200,1,70
200,176,47328,2,0,B|176:120|112:104|64:144,1,140,8|2
48,176,48020,5,0
48,232,48251,1,2
48,288,48481,1,0
104,288,48712,2,2,B|168:224|96:160,1,140
64,128,49405,1,2
104,88,49635,1,8
144,48,49866,1,8
184,88,50097,2,0,B|232:144,1,70,8|0
232,200,50558,5,2
232,256,50789,2,0,B|304:256,1,70,2|0
360,256,51251,1,0
360,144,51712,1,0
360,256,52174,1,0
360,200,52405,2,2,B|288:200|296:96,1,140
240,88,53097,2,2,B|160:88,1,70,8|2
112,88,53558,1,0
112,144,53789,2,0,B|184:144|184:256,1,140
184,136,54712,2,0,B|256:88|328:88|384:128|440:192|456:264|416:368|280:376|152:376|16:336|8:144|40:16|128:0,1,910,8|4
144,48,57943,5,0
168,48,58058,1,0
192,48,58174,1,0
192,72,58289,2,2,B|192:128,1,35
192,160,58635,5,8
192,272,59097,1,8
104,216,59558,1,8
104,160,59789,2,2,B|104:104|144:80,1,70
176,72,60251,1,8
232,168,60712,1,8
288,72,61174,2,0,B|368:72,1,70,8|2
360,128,61635,5,0
360,184,61866,1,0
304,280,62328,1,8
248,184,62789,1,0
200,280,63251,1,8
144,280,63481,2,2,B|120:224|96:296,1,70
120,336,63943,1,0
112,224,64405,1,0
120,336,64866,1,0
112,224,65328,2,8,B|160:192,2,35
136,272,65789,2,0,B|192:232,1,70,0|8
288,168,66251,6,0,B|344:112,3,70,8|0|8|0
296,80,67174,1,0
240,80,67405,1,0
240,136,67635,2,0,B|176:176,1,70,8|0
136,200,68097,1,2
136,88,68558,1,2
240,136,69020,5,0
240,192,69251,1,0
352,192,69712,2,0,B|272:192,4,70,8|0|8|0|8
408,192,70866,1,0
408,248,71097,1,0
352,248,71328,1,8
296,248,71558,1,0
352,248,71789,1,8
408,248,72020,1,0
408,192,72251,6,0,B|408:104|408:104,1,70
408,64,72712,2,0,B|320:64,1,70
256,192,73174,12,4,76405
256,192,90020,5,0
256,304,90481,1,0
200,208,90943,1,8
256,208,91173,1,0
312,208,91405,1,8
312,256,91635,1,8
312,304,91866,2,2,B|384:320|440:240,1,140
432,192,92558,1,8
280,120,93251,5,8
224,120,93481,1,8
168,120,93712,1,2
224,216,94174,1,8
224,120,94635,1,0
224,216,95097,1,8
224,240,95212,1,8
224,272,95328,1,2
224,328,95558,2,2,B|136:328,2,70
280,328,96251,1,0
392,328,96712,6,0,B|392:256|392:256|312:256|312:256,1,140
296,256,97289,2,0,B|224:256|224:256|224:152,1,175
224,40,98328,1,8
448,40,99251,2,0,B|360:40|360:40|312:96|312:96,1,140,2|0
296,128,99943,1,8
256,168,100174,2,0,B|200:224|200:224|112:224|112:224,1,140,2|0
144,168,100866,6,0,B|144:112,4,35,2|0|2|0|2
88,168,101558,1,0
32,168,101789,1,0
88,168,102020,1,0
144,168,102251,1,0
200,168,102481,1,8
200,112,102712,5,8
200,168,102943,2,2,B|344:168,1,140
344,112,103635,1,8
344,56,103866,1,8
320,56,103981,2,0,B|208:56,1,105,0|2
168,88,104558,5,0
128,128,104789,1,0
168,168,105020,1,0
208,128,105251,2,2,B|240:160|240:160|232:200|232:200|176:232|176:232,1,140
128,224,105943,1,8
88,184,106174,5,8
72,240,106405,1,8
48,288,106635,2,0,B|96:344|96:344|168:304|168:304,1,140,0|8
200,288,107328,2,2,B|264:256|264:256|256:176,1,140,8|8
256,128,108020,1,8
312,128,108251,6,2,B|312:216,1,70
312,256,108712,1,8
368,256,108943,2,2,B|368:176,1,70
368,128,109405,1,2
424,128,109635,2,2,B|424:208,1,70
424,256,110097,1,0
368,256,110328,5,0
256,256,110789,1,0
144,256,111251,1,0
144,144,111712,1,0
256,144,112174,6,8,B|312:192,1,70
328,168,112520,2,2,B|352:144,1,35
392,104,112866,1,8
448,104,113097,1,0
448,160,113328,1,8
448,208,113558,1,0
448,264,113789,1,8
336,264,114251,1,0
336,152,114712,1,0
224,152,115174,6,2,B|304:152|304:152|304:232|304:232|248:232|248:232,1,210
144,232,116328,1,8
144,120,116789,1,8
144,176,117020,1,0
144,232,117251,1,2
144,232,117481,1,2
144,344,117943,2,0,B|208:320,1,70
264,296,118405,2,8,B|264:208,1,70,8|0
320,224,118866,2,0,B|320:304|320:304,1,70,8|0
376,296,119328,2,0,B|376:216,2,70,8|0|8
432,296,120020,5,0
432,272,120135,1,0
432,248,120251,1,0
432,192,120481,1,8
432,136,120712,2,0,B|352:136,1,70,8|0
304,136,121174,1,8
360,40,121635,1,8
248,40,122097,1,8
360,40,122558,6,0,B|320:104|320:104,1,70
288,144,123020,1,8
336,176,123251,1,0
384,200,123481,1,8
432,232,123712,1,2
368,328,124174,1,2
320,296,124405,5,0
272,264,124635,2,0,B|216:224,1,70,8|2
240,176,125097,2,0,B|312:224,1,70,8|0
344,240,125558,1,0
384,200,125789,2,2,B|264:112,1,140
256,192,126712,12,0,129712
256,192,129943,6,8,B|216:136|216:136|176:200|176:200|216:272|216:272,1,210,8|4
232,256,130751,2,2,B|280:256,1,35
320,256,131097,1,8
376,160,131558,1,2
376,216,131789,1,2
376,272,132020,1,8
376,328,132251,1,0
480,280,132712,1,8
432,176,133174,2,0,B|376:128|376:128|296:128|296:128,1,140,8|0
288,144,133751,6,0,B|248:144,1,35
144,152,134328,1,2
128,264,134789,1,2
240,264,135251,1,2
296,248,135481,2,8,B|248:264,2,35
240,264,135943,1,0
176,168,136405,1,0
264,104,136866,2,0,B|320:64,1,70,8|0
360,104,137328,2,0,B|296:152,1,70,8|0
336,192,137789,2,0,B|416:128,1,70,8|0
432,112,138251,5,0
488,112,138481,1,0
456,160,138712,1,0
408,192,138943,1,0
360,224,139174,2,2,B|296:272,1,70
264,232,139635,2,2,B|224:176,1,70,2|10
264,136,140097,1,8
360,192,140558,1,8
272,256,141020,5,0
248,272,141135,1,0
224,288,141251,2,0,B|144:256,1,70
160,208,141712,1,2
248,144,142174,1,2
144,96,142635,1,2
104,128,142866,1,8
64,160,143097,1,8
96,208,143328,2,0,B|184:136|184:136|256:208|256:208,1,210,8|2
256,264,144251,2,2,B|168:264,1,70
184,320,144712,2,2,B|320:320,1,105,2|0
320,320,145174,6,0,B|376:272|368:184|288:112|232:80,1,280,8|0
216,80,146212,2,0,B|112:80|32:176|32:288,1,280
48,288,147251,2,0,B|144:296|208:264|256:192|264:144,1,280
240,96,148405,5,8
200,56,148635,1,8
176,104,148866,1,4
