osu file format v9

[General]
AudioFilename: I Wanna Go.mp3
AudioLeadIn: 0
PreviewTime: 40174
Countdown: 1
SampleSet: Normal
StackLeniency: 0.7
Mode: 0
LetterboxInBreaks: 0
SkinPreference:Nexus

[Editor]
Bookmarks: 8789,40174,54712,57943,90020,112174,130635
DistanceSpacing: 0.8
BeatDivisor: 4
GridSize: 8

[Metadata]
Title:I Wanna Go
Artist:Britney Spears
Creator:BananasGoMoo
Version:Hard
Source:
Tags:britney spears i wanna go femme fatale

[Difficulty]
HPDrainRate:5
CircleSize:5
OverallDifficulty:5
ApproachRate:5
SliderMultiplier:1.4
SliderTickRate:1

[Events]
//Background and Video events
0,0,"Britney_Spears_02-1024x1024.jpg"
//Break Periods
2,77066,88820
//Storyboard Layer 0 (Background)
//Storyboard Layer 1 (Fail)
//Storyboard Layer 2 (Pass)
//Storyboard Layer 3 (Foreground)
//Storyboard Sound Samples
//Background Colour Transformations
3,100,255,128,128

[TimingPoints]
20,461.538461538462,4,1,0,100,1,0
148866,461.538461538462,4,1,0,100,1,1
149327,461.538461538462,4,1,0,100,1,0

[Colours]
Combo1 : 0,204,255
Combo2 : 255,0,0
Combo3 : 255,128,64
Combo4 : 255,255,255

[HitObjects]
176,112,8789,6,0,B|224:168|224:168|280:96,1,140
152,112,9712,1,0
112,152,9943,1,0
136,200,10173,1,0
216,280,10635,1,0
256,240,10866,1,0
296,200,11096,1,0
336,160,11327,1,0
200,64,12020,6,0,B|120:96|120:96|88:152|88:152,1,140
200,112,12943,1,0
200,224,13404,1,0
200,168,13635,1,0
256,168,13866,1,0
256,224,14096,1,0
312,224,14327,2,0,B|312:152,1,70
344,264,15020,1,0
256,328,15481,6,0,B|184:328,1,70
184,272,15943,2,0,B|184:200|184:200|112:152|112:152|112:96,1,210
224,80,17096,2,0,B|304:72|304:72|376:96|376:96,1,140
360,200,18020,6,0,B|288:200|288:200|224:248|224:248,1,140
312,328,18943,1,0
312,280,19173,1,0
368,280,19404,1,0
368,224,19635,1,0
368,200,19750,1,0
368,168,19866,2,0,B|368:96,1,70
424,96,20327,2,0,B|424:168,1,70
424,192,20673,2,0,B|424:232,1,35
352,312,21250,5,0
304,288,21481,1,0
256,264,21712,2,0,B|200:216|200:216|144:256|144:256,1,140
88,160,22635,1,0
128,200,22866,1,0
168,240,23096,1,0
208,280,23327,1,0
248,320,23558,2,0,B|296:264,1,70
368,184,24250,1,0
288,104,24712,6,0,B|216:64,1,70
176,40,25173,2,0,B|112:72|112:72|104:144|104:144|160:184|160:184,1,210
216,88,26327,1,0
264,304,27249,1,0
328,216,27712,2,0,B|256:176|256:176|192:216|192:216,1,140
240,40,28866,6,0,B|168:40,4,70
280,80,30020,1,0
240,112,30250,1,0
280,144,30481,1,0
232,176,30712,5,0
232,232,30943,1,0
184,72,31635,2,0,B|184:144|184:144|136:176|136:176|136:288|136:288,1,210
192,256,32558,6,0,B|272:256,1,70
264,200,33020,1,0
264,144,33250,1,0
264,88,33481,1,0
320,88,33712,2,0,B|320:160|320:160,1,70
320,216,34173,6,0,B|320:304|320:304|256:304|256:304|192:272|192:272|192:216|192:216,1,280
192,160,35327,2,0,B|264:160|264:160|264:80|264:80,1,140
264,32,36020,1,0
312,64,36250,2,0,B|368:104|368:104|320:176|320:176,2,140
304,120,37404,2,0,B|256:176|256:176|328:232|328:232,1,140
352,256,38096,1,0
256,192,40173,5,0
256,304,40635,1,0
256,192,41096,1,0
312,192,41327,1,0
280,240,41558,1,0
224,240,41789,1,0
312,192,42250,1,0
200,192,42712,6,0,B|160:128|160:128|216:72|216:72|264:112|264:112,1,210
296,144,43635,1,0
336,104,43866,2,0,B|392:152|392:152,1,70
344,184,44327,2,0,B|288:232|288:232,1,70
256,192,44789,2,0,B|200:128,1,70
192,120,45135,5,0
176,104,45250,1,0
136,64,45481,1,0
56,144,45943,1,0
120,232,46404,1,0
160,264,46635,2,0,B|232:296|232:296|272:248|272:248,1,140
288,224,47212,2,0,B|352:136|352:136,1,105
408,40,48020,5,0
408,152,48481,1,0
360,120,48712,1,0
312,96,48943,1,0
264,72,49173,1,0
200,168,49635,1,0
296,224,50096,1,0
200,280,50558,5,0
168,328,50789,2,0,B|248:208|248:208,1,140
312,120,51712,1,0
376,32,52173,1,0
432,32,52404,2,0,B|432:80|432:72,1,35
432,96,52635,1,0
400,144,52866,2,0,B|344:208|344:208,3,70
312,152,53789,2,0,B|256:104|256:104|200:168|200:168|152:128|152:128,1,210
256,192,54712,12,0,57943
256,192,58173,6,0,B|216:136|216:136|216:64|216:64,1,140
104,64,59096,1,0
104,64,59558,1,0
104,120,59789,2,0,B|176:120,5,70
176,176,61173,2,0,B|176:248|176:248|104:248|104:248,1,140
104,192,61866,1,0
104,304,62327,1,0
216,304,62789,1,0
104,304,63250,1,0
104,248,63481,6,0,B|104:200|104:200,1,35
104,184,63712,2,0,B|104:32|104:32,1,140
160,48,64404,1,0
272,48,64866,1,0
272,160,65327,2,0,B|192:160|192:160,1,70
200,128,65673,2,0,B|200:80,1,35
152,128,66020,6,0,B|80:128|80:128,1,70
80,184,66481,2,0,B|80:256|80:256,1,70
136,256,66943,2,0,B|208:256|208:256,1,70
208,288,67289,2,0,B|208:328|208:328,1,35
136,344,67635,1,0
136,344,68096,1,0
136,344,68558,2,0,B|224:344|224:344|256:280|256:280|256:224|256:224,1,210
256,120,69712,6,0,B|168:120|168:120,1,70
184,176,70173,2,0,B|272:176|272:176|264:176,1,70
256,120,70635,2,0,B|176:120|176:120,1,70
184,64,71096,1,0
128,64,71327,1,0
96,168,71789,1,0
208,168,72250,2,0,B|120:168|120:168,1,70
96,168,72712,1,0
256,192,73173,12,0,76173
256,192,76404,5,0
256,136,76635,1,0
296,96,76866,1,0
256,192,90020,5,0
296,296,90481,1,0
184,296,90943,1,0
160,248,91173,1,0
136,200,91404,1,0
144,88,91866,1,0
200,88,92096,1,0
256,88,92327,1,0
312,88,92558,2,0,B|312:160,1,70
424,160,93250,5,0
424,216,93481,1,0
384,248,93712,1,0
272,256,94173,1,0
160,256,94635,1,0
128,216,94866,2,0,B|128:144,1,70
128,88,95327,1,0
184,88,95558,2,0,B|240:88|240:88,1,35
248,88,95789,2,0,B|320:88,1,70
376,88,96250,1,0
384,200,96712,5,0
384,256,96943,1,0
328,256,97173,2,0,B|232:256,1,70
384,200,97866,1,0
272,200,98327,2,0,B|384:112,1,140
344,72,99135,6,0,B|248:72|248:72|248:152|248:152,1,175
192,144,99943,1,0
136,144,100173,2,0,B|88:208|88:208|128:272|128:272|208:264|208:264,1,210
216,224,101096,5,0
272,224,101327,1,0
216,224,101558,1,0
272,224,101789,1,0
248,272,102020,1,0
248,328,102250,1,0
296,304,102481,1,0
296,304,102712,6,0,B|368:272|368:272|344:192|344:192,1,140
272,136,103635,1,0
216,136,103866,2,0,B|128:128|128:128|136:64|136:64|64:56|64:56,1,210
56,104,104789,5,0
56,160,105020,1,0
96,192,105250,1,0
152,184,105481,1,0
168,128,105712,1,0
152,72,105943,1,0
96,56,106173,5,0
96,112,106404,1,0
128,160,106635,1,0
96,112,107327,2,0,B|96:184|96:184|168:184|168:184|168:96|168:96,1,210
176,232,108481,5,0
176,288,108712,1,0
216,256,108943,1,0
224,312,109173,1,0
272,280,109404,1,0
272,336,109635,1,0
320,304,109866,1,0
328,360,110096,1,0
256,192,112173,5,0
256,192,112635,1,0
256,192,113096,1,0
256,136,113327,2,0,B|256:64|256:64|176:80|176:80,1,140
80,72,114250,1,0
80,184,114712,1,0
176,128,115173,5,0
176,184,115404,2,0,B|176:256|176:256,1,70
232,256,115866,2,0,B|232:176|232:176,1,70
232,128,116327,1,0
344,128,116789,1,0
344,184,117020,2,0,B|344:256,3,70
344,312,117943,2,0,B|256:312,1,70
272,256,118404,2,0,B|272:176,1,70
216,192,118866,1,0
104,192,119327,1,0
104,136,119558,5,0
104,24,120020,1,0
216,24,120481,1,0
216,80,120712,2,0,B|216:136,2,35
216,136,121173,2,0,B|304:136|304:136,1,70
288,192,121635,2,0,B|208:192,1,70
216,248,122096,2,0,B|296:248,1,70
288,304,122558,1,0
232,304,122789,1,0
120,304,123250,5,0
120,192,123712,1,0
120,304,124173,1,0
120,248,124404,2,0,B|208:248,1,70
248,248,124866,1,0
360,248,125327,1,0
352,136,125789,6,0,B|280:136,1,70
224,136,126250,2,0,B|312:136,1,70
296,80,126712,2,0,B|208:80|208:80|144:128|144:128|144:184|144:184|96:224|96:224|96:288|96:288|184:288|184:288|192:232|192:232|264:232|264:232|264:296|264:296|336:288|336:288|336:216|336:216|408:216|408:216,1,840
288,192,129943,5,0
256,152,130173,1,0
312,152,130404,1,0
