osu file format v5

[General]
AudioFilename: 02 Britney Spears - Circus.mp3
AudioLeadIn: 0
PreviewTime: -1
Countdown: 0
SampleSet: Normal
StackLeniency: 0.7
Mode: 0
LetterboxInBreaks: 1
EditorDistanceSpacing: 1.5

[Metadata]
Title:Circus
Artist:Britney Spears
Creator:Larto
Version:Takuma
Source:
Tags:

[Difficulty]
HPDrainRate:6
CircleSize:5
OverallDifficulty:7
SliderMultiplier:2
SliderTickRate:0.5

[Events]
//Background and Video events
0,0,"Britney-SpearsCircus-Wal2.png"
1,0,"video.flv"
//Break Periods
2,69385,71676
//Storyboard Layer 0 (Background)
4,0,1,"spotlight.png",278,128 F,0,33698,33706,1,0 F,0,33706,34750,0,1 M,0,34750,35011,115,211,176,183 F,0,34750,52489,1 S,0,34750,,2.01376 M,0,35011,35272,176,183,219,122 M,0,35272,35533,219,122,253,203 M,0,35533,35793,253,203,333,208 M,0,35793,36054,333,208,294,260 M,0,36054,36315,294,260,332,208 M,0,36315,36576,332,208,410,249 M,0,36576,36837,410,249,433,304 M,0,36837,37098,433,304,367,336 M,0,37098,37359,367,336,289,319 M,0,37359,37620,289,319,241,380 M,0,37620,37880,241,380,101,391 M,0,37880,38924,101,391,483,145 M,0,38924,39446,483,145,295,141 M,0,39446,39967,295,141,284,270 M,0,39967,40228,284,270,217,309 M,0,40228,40489,217,309,142,291 M,0,40489,40750,142,291,127,214 M,0,40750,41011,127,214,77,149 M,0,41011,41272,77,149,151,118 M,0,41272,41533,151,118,223,142 M,0,41533,41793,223,142,301,121 M,0,41793,42054,301,121,391,211 M,0,42054,42837,391,211 M,0,42837,43098,391,211,450,264 M,0,43098,43359,450,264,428,330 M,0,43359,43620,428,330,369,299 M,0,43620,43880,369,299,299,355 M,0,43880,44141,299,355,258,427 M,0,44141,44402,258,427,193,368 M,0,44402,44663,193,368,129,338 M,0,44663,44924,129,338,130,233 M,0,44924,45185,130,233,167,195 M,0,45185,45446,167,195,235,225 M,0,45446,45706,235,225,287,213 M,0,45706,45967,287,213,345,153 M,0,45967,46228,345,153,442,230 M,0,46228,46489,442,230,379,266 M,0,46489,46750,379,266,446,306 M,0,46750,47011,446,306,511,335 M,0,47011,47272,511,335,441,369 M,0,47272,47533,441,369,379,390 M,0,47533,47793,379,390,297,369 M,0,47793,48054,297,369,222,299 M,0,48054,48315,222,299,153,299 M,0,48315,48576,153,299,253,300 M,0,48576,48837,253,300,313,264 M,0,48837,49098,313,264,325,190 M,0,49098,49359,325,190,414,129 M,0,49359,49620,414,129,465,177 M,0,49620,49880,465,177,499,283 M,0,49880,50141,499,283,446,364 M,0,50141,50402,446,364,383,399 M,0,50402,50924,383,399,287,393 M,0,50924,51185,287,393,241,369 M,0,51185,51446,241,369,216,338 M,0,51446,51706,216,338,186,293 M,0,51706,51967,186,293,127,141 M,0,51967,52489,127,141,278,128 F,0,52489,52750,1,0
4,0,1,"bgb.png",320,240 F,0,50402,52489,0,1
//Storyboard Layer 1 (Failing)
//Storyboard Layer 2 (Passing)
//Storyboard Layer 3 (Foreground)
4,3,1,"bgw.png",320,240 F,0,52489,53011,1,0
4,3,1,"spotlight.png",320,240 F,0,98402,99446,0,1 M,0,99446,99706,488,213,411,174 F,0,99446,114576,1,0.9948801 S,0,99446,,2.01376 M,0,99706,99967,411,174,345,124 M,0,99967,100228,345,124,343,191 M,0,100228,100489,343,191,257,198 M,0,100489,100750,257,198,307,267 M,0,100750,101011,307,267,256,208 M,0,101011,101272,256,208,186,237 M,0,101272,101533,186,237,173,294 M,0,101533,101793,173,294,238,344 M,0,101793,102054,238,344,323,318 M,0,102054,102315,323,318,347,385 M,0,102315,102576,347,385,467,388 M,0,102576,103620,467,388,112,129 M,0,103620,104141,112,129,306,132 M,0,104141,104663,306,132,301,259 M,0,104663,104924,301,259,374,301 M,0,104924,105185,374,301,457,281 M,0,105185,105446,457,281,467,176 M,0,105446,105706,467,176,515,117 M,0,105706,105967,515,117,432,97 M,0,105967,106228,432,97,366,139 M,0,106228,106489,366,139,297,128 M,0,106489,106750,297,128,171,203 M,0,106750,107533,171,203 M,0,107533,107793,171,203,109,259 M,0,107793,108054,109,259,143,331 M,0,108054,108315,143,331,211,299 M,0,108315,108576,211,299,267,357 M,0,108576,108837,267,357,316,420 M,0,108837,109098,316,420,378,379 M,0,109098,109359,378,379,442,362 M,0,109359,109620,442,362,463,253 M,0,109620,109880,463,253,416,181 M,0,109880,110141,416,181,337,224 M,0,110141,110402,337,224,281,194 M,0,110402,110663,281,194,221,140 M,0,110663,110924,221,140,143,225 M,0,110924,111185,143,225,212,256 M,0,111185,111446,212,256,153,277 M,0,111446,111706,153,277,67,322 M,0,111706,111967,67,322,148,359 M,0,111967,112228,148,359,214,397 M,0,112228,112489,214,397,299,377 M,0,112489,112750,299,377,364,319 M,0,112750,113011,364,319,461,321 M,0,113011,113272,461,321,386,321 M,0,113272,113533,386,321,319,274 M,0,113533,113793,319,274,296,190 M,0,113793,114054,296,190,247,156 M,0,114054,114315,247,156,189,195 M,0,114315,114576,189,195,128,312 M,0,114576,114837,128,312,158,382 F,0,114576,115098,0.9948801,1 M,0,114837,115098,158,382,328,392 M,0,115098,,328,392
4,3,1,"bgb.png",320,240 F,0,114576,115098,0,1 F,0,115098,115620,1,0
4,3,1,"bgw.png",320,240 F,0,115098,115620,1,0
//Storyboard Sound Samples
//Background Colour Transformations
3,100,0,0,0

[TimingPoints]
7620,521.739130434783,4,2,0,52,1,0
8025,-100,4,1,0,23,0,0
8285,-100,4,2,0,52,0,0
8547,-100,4,1,0,52,0,0
8807,-100,4,2,0,52,0,0
10634,-100,4,1,0,34,0,0
11415,-100,4,2,0,52,0,0
12199,-100,4,1,0,52,0,0
12459,-100,4,2,0,52,0,0
12720,-100,4,1,0,52,0,0
12980,-100,4,2,0,52,0,0
14807,-100,4,1,0,26,0,0
15067,-100,4,2,0,52,0,0
15458,-100,4,1,0,34,0,0
15588,-100,4,2,0,52,0,0
15981,-100,4,1,0,41,0,0
16111,-100,4,2,0,52,0,0
16489,-100,4,1,0,52,0,0
16550,-100,4,2,0,52,0,0
16894,-100,4,1,0,52,0,0
17154,-100,4,2,0,52,0,0
18981,-100,4,1,0,28,0,0
19764,-100,4,2,0,52,0,0
20547,-100,4,1,0,38,0,0
20807,-100,4,2,0,52,0,0
21067,-100,4,1,0,52,0,0
21460,-100,4,1,0,35,0,0
21851,-100,4,2,0,52,0,0
23272,-100,4,1,0,41,0,0
24837,-100,4,1,0,52,0,0
25620,-100,4,1,0,39,0,0
26011,-100,4,2,0,52,0,0
27315,-100,4,1,0,52,0,0
27575,-100,4,2,0,52,0,0
28880,-100,4,1,0,32,0,0
29140,-100,4,2,0,52,0,0
29400,-100,4,1,0,49,0,0
29793,-100,4,1,0,33,0,0
30185,-100,4,2,0,52,0,0
31489,-100,4,1,0,36,0,0
31749,-100,4,2,0,52,0,0
32140,-100,4,1,0,59,0,0
32270,-100,4,2,0,74,0,0
33220,-100,4,1,0,72,0,0
33313,-100,4,2,0,52,0,0
37750,-100,4,1,0,26,0,0
38010,-100,4,2,0,52,0,0
41924,-100,4,1,0,30,0,0
42184,-100,4,1,0,22,0,0
42446,-100,4,1,0,13,0,0
42706,-100,4,2,0,26,0,0
42967,-100,4,2,0,42,0,0
46098,-100,4,1,0,36,0,0
46358,-100,4,2,0,42,0,0
50402,-200,4,2,0,34,0,0
52488,-100,4,1,0,52,0,1
69873,-100,4,2,0,0,0,0
71401,-100,4,2,0,2,0,0
71531,-100,4,2,0,8,0,0
71791,-100,4,2,0,24,0,0
72051,-100,4,2,0,36,0,0
72311,-100,4,2,0,52,0,0
73227,-100,4,1,0,52,0,0
73618,-100,4,1,0,38,0,0
73750,-100,4,2,0,50,0,0
75315,-100,4,1,0,70,0,0
75704,-100,4,2,0,52,0,0
76227,-100,4,1,0,41,0,0
76748,-100,4,2,0,52,0,0
77401,-100,4,1,0,49,0,0
77661,-100,4,2,0,52,0,0
77922,-100,4,1,0,40,0,0
78182,-100,4,2,0,52,0,0
79488,-100,4,1,0,50,0,0
79748,-100,4,2,0,52,0,0
80139,-100,4,1,0,31,0,0
80269,-100,4,2,0,52,0,0
80660,-100,4,1,0,41,0,0
80790,-100,4,2,0,52,0,0
81181,-100,4,1,0,52,0,0
81311,-100,4,2,0,52,0,0
81702,-100,4,1,0,52,0,0
81832,-100,4,2,0,52,0,0
83661,-100,4,1,0,39,0,0
84443,-100,4,2,0,39,0,0
85225,-100,4,1,0,41,0,0
85485,-100,4,2,0,37,0,0
85745,-100,4,1,0,52,0,0
86005,-50,4,2,0,52,0,0
87966,-100,4,1,0,52,0,0
88357,-100,4,1,0,18,0,0
88617,-100,4,2,0,51,0,0
88877,-100,4,1,0,25,0,0
89137,-100,4,2,0,51,0,0
89397,-100,4,1,0,35,0,0
89657,-100,4,2,0,51,0,0
89917,-100,4,1,0,51,0,0
90177,-100,4,2,0,51,0,0
92009,-100,4,1,0,40,0,0
92269,-100,4,1,0,39,0,0
92464,-100,4,2,0,57,0,0
92594,-100,4,1,0,41,0,0
92789,-100,4,2,0,40,0,0
93053,-100,4,1,0,39,0,0
93705,-100,4,2,0,52,0,0
93770,-100,4,1,0,41,0,0
94357,-100,4,1,0,40,0,0
94879,-100,4,2,0,52,0,0
96313,-100,4,1,0,41,0,0
96444,-100,4,2,0,52,0,0
96704,-100,4,1,0,39,0,0
96965,-100,4,2,0,52,0,0
97225,-100,4,1,0,51,0,0
98268,-100,4,2,0,52,0,0
102446,-100,4,1,0,50,0,0
102706,-100,4,2,0,50,0,0
106620,-100,4,1,0,50,0,0
106880,-100,4,1,0,40,0,0
107140,-100,4,1,0,30,0,0
107400,-100,4,1,0,20,0,0
107660,-100,4,2,0,50,0,0
110793,-100,4,1,0,50,0,0
111053,-100,4,2,0,50,0,0
114967,-100,4,1,0,60,0,0

[Colours]
Combo1 : 255,172,0
Combo2 : 146,240,4
Combo3 : 1,86,243
Combo4 : 242,56,2

[HitObjects]
96,88,7880,1,0
96,88,8141,1,0
96,88,8402,1,0
72,232,8663,6,0,B|88:344|224:328,1,200,4|2
240,232,9446,1,0
328,272,9706,2,0,B|360:320|328:368,2,100,2|0|2
240,232,10489,1,0
280,144,10750,2,0,B|352:48|472:104,1,200,0|8
457,97,11533,1,0
160,80,12054,5,0
80,16,12315,1,0
32,104,12576,1,0
112,232,12837,6,0,B|184:144|304:184,1,200,4|2
292,180,13620,1,0
416,80,14141,5,0
416,80,14272,1,0
416,80,14402,1,0
416,80,14663,1,0
384,224,14924,5,0
328,280,15185,2,0,B|280:312|232:288,1,100,2|8
192,352,15706,1,0
80,176,16228,6,0,B|56:144|104:120|64:72,2,100
64,256,17011,6,0,B|144:344|248:248,1,200,4|2
200,184,17793,1,0
232,112,18054,2,0,B|264:64|336:88,2,100,2|0|2
200,184,18837,1,0
280,184,19098,2,0,B|328:304|472:256,1,200,0|8
416,336,19880,1,0
200,336,20402,5,0
160,264,20663,1,0
128,336,20924,1,0
56,208,21185,6,0,B|80:96|216:96,1,200
248,160,21967,1,0
368,56,22489,6,0,B|472:56,2,100
304,104,23272,2,0,B|312:160|384:168,1,100,4|0
448,200,23793,1,8
440,280,24054,6,2,B|368:360|320:224|240:352,1,200,6|0
192,272,24837,1,2
192,272,24967,1,2
192,272,25098,1,0
64,192,25359,6,0,B|36:84|168:40,1,200,4|8
218,95,26141,2,0,B|290:181|181:283,1,200,2|2
232,344,26924,1,4
312,344,27185,1,0
392,344,27446,5,4
256,40,27967,5,2
208,104,28228,2,0,B|152:88|120:152,1,100,0|2
56,192,28750,6,0,B|112:216|32:256|136:296,2,100
32,112,29533,2,0,B|115:18|220:113,1,200,4|8
232,176,30315,1,0
320,304,30837,5,0
400,312,31098,1,2
456,256,31359,1,0
448,176,31620,2,0,B|336:208|312:64,1,200
313,70,32272,1,0
313,70,32402,1,0
256,192,32663,12,4,33706
64,136,34750,6,0,B|96:88|152:104,1,100,2|0
216,56,35272,1,2
224,136,35533,1,0
304,136,35793,2,0,B|304:200|240:208,2,100,2|0|2
376,176,36576,1,0
400,248,36837,2,0,B|384:304|352:248|312:296,1,100,2|2
240,264,37359,1,2
192,328,37620,1,0
64,328,37880,5,0
456,64,38924,6,4,B|248:64,1,200
256,224,39967,5,2
176,248,40228,1,0
96,224,40489,2,0,B|120:176|80:120,1,100,2|0
40,64,41011,2,0,B|80:16|144:32,1,100,2|2
184,80,41533,1,0
264,64,41793,1,2
360,144,42054,5,0
360,144,42315,1,0
360,144,42576,1,0
360,144,42837,1,0
416,200,43098,6,0,B|424:272|368:280,1,100,2|0
304,232,43620,2,0,B|248:240|232:296,1,100,2|0
200,368,44141,1,2
152,304,44402,1,0
80,280,44663,2,0,B|48:240|80:184,1,100,2|0
128,128,45185,1,2
200,168,45446,1,2
272,136,45706,1,2
320,72,45967,1,0
400,168,46228,5,0
328,208,46489,1,0
400,240,46750,1,0
472,272,47011,1,0
400,312,47272,1,0
328,344,47533,6,0,B|272:360|240:312,1,100,0|2
184,248,48054,2,0,B|136:216|88:248,2,100,0|2|0
256,208,48837,1,2
272,128,49098,1,2
344,88,49359,2,0,B|360:144|424:144,1,100,2|2
464,264,49880,1,8
424,328,50141,1,0
344,336,50402,2,0,B|160:344|128:144,1,300
104,88,52228,1,0
256,56,52489,5,4
336,64,52750,2,0,B|344:120|408:120,1,100,0|8
472,160,53272,1,0
408,200,53533,2,0,B|384:248|336:192|328:248,1,100
328,242,53924,2,0,B|344:272|312:288,1,50,0|8
317,284,54185,1,0
280,280,54315,2,0,B|240:288|256:328,1,50
224,344,54576,1,0
144,344,54837,5,0
72,304,55098,1,8
64,224,55359,1,0
96,152,55620,2,2,B|112:48|256:56,1,200,2|2
247,55,56272,1,0
247,55,56402,1,0
360,136,56663,5,4
408,192,56924,1,0
408,192,57054,1,0
408,192,57185,1,0
336,232,57446,1,2
368,304,57706,1,0
288,328,57967,1,0
288,328,58098,2,0,B|256:344|240:312,1,50
244,318,58359,2,0,B|216:296|192:320,1,50
120,256,58750,1,4
56,160,59011,5,0
96,88,59272,1,0
176,88,59533,1,0
136,160,59793,2,2,B|200:200|248:120|336:176,1,200
329,171,60446,1,0
329,171,60576,1,0
256,320,60837,1,4
176,320,61098,5,0
96,304,61359,1,8
64,232,61620,1,0
64,152,61880,2,2,B|120:176|160:136,1,100
168,56,62402,1,0
248,56,62663,2,2,B|304:56|288:104|336:96,1,100
408,64,63185,1,0
440,136,63446,1,8
368,168,63706,1,0
368,168,63967,2,2,B|272:224,2,100
360,248,64750,2,2,B|264:304,1,100,2|4
200,328,65272,5,0
200,328,65402,2,0,B|160:288,1,50
164,292,65663,2,0,B|128:304|120:272,1,50
64,216,66054,1,2
80,136,66315,1,0
80,136,66446,2,0,B|102:113|127:140,1,50
123,136,66706,2,0,B|176:136,1,50
224,72,67098,1,6
304,72,67359,6,2,B|344:120|264:128|304:168,2,100,2|10|2
392,112,68141,2,2,B|440:224|312:280,1,200
323,274,68793,1,0
323,274,68924,1,0
176,264,69185,1,4
208,88,72576,5,2
256,16,72837,1,8
304,88,73098,1,0
256,192,73359,5,4
232,272,73620,1,0
168,312,73880,2,0,B|128:272|80:320,2,100,2|0|2
232,272,74663,1,0
168,224,74924,2,0,B|120:192|160:136,1,100,4|0
248,48,75446,5,4
328,48,75706,2,0,B|360:56|368:88,1,50
364,78,75967,1,8
432,112,76228,1,0
432,112,76359,1,0
416,192,76620,1,0
416,192,76750,2,0,B|376:216|344:176|312:208,2,100,0|4|0
352,328,77533,5,4
272,344,77793,1,0
216,288,78054,2,0,B|184:168|56:184,1,200
8,128,78837,2,0,B|24:72|96:72,1,100,0|2
144,16,79359,1,2
168,88,79620,1,4
248,88,79880,2,0,B|240:112|272:128,1,50
270,127,80141,1,8
352,128,80402,2,0,B|384:152|352:176,1,50
359,169,80793,2,0,B|336:192|360:216,1,50
432,240,81185,2,0,B|432:296|360:320,1,100,8|0
256,224,81706,5,4
144,336,82228,1,8
64,320,82489,1,0
40,240,82750,1,2
56,160,83011,2,0,B|160:160,2,100,0|4|0
176,48,83793,6,0,B|200:152|344:136,1,200,4|8
408,120,84576,1,0
408,120,84706,2,0,B|448:152|376:168|424:208,1,100
423,207,85098,1,2
384,280,85359,2,0,B|336:312|288:256,1,100,0|0
256,192,85880,6,0,B|208:96|80:120,1,200,4|4
312,48,87185,1,2
456,112,87706,1,2
440,192,87967,6,0,B|400:264|360:168|312:256,1,150,4|0
316,249,88489,1,0
240,216,88750,1,0
240,216,88880,2,0,B|168:200|152:264,1,100
156,250,89272,1,0
64,120,89533,5,8
156,250,89793,1,0
232,120,90054,2,0,B|304:40|424:96,1,200,4|2
464,152,90837,1,0
392,296,91359,5,0
352,224,91620,1,4
320,296,91880,1,2
280,224,92141,1,4
232,160,92402,2,0,B|216:136|184:152,1,50
187,150,92663,2,0,B|176:184|136:168,1,50,4|2
112,160,92924,5,0
88,80,93185,1,4
168,64,93446,2,0,B|272:32,2,100,0|8|0
208,216,94228,6,0,B|256:312|376:304,1,200,4|0
400,224,95011,1,2
368,64,95533,2,0,B|480:64,2,100,2|8|0
288,64,96315,1,4
240,128,96576,1,0
160,144,96837,1,0
160,144,96967,1,0
160,144,97098,1,0
256,192,97359,12,4,98402
448,136,99446,6,0,B|416:88|360:104,1,100,2|0
296,56,99968,1,2
288,136,100229,1,0
208,136,100489,2,0,B|208:200|272:208,2,100,2|0|2
136,176,101272,1,0
112,248,101533,2,0,B|128:304|160:248|200:296,1,100,2|2
272,264,102055,1,2
320,328,102316,1,0
448,328,102576,5,0
56,64,103620,6,4,B|264:64,1,200
256,224,104663,5,2
336,248,104924,1,0
416,224,105185,2,0,B|392:176|432:120,1,100,2|0
472,64,105707,2,0,B|432:16|368:32,1,100,2|2
328,80,106229,1,0
248,64,106489,1,2
152,144,106750,5,0
152,144,107011,1,0
152,144,107272,1,0
152,144,107533,1,0
96,200,107794,6,0,B|88:272|144:280,1,100,2|0
208,232,108316,2,0,B|264:240|280:296,1,100,2|0
312,368,108837,1,2
360,304,109098,1,0
432,280,109359,2,0,B|464:240|432:184,1,100,2|0
384,128,109881,1,2
312,168,110142,1,2
240,136,110402,1,2
192,72,110663,1,0
112,168,110924,5,0
184,208,111185,1,0
112,240,111446,1,0
40,272,111707,1,0
112,312,111968,1,0
184,344,112229,6,0,B|240:360|272:312,1,100,0|2
328,248,112750,2,0,B|376:216|424:248,2,100,0|2|0
256,208,113533,1,2
240,128,113794,1,2
168,88,114055,2,0,B|152:144|88:144,1,100,2|2
48,264,114576,1,8
88,328,114837,1,0
256,328,115098,5,4
336,320,115359,2,0,B|344:264|408:264,1,100,0|8
472,224,115881,1,0
408,184,116142,2,0,B|384:136|336:192|328:136,1,100
328,142,116533,2,0,B|344:112|312:96,1,50,0|8
317,100,116794,1,0
280,104,116924,2,0,B|240:96|256:56,1,50
224,40,117185,1,0
144,40,117446,5,0
72,80,117707,1,8
64,160,117968,1,0
96,232,118229,2,2,B|112:336|256:328,1,200,2|2
247,329,118881,1,0
247,329,119011,1,0
360,248,119272,5,4
408,192,119533,1,0
408,192,119663,1,0
408,192,119794,1,0
336,152,120055,1,2
368,80,120315,1,0
288,56,120576,1,0
288,56,120707,2,0,B|256:40|240:72,1,50
244,66,120968,2,0,B|216:88|192:64,1,50
120,128,121359,1,4
56,224,121620,5,0
96,296,121881,1,0
176,296,122142,1,0
136,224,122402,2,2,B|200:184|248:264|336:208,1,200
329,213,123055,1,0
329,213,123185,1,0
256,64,123446,1,4
176,64,123707,5,0
96,80,123968,1,8
64,152,124229,1,0
64,232,124489,2,2,B|120:208|160:248,1,100
168,328,125011,1,0
248,328,125272,2,2,B|304:328|288:280|336:288,1,100
408,320,125794,1,0
440,248,126055,1,8
368,216,126315,1,0
368,216,126576,2,2,B|272:160,2,100
360,136,127359,2,2,B|264:80,1,100,2|4
200,56,127881,5,0
200,56,128011,2,0,B|160:96,1,50
164,92,128272,2,0,B|128:80|120:112,1,50
64,168,128663,1,2
80,248,128924,1,0
80,248,129055,2,0,B|102:271|127:244,1,50
123,248,129315,2,0,B|176:248,1,50
224,312,129707,1,6
304,312,129968,6,2,B|344:264|264:256|304:216,2,100,2|10|2
392,272,130750,2,2,B|440:160|312:104,1,200
323,110,131402,1,0
323,110,131533,1,0
172,111,131794,1,4
