osu file format v5

[General]
AudioFilename: 02 Britney Spears - Circus.mp3
AudioLeadIn: 0
PreviewTime: -1
Countdown: 0
SampleSet: Soft
StackLeniency: 0.7
Mode: 0
LetterboxInBreaks: 1
EditorDistanceSpacing: 1

[Metadata]
Title:Circus
Artist:Britney Spears
Creator:Larto
Version:Larto
Source:
Tags:

[Difficulty]
HPDrainRate:7
CircleSize:5
OverallDifficulty:7
SliderMultiplier:2
SliderTickRate:0.5

[Events]
//Background and Video events
0,0,"Britney-SpearsCircus-Wal2.png"
//Break Periods
2,69383,70070
2,135644,137635
//Storyboard Layer 0 (Background)
4,0,1,"spotlight.png",314,276 M,0,33446,33706,317,237,240,188 F,0,33446,33706,0,1 S,0,33446,42054,1.6656,1.88064 M,0,33706,34228,240,188,387,186 F,0,33706,52488,1 M,0,34228,34750,387,186,395,321 M,0,34750,35272,395,321,215,340 M,0,35272,35793,215,340,204,189 M,0,35793,36315,204,189,400,168 M,0,36315,36837,400,168,413,360 M,0,36837,37359,413,360,180,372 M,0,37359,37880,180,372,167,132 M,0,37880,38402,167,132,423,127 M,0,38402,38924,423,127,450,401 M,0,38924,39446,450,401,156,413 M,0,39446,39967,156,413,134,119 M,0,39967,40489,134,119,444,104 M,0,40489,41011,444,104,478,418 M,0,41011,41533,478,418,124,451 M,0,41533,42054,124,451,116,82 M,0,42054,42440,116,82,359,79 M,0,42440,42576,359,79,460,79 M,0,42576,42688,460,79,460,119 M,0,42688,42692,460,119 M,0,42692,42708,460,119 M,0,42708,43098,460,119,465,406 M,0,43098,43620,465,406,469,232 M,0,43620,43712,469,232,418,262 M,0,43712,44141,418,262,123,439 M,0,44141,44663,123,439,316,447 M,0,44663,45185,316,447,115,90 M,0,45185,45706,115,90,113,266 M,0,45706,46228,113,266,455,89 M,0,46228,46750,455,89,258,89 M,0,46750,47272,258,89,286,261 M,0,47272,47533,286,261,266,243 M,0,47533,47793,266,243,276,233 M,0,47793,48054,276,233,301,266 M,0,48054,48315,301,266,295,326 M,0,48315,48576,295,326,223,259 M,0,48576,48837,223,259,281,193 M,0,48837,49098,281,193,365,262 M,0,49098,49359,365,262,303,389 M,0,49359,49620,303,389,152,264 M,0,49620,49880,152,264,295,103 M,0,49880,50141,295,103,441,250 M,0,50141,50401,441,250,436,244 M,0,50401,50662,436,244,418,230 M,0,50662,50923,418,230,388,233 M,0,50923,51184,388,233,371,251 M,0,51184,51445,371,251,367,280 M,0,51445,51706,367,280,349,292 M,0,51706,51967,349,292,336,291 M,0,51967,52227,336,291,324,283 M,0,52227,52488,324,283,311,275 F,0,52488,52748,1,0
4,0,1,"bgw.png",320,240 F,0,135444,135966,1,0
//Storyboard Layer 1 (Failing)
//Storyboard Layer 2 (Passing)
//Storyboard Layer 3 (Foreground)
4,3,1,"spotlight.png",326,329 F,0,98140,98401,0,1 M,0,98401,98661,322,104,216,126 F,0,98401,114835,1 M,0,98661,98922,216,126,133,179 M,0,98922,99183,133,179,142,244 M,0,99183,99444,142,244,205,340 M,0,99444,,205,340 M,0,99444,,205,340 M,0,99444,99705,205,340,296,364 M,0,99705,99966,296,364,370,298 M,0,99966,100227,370,298,393,205 M,0,100227,100488,393,205,347,119 M,0,100488,100748,347,119,248,153 M,0,100748,101009,248,153,225,237 M,0,101009,101270,225,237,290,327 M,0,101270,101531,290,327,372,333 M,0,101531,101792,372,333,462,265 M,0,101792,102053,462,265,466,176 M,0,102053,102314,466,176,394,114 M,0,102314,102574,394,114,312,138 M,0,102574,102835,312,138,301,225 M,0,102835,103096,301,225,350,303 M,0,103096,103357,350,303,423,379 M,0,103357,103618,423,379,543,358 M,0,103618,103879,543,358,528,261 S,0,103618,,1.98304 M,0,103879,104140,528,261,458,193 M,0,104140,104401,458,193,360,161 M,0,104401,104661,360,161,288,202 M,0,104661,104922,288,202,238,255 M,0,104922,105183,238,255,255,364 M,0,105183,105444,255,364,366,374 M,0,105444,105705,366,374,418,339 M,0,105705,105966,418,339,404,241 M,0,105966,106227,404,241,294,194 M,0,106227,106488,294,194,205,227 M,0,106488,106748,205,227,116,241 M,0,106748,107009,116,241,73,282 M,0,107009,107270,73,282,142,350 M,0,107270,107531,142,350,212,388 M,0,107531,107792,212,388,276,334 M,0,107792,108053,276,334,301,238 M,0,108053,108183,301,238,268,206 M,0,108183,108314,268,206,268,111 M,0,108314,108444,268,111,335,44 M,0,108444,108574,335,44,367,110 M,0,108574,108705,367,110,436,94 M,0,108705,108835,436,94,433,140 M,0,108835,108966,433,140,481,215 M,0,108966,109096,481,215,480,241 M,0,109096,109227,480,241,450,289 M,0,109227,109357,450,289,415,346 M,0,109357,109618,415,346,301,403 M,0,109618,109748,301,403,281,406 M,0,109748,109879,281,406,221,416 M,0,109879,110140,221,416,147,329 M,0,110140,110270,147,329,151,255 M,0,110270,110401,151,255,127,234 M,0,110401,110661,127,234,131,153 M,0,110661,110792,131,153,175,114 M,0,110792,110922,175,114,195,94 M,0,110922,111053,195,94,233,51 M,0,111053,111183,233,51,278,112 M,0,111183,111314,278,112,332,116 M,0,111314,111444,332,116,376,145 M,0,111444,111705,376,145,312,208 M,0,111705,111835,312,208,287,180 M,0,111835,111966,287,180,312,258 M,0,111966,112227,312,258,411,250 M,0,112227,112488,411,250,306,249 M,0,112488,112748,306,249,190,252 M,0,112748,113009,190,252,303,255 M,0,113009,113270,303,255,459,253 M,0,113270,113531,459,253,292,254 M,0,113531,113792,292,254,117,243 M,0,113792,114053,117,243,175,357 M,0,114053,114314,175,357,348,377 M,0,114314,114574,348,377,282,262 M,0,114574,114835,282,262,286,106 M,0,114835,114901,286,106,269,115 F,0,114835,115357,1,0 M,0,114901,114966,269,115,268,127 M,0,114966,115031,268,127,275,134 M,0,115031,115096,275,134,286,146 M,0,115096,115161,286,146,294,162 M,0,115161,115227,294,162,298,184 M,0,115227,115292,298,184,284,195 M,0,115292,115357,284,195,278,223 F,0,115357,115389,0,0.02044564 F,0,115389,115397,0.02044564 F,0,115397,115405,0.02044564 F,0,115405,115413,0.02044564 F,0,115413,115421,0.02044564 F,0,115421,115429,0.02044564 F,0,115429,115435,0.02044564 F,0,115435,129981,0.02044564
4,3,1,"bgw.png",320,240 F,0,114835,115357,0.5289601,0
4,3,1,"bgb.png",320,240 F,0,50141,52488,0,1
4,3,1,"bgw.png",320,240 F,0,52488,52748,1,0
4,3,1,"bgb.png",320,240 M,0,132314,,320,240 F,0,132314,132770,0.41472 F,0,132770,132835,0.41472,0.5836801 F,0,132835,133292,0.5836801 F,0,133292,133357,0.5836801,0.7116801 F,0,133357,133814,0.7116801 F,0,133814,133879,0.7116801,0.8089601 F,0,133879,134335,0.8089601 F,0,134335,134401,0.8089601,0.8960001 F,0,134401,134857,0.8960001 F,0,134857,134922,0.8960001,1 F,0,134922,135444,1,0.9911828
4,3,1,"bgw.png",320,240 F,0,186053,187618,1,0
//Storyboard Sound Samples
//Background Colour Transformations
3,100,0,0,0

[TimingPoints]
7620,521.739130434783,4,2,0,52,1,0
8025,-100,4,1,0,23,0,0
8285,-100,4,2,0,52,0,0
8547,-100,4,1,0,52,0,0
8807,-100,4,2,0,52,0,0
10634,-100,4,1,0,34,0,0
11415,-100,4,2,0,52,0,0
12199,-100,4,1,0,52,0,0
12459,-100,4,2,0,52,0,0
12720,-100,4,1,0,52,0,0
12980,-100,4,2,0,52,0,0
14807,-100,4,1,0,26,0,0
15067,-100,4,2,0,52,0,0
15458,-100,4,1,0,34,0,0
15588,-100,4,2,0,52,0,0
15981,-100,4,1,0,41,0,0
16111,-100,4,2,0,52,0,0
16370,-100,4,1,0,52,0,0
16630,-100,4,2,0,52,0,0
16894,-100,4,1,0,52,0,0
17154,-100,4,2,0,52,0,0
18981,-100,4,1,0,28,0,0
19764,-100,4,2,0,52,0,0
20547,-100,4,1,0,38,0,0
20807,-100,4,2,0,52,0,0
21067,-100,4,1,0,52,0,0
21460,-100,4,1,0,35,0,0
21851,-100,4,2,0,52,0,0
23272,-100,4,1,0,41,0,0
24837,-100,4,1,0,52,0,0
25620,-100,4,1,0,39,0,0
26011,-100,4,2,0,52,0,0
27315,-100,4,1,0,52,0,0
27575,-100,4,2,0,52,0,0
28880,-100,4,1,0,32,0,0
29140,-100,4,2,0,52,0,0
29400,-100,4,1,0,49,0,0
29793,-100,4,1,0,33,0,0
30185,-100,4,2,0,52,0,0
31489,-100,4,1,0,36,0,0
31749,-100,4,2,0,52,0,0
32140,-100,4,1,0,59,0,0
32270,-100,4,2,0,74,0,0
33220,-100,4,1,0,72,0,0
33313,-100,4,2,0,52,0,0
50141,2086.95652173913,4,2,0,52,1,0
50150,-100,4,2,0,0,0,0
50401,-100,4,2,0,0,0,0
50661,-100,4,2,0,0,0,0
50921,-100,4,2,0,15,0,0
51181,-100,4,2,0,27,0,0
51441,-100,4,2,0,34,0,0
51701,-100,4,2,0,43,0,0
51961,-100,4,2,0,47,0,0
52221,-100,4,2,0,52,0,0
52488,521.739130434783,4,1,0,52,1,1
69873,-100,4,2,0,0,0,0
71401,-100,4,2,0,9,0,0
71531,-100,4,2,0,15,0,0
71791,-100,4,2,0,24,0,0
72051,-100,4,2,0,36,0,0
72311,-100,4,2,0,52,0,0
73227,-100,4,1,0,52,0,0
73618,-100,4,1,0,38,0,0
74009,-100,4,2,0,52,0,0
75183,-100,4,1,0,38,0,0
75704,-100,4,2,0,52,0,0
76227,-100,4,1,0,41,0,0
76748,-100,4,2,0,52,0,0
77401,-100,4,1,0,49,0,0
77661,-100,4,2,0,52,0,0
77922,-100,4,1,0,40,0,0
78182,-100,4,2,0,52,0,0
79488,-100,4,1,0,19,0,0
79748,-100,4,2,0,52,0,0
80139,-100,4,1,0,31,0,0
80269,-100,4,2,0,52,0,0
80660,-100,4,1,0,41,0,0
80790,-100,4,2,0,52,0,0
81181,-100,4,1,0,52,0,0
81311,-100,4,2,0,52,0,0
81702,-100,4,1,0,52,0,0
81832,-100,4,2,0,52,0,0
83661,-100,4,1,0,39,0,0
84443,-100,4,2,0,39,0,0
85225,-100,4,1,0,41,0,0
85485,-100,4,2,0,37,0,0
85745,-100,4,1,0,52,0,0
86005,-50,4,2,0,52,0,0
87966,-100,4,2,0,52,0,0
88357,-100,4,1,0,18,0,0
88617,-100,4,2,0,51,0,0
88877,-100,4,1,0,25,0,0
89137,-100,4,2,0,51,0,0
89397,-100,4,1,0,35,0,0
89657,-100,4,2,0,51,0,0
89917,-100,4,1,0,51,0,0
90177,-100,4,2,0,51,0,0
92009,-100,4,1,0,40,0,0
92269,-100,4,1,0,39,0,0
92464,-100,4,2,0,57,0,0
92594,-100,4,1,0,41,0,0
92789,-100,4,2,0,40,0,0
93053,-100,4,1,0,39,0,0
93605,-100,4,2,0,52,0,0
93770,-100,4,1,0,41,0,0
94357,-100,4,1,0,40,0,0
94879,-100,4,2,0,52,0,0
96313,-100,4,1,0,41,0,0
96444,-100,4,2,0,52,0,0
96704,-100,4,1,0,39,0,0
96965,-100,4,2,0,52,0,0
97225,-100,4,1,0,51,0,0
98268,-100,4,2,0,52,0,0
114705,-100,4,1,0,51,0,0
114835,-100,4,1,0,49,0,1
134661,-100,4,1,0,0,0,1
135183,-100,4,2,0,49,0,0
135443,-100,4,2,0,49,0,1
135705,-100,4,2,0,49,0,1
139488,-100,4,1,0,40,0,0
139683,-100,4,2,0,50,0,0
140009,-100,4,1,0,50,0,0
140531,-200,4,2,0,51,0,0
142227,-100,4,1,0,41,0,0
142748,-100,4,2,0,50,0,0
143596,-100,4,1,0,44,0,0
143856,-100,4,2,0,49,0,0
144182,-100,4,1,0,49,0,0
144573,-100,4,2,0,51,0,0
145748,-100,4,1,0,45,0,0
146008,-200,4,2,0,50,0,0
147966,-100,4,1,0,49,0,0
148096,-100,4,2,0,0,0,0
150053,-200,4,2,0,49,0,0
152350,-100,4,1,0,45,0,0
152661,-100,4,1,0,50,0,1
169227,-100,4,1,0,50,0,0
169357,-100,4,1,0,49,0,1
185988,-100,4,1,0,50,0,0
186053,-100,4,1,0,50,0,0

[Colours]
Combo1 : 255,172,0
Combo2 : 146,240,4
Combo3 : 1,86,243
Combo4 : 242,56,2

[HitObjects]
256,184,7881,5,0
256,184,8142,5,4
256,184,8403,5,0
256,104,8664,1,4
256,264,9185,6,2,B|328:352|368:288,1,100,2|0
256,264,9706,2,0,B|184:352|144:288,1,100,2|2
120,256,10228,1,0
72,192,10489,1,0
120,128,10750,1,4
192,232,11272,1,8
192,152,11533,1,0
256,48,12054,5,0
256,48,12315,1,0
256,48,12576,1,2
256,128,12837,6,0,B|360:128,1,100,4|0
320,200,13359,2,0,B|216:200,1,100,2|0
136,192,13880,1,0
96,256,14141,6,2,B|168:256,2,50,2|0|2
184,256,14663,1,0
264,256,14924,1,8
344,256,15185,2,0,B|448:296,1,100,0|8
416,216,15706,2,0,B|304:168,1,100,0|8
256,152,16228,1,0
192,88,16489,1,8
320,88,16750,1,0
256,152,17011,1,4
256,232,17272,1,0
136,224,17533,6,2,B|136:304|224:296,1,100
376,224,18054,2,0,B|376:304|288:296,1,100
256,368,18576,1,8
256,288,18837,1,0
256,208,19098,1,4
216,48,19620,5,8
296,48,19880,1,0
216,208,20402,5,2
296,208,20663,1,0
360,160,20924,1,0
360,256,21185,1,4
152,256,21706,1,8
152,160,21967,1,0
256,304,22489,6,2,B|288:368|256:336|352:336,1,100
256,304,23011,2,0,B|224:240|256:272|160:272,1,100,0|8
256,192,23533,12,0,24837
256,56,25359,5,4
256,232,25880,1,8
256,232,26141,1,2
400,160,26663,5,2
352,232,26924,1,0
304,296,27185,1,0
256,360,27446,1,4
112,160,27967,5,2
160,232,28228,1,0
208,296,28489,1,0
256,360,28750,5,0
256,256,29011,1,8
256,152,29272,1,0
256,40,29533,1,4
296,200,30054,5,8
216,200,30315,1,0
56,272,30837,5,0
112,328,31098,1,2
168,272,31359,1,0
248,272,31620,2,0,B|464:272,1,200,4|0
496,192,32402,1,2
416,192,32663,2,0,B|200:192,1,200,2|8
136,192,33446,1,4
184,128,33706,5,8
336,120,34228,5,8
344,272,34750,5,8
160,280,35272,5,8
152,96,35793,5,8
368,88,36315,5,8
376,304,36837,5,8
128,312,37359,5,8
120,64,37880,5,8
400,56,38402,5,8
408,336,38924,5,8
96,344,39446,5,8
88,32,39967,5,8
432,24,40489,5,8
440,368,41011,5,8
72,368,41533,5,8
72,16,42054,5,8
440,16,42576,5,8
440,368,43098,6,8,B|440:152,1,200
80,376,44141,6,8,B|296:376,1,200
72,16,45185,6,8,B|72:232,1,200
432,8,46228,6,8,B|216:8,1,200
256,200,47272,5,8
248,192,47533,1,0
256,184,47793,1,8
264,192,48054,1,0
256,272,48315,5,8
176,192,48576,1,0
256,112,48837,1,8
336,192,49098,1,0
256,344,49359,5,8
104,192,49620,1,0
256,40,49880,1,8
400,192,50141,2,0,B|344:56|320:352|248:184,1,225,0|4
176,192,52748,6,0,B|104:192,2,50,0|0|8
176,112,53270,1,0
176,32,53531,1,8
336,32,53792,6,0,B|386:32,2,50,0|0|8
336,112,54314,1,0
336,192,54575,1,8
256,288,54835,5,0
256,208,55096,1,8
256,128,55357,1,0
256,48,55618,2,4,B|192:48|160:48|160:136|184:128|256:128|256:128|360:128|376:200|312:208|224:208,1,400
176,208,56922,6,0,B|144:256,2,50,0|0|8
216,280,57444,1,0
296,280,57705,1,8
336,208,57966,2,0,B|368:256,4,50,0|0|8|0|0
256,192,58748,1,4
256,112,59009,6,0,B|256:8,2,100,0|8|0
192,192,59792,6,4,B|200:240|216:256|256:272|296:256|320:240|320:160,1,200,4|0
318,189,60444,1,0
318,189,60574,1,0
320,112,60835,1,4
320,32,61096,6,2,B|440:32,2,100
192,64,61879,2,6,B|72:64,2,100,6|6|6
320,96,62661,2,6,B|440:96,2,100,6|6|6
192,128,63444,2,8,B|72:128,2,100,8|8|10
256,192,64227,1,2
256,104,64488,1,8
256,16,64748,1,4
384,152,65270,5,0
384,152,65401,1,0
384,152,65531,1,8
384,152,65661,1,0
384,152,65792,1,0
320,240,66053,1,8
128,232,66314,5,0
128,232,66445,1,0
128,232,66575,1,8
128,232,66705,1,0
128,232,66836,1,0
192,144,67097,1,8
256,192,67357,12,4,69183
248,192,71270,6,0,B|296:192,16,25,0|0|0|0|0|0|0|0|0|0|0|0|0|0|0|0|0
312,128,72574,5,2
200,128,72835,1,0
312,256,73096,5,2
200,256,73357,1,4
80,88,73879,6,0,B|80:200,1,100,8|0
80,280,74401,1,2
256,280,74922,1,0
432,280,75444,1,8
376,104,75966,5,8
136,104,76488,1,8
136,280,77010,5,8
198,344,77270,1,0
256,280,77531,1,4
314,344,77792,1,0
376,280,78052,1,8
376,104,78835,5,0
314,40,79095,1,2
256,104,79356,1,0
198,40,79617,1,8
136,104,79878,6,0,B|136:248,1,100,2|8
208,264,80400,2,0,B|208:120,1,100,0|8
280,136,80921,2,0,B|280:236,1,100,8|8
352,296,81443,2,0,B|352:196,1,100,8|12
192,112,82227,5,2
96,112,82488,1,0
144,192,82748,1,2
320,272,83270,1,2
416,272,83531,1,0
368,192,83791,1,8
208,272,84314,5,8
256,192,84574,1,0
304,112,84835,1,0
208,112,85096,1,2
256,192,85357,1,8
304,272,85617,1,0
256,352,85879,1,4
168,344,86140,6,8,C|160:328|176:312|160:296|176:280|160:264|176:248|160:232|176:216|160:200,1,200,8|12
256,64,87183,1,2
344,344,87705,2,8,C|352:328|336:312|352:296|336:280|352:264|336:248|352:232|336:216|352:200,1,200,8|12
432,224,88227,5,2
432,136,88488,1,8
352,96,88748,1,0
272,144,89009,1,8
240,224,89270,1,8
160,272,89531,1,8
80,232,89791,1,8
80,144,90052,1,4
208,32,90574,6,2,C|208:136,1,100
256,296,91357,5,0
192,240,91618,1,2
192,152,91879,1,0
256,200,92140,1,4
256,104,92401,1,0
256,104,92531,1,2
256,104,92661,1,8
320,152,92922,1,2
320,240,93183,1,8
392,192,93444,6,0,C|496:192,2,100,0|2|0
256,192,94227,1,4
256,192,94748,5,8
256,192,95009,1,0
88,256,95531,6,0,B|64:192|88:128,1,100,0|2
136,88,96053,2,0,B|176:48|240:48,1,100,0|8
328,80,96574,1,0
424,128,96835,2,0,B|448:192|424:256,1,100,12|0
376,296,97357,2,0,B|336:336|272:336,1,100,12|0
256,240,97879,1,8
256,136,98140,1,0
256,32,98401,5,12
160,56,98661,1,0
88,120,98922,1,8
96,216,99183,1,0
160,288,99444,5,8
256,288,99705,1,0
328,224,99966,1,8
352,128,100227,1,0
280,64,100488,5,8
184,88,100748,1,0
168,184,101009,1,8
248,240,101270,1,0
344,248,101531,5,8
424,184,101792,1,0
440,88,102053,1,8
360,24,102314,1,0
272,72,102574,5,8
256,168,102835,1,0
296,256,103096,1,8
384,312,103357,1,0
480,288,103618,5,8
496,192,103879,1,0
440,112,104140,1,8
344,80,104401,1,0
256,128,104661,5,8
200,208,104922,1,0
224,304,105183,1,8
320,320,105444,1,0
392,256,105705,5,8
352,160,105966,1,0
256,128,106227,1,8
160,144,106488,1,0
64,176,106748,5,8
16,264,107009,1,0
80,336,107270,1,8
176,312,107531,1,0
256,248,107792,6,0,B|296:192|272:120,1,100,8|0
240,120,108183,1,0
240,72,108314,6,0,B|288:24|352:48,1,100,8|0
376,64,108705,1,0
408,104,108835,6,0,B|456:160|408:232,1,100,8|0
400,240,109227,1,0
376,288,109357,6,0,B|344:336|256:320,1,100,8|0
240,312,109748,1,0
192,304,109879,6,0,B|96:280|96:208,1,100,8|0
72,216,110270,1,0
56,168,110401,6,0,B|48:104|104:48,1,100,8|0
112,32,110792,1,0
160,16,110922,6,0,B|216:8|264:32,1,100,8|0
296,56,111314,1,0
328,88,111444,6,0,B|344:136|264:152,1,100,8|0
256,192,111835,1,0
256,192,111966,5,8
368,192,112227,1,0
256,192,112487,1,8
144,192,112748,1,0
256,192,113009,5,8
432,192,113270,1,0
256,192,113531,1,8
80,192,113792,1,0
168,320,114053,5,8
344,320,114314,1,8
256,192,114574,1,8
256,32,114835,2,0,B|152:88|368:120|240:200,1,200,4|0
256,192,115488,1,0
256,192,115618,1,8
256,280,115879,6,8,B|240:304|240:304|272:320|272:320|256:360,1,100,0|8
168,336,116401,6,0,B|112:328,2,50,0|0|8
344,336,116922,2,0,B|400:328,2,50,0|0|4
336,248,117444,1,0
256,208,117705,1,8
176,248,117966,1,0
88,224,118227,2,0,B|40:152|72:104,1,100
120,64,118748,2,8,B|168:8|224:16,1,100
264,88,119270,1,4
336,136,119531,6,0,B|384:168|336:192,2,50,0|0|8
256,216,120053,2,0,B|208:184|256:160,2,50,0|0|8
344,280,120574,1,0
344,280,120835,1,8
344,280,121096,1,0
344,280,121357,1,12
232,280,121618,6,0,B|208:280|208:280|208:248|208:248|160:248,1,100,0|8
56,208,122140,2,0,B|80:208|80:208|80:240|80:240|128:240,1,100,0|8
112,328,122661,2,8,B|112:304|112:304|144:304|144:304|144:256,1,100,0|8
184,152,123183,2,0,B|184:176|184:176|152:176|152:176|152:224,1,100,4|4
256,192,123705,6,2,B|328:96,2,100
256,192,124488,2,6,B|184:288,2,100
256,192,125270,2,6,B|352:264,2,100
256,192,126053,2,0,B|160:120,2,100,8|0|10
256,192,126835,1,2
256,192,127096,1,8
256,192,127357,1,4
88,72,127879,6,0,B|88:8,2,50,0|0|8
200,72,128401,1,0
312,72,128661,1,8
424,72,128922,2,0,B|424:8,2,50,0|0|8
312,72,129444,1,0
200,72,129704,1,8
256,192,129966,12,4,131792
256,24,132314,5,8
256,88,132835,1,8
256,152,133357,1,8
256,216,133879,1,8
256,280,134401,1,8
256,344,134922,1,8
256,344,135444,5,2
136,192,138835,5,2
96,264,139227,1,2
176,264,139618,1,8
176,264,139748,1,0
176,264,139879,1,2
136,336,140140,1,4
256,192,140922,5,0
256,192,141053,1,0
256,192,141183,1,2
256,192,141314,1,0
256,192,141444,1,2
256,192,141574,1,2
256,192,141705,2,8,B|240:144|280:152|256:88,1,100,0|8
376,192,143009,5,2
416,120,143401,1,2
336,120,143792,1,8
336,120,143922,1,0
336,120,144053,1,2
376,48,144314,1,4
208,352,145096,6,0,B|320:352,1,100,2|0
288,296,145488,1,0
224,296,145618,1,2
168,192,145879,5,8
344,192,146270,1,2
256,80,146661,1,0
304,136,146922,1,2
208,136,147183,1,0
256,192,147444,6,4,B|208:240|296:224|256:328,1,100,4|4
256,192,148488,12,2,150053
368,88,150444,5,2
144,88,150835,5,2
256,88,151096,5,0
256,192,151357,5,2
256,192,151488,1,2
256,192,151618,2,0,B|232:232|280:232|248:280,1,75
256,263,152140,5,2
256,263,152270,1,2
256,263,152401,1,8
352,264,152661,5,4
352,160,152922,6,0,B|352:96,1,50
352,56,153183,1,8
248,64,153444,2,0,B|192:88|184:160,1,100,0|8
160,224,153966,6,0,B|160:288,1,50
160,328,154227,1,8
264,320,154488,2,0,B|320:296|328:224,1,100,0|8
256,192,155009,5,0
256,192,155270,1,8
256,192,155531,1,0
168,264,155792,2,12,C|216:248|248:264|288:248|320:264|360:248,1,200
350,252,156444,1,0
350,252,156574,1,0
344,152,156835,5,8
256,104,157096,1,0
168,152,157357,1,8
256,200,157618,1,0
256,288,157879,2,0,B|216:336|304:320|248:384,1,100,8|0
216,360,158270,1,0
176,376,158401,1,8
136,360,158531,1,0
96,376,158661,1,0
56,360,158792,1,0
16,376,158922,1,12
80,296,159183,5,0
200,296,159444,1,8
320,296,159705,1,0
440,296,159966,2,8,C|408:296|408:216,1,100,8|0
376,112,160488,2,0,C|408:112|408:192,1,100,8|0
408,176,161009,1,4
304,224,161270,6,2,C|184:224,1,100,2|2
88,192,161792,1,2
208,160,162053,2,2,C|328:160,1,100,6|6
424,136,162575,1,6
304,96,162835,2,2,C|184:96,1,100,6|6
88,64,163357,1,6
200,32,163618,2,0,C|320:32,1,100,10|10
312,152,164140,5,2
200,152,164401,1,8
200,272,164661,1,8
312,272,164922,1,4
480,80,165444,5,0
424,80,165574,1,0
368,80,165705,1,8
312,80,165835,1,0
256,80,165966,1,0
136,80,166227,1,8
32,248,166488,5,0
88,248,166618,1,0
144,248,166749,1,8
200,248,166879,1,0
256,248,167010,1,0
376,248,167271,1,8
256,192,167531,12,4,169357
296,344,169618,6,0,L|352:344|352:280,1,100,0|8
216,344,170140,2,0,L|160:344|160:296,1,100,0|8
304,288,170661,2,0,L|304:264|344:264,2,50,0|0|8
216,288,171183,2,0,L|216:264|176:264,2,50,0|0|8
216,168,171705,5,0
320,104,171966,1,4
296,168,172227,1,0
192,104,172488,1,4
264,72,172748,1,0
264,72,172879,1,0
264,72,173009,1,4
264,72,173140,1,0
264,72,173270,1,0
256,176,173531,5,12
352,264,173792,6,0,L|288:280|280:208,1,100,0|8
160,248,174314,2,0,L|224:232|232:304,1,100,0|8
320,352,174835,5,0
256,352,174966,1,0
192,352,175096,1,8
192,232,175357,5,0
256,232,175488,1,0
320,232,175618,1,8
216,168,175879,5,0
320,104,176140,1,4
296,168,176401,1,0
192,104,176662,1,4
264,72,176922,1,0
264,72,177053,1,0
264,72,177183,1,4
264,72,177314,1,0
264,72,177444,1,0
256,176,177705,5,12
256,296,177966,5,2
360,192,178227,1,2
256,88,178488,1,2
152,192,178749,5,6
329,265,179009,1,6
182,265,179270,1,6
182,118,179531,5,6
329,118,179792,1,6
256,296,180053,1,6
360,192,180314,5,2
256,88,180575,1,0
152,192,180836,1,2
256,192,181096,6,8,L|256:320,2,100,8|8|4
96,32,182140,5,0
256,32,182401,1,8
416,32,182661,1,0
424,192,182922,1,8
416,352,183183,1,0
256,352,183444,1,8
96,352,183704,1,0
88,192,183965,1,8
256,192,184227,12,0,185531
256,80,186053,5,4
