osu file format v9

[General]
AudioFilename: Break_the_ice.mp3
AudioLeadIn: 982
PreviewTime: 49469
Countdown: 1
SampleSet: Soft
StackLeniency: 0.7
Mode: 0
LetterboxInBreaks: 0

[Editor]
Bookmarks: 139852
DistanceSpacing: 0.7
BeatDivisor: 8
GridSize: 8

[Metadata]
Title:Break the Ice
Artist:Britney Spears
Creator:Larto
Version:Warm
Source:
Tags:Blackout RJ RandomJibberish Random Jibberish

[Difficulty]
HPDrainRate:5
CircleSize:4
OverallDifficulty:5
ApproachRate:5
SliderMultiplier:1.8
SliderTickRate:2

[Events]
//Background and Video events
Video,-1089,"AGingerFairy.avi"
0,0,"Britney-Spears-Wallpapers34.jpg"
//Break Periods
2,67086,73275
2,124277,124850
2,159001,165956
//Storyboard Layer 0 (Background)
//Storyboard Layer 1 (Fail)
//Storyboard Layer 2 (Pass)
//Storyboard Layer 3 (Foreground)
//Storyboard Sound Samples
//Background Colour Transformations
3,100,163,162,255

[TimingPoints]
1710,510.63829787234,4,2,0,68,1,0
11324,-100,4,2,1,49,0,0
11579,-100,4,2,1,31,0,0
11835,-100,4,2,1,68,0,0
13367,-100,4,2,1,52,0,0
13622,-100,4,2,1,31,0,0
13877,-100,4,2,1,68,0,0
15664,-100,4,2,1,30,0,0
15920,-100,4,2,1,68,0,0
17452,-100,4,1,1,44,0,0
17707,-100,4,2,1,68,0,0
17962,-100,4,1,1,68,0,0
18207,-100,4,2,1,68,0,0
18575,-100,4,1,1,68,0,0
18703,-100,4,2,1,68,0,0
19306,-100,4,1,1,49,0,0
19484,-100,4,1,1,68,0,0
19807,-100,4,2,1,68,0,0
19994,-100,4,1,0,68,0,0
20603,-100,4,1,0,51,0,0
21526,-100,4,1,1,68,0,0
21782,-100,4,2,1,68,0,0
22292,-100,4,2,1,68,0,0
23411,-100,4,1,1,49,0,0
23569,-100,4,1,1,69,0,0
23922,-100,4,2,1,69,0,0
24079,-100,4,1,0,69,0,0
24688,-100,4,1,0,49,0,0
25611,-100,4,1,1,68,0,0
25867,-100,4,2,1,68,0,0
26377,-100,4,2,1,68,0,0
26633,-100,4,1,1,49,0,0
26888,-100,4,2,1,68,0,0
27143,-100,4,1,1,68,0,0
27496,-100,4,1,1,52,0,0
27624,-100,4,1,1,71,0,0
28007,-100,4,2,1,51,0,0
28165,-100,4,1,0,71,0,0
28776,-100,4,1,0,50,0,0
29697,-100,4,1,1,68,0,0
30049,-100,4,2,1,68,0,0
30207,-100,4,1,1,68,0,0
30447,-100,4,1,1,51,0,0
30703,-100,4,1,1,68,0,0
30958,-100,4,2,1,68,0,0
31213,-100,4,1,1,68,0,0
31469,-100,4,2,1,56,0,0
31724,-100,4,1,1,45,0,0
31979,-100,4,1,0,69,0,0
32618,-100,4,1,1,69,0,0
32682,-100,4,1,1,50,0,0
32809,-100,4,2,1,69,0,0
33001,-100,4,1,1,69,0,0
33192,-100,4,1,1,51,0,0
33320,-100,4,2,1,70,0,0
33830,-100,4,1,1,69,0,0
33958,-100,4,2,1,69,0,0
34086,-100,4,1,1,69,0,0
34213,-100,4,1,1,51,0,0
34341,-100,4,1,1,69,0,0
34420,-83.3333333333333,4,1,1,69,0,0
34533,-83.3333333333333,4,2,1,69,0,0
34788,-83.3333333333333,4,1,1,69,0,0
35007,-83.3333333333333,4,2,1,69,0,0
35618,-83.3333333333333,4,1,1,69,0,0
36128,-83.3333333333333,4,2,1,69,0,0
36320,-83.3333333333333,4,1,1,69,0,0
36575,-83.3333333333333,4,2,1,69,0,0
36830,-83.3333333333333,4,1,1,69,0,0
37022,-83.3333333333333,4,2,1,69,0,0
37150,-83.3333333333333,4,1,1,37,0,0
37277,-83.3333333333333,4,2,1,51,0,0
37405,-83.3333333333333,4,1,1,71,0,0
37596,-83.3333333333333,4,2,1,71,0,0
37852,-83.3333333333333,4,1,1,71,0,0
38107,-83.3333333333333,4,1,1,48,0,0
38362,-83.3333333333333,4,1,1,71,0,0
39192,-83.3333333333333,4,1,1,49,0,0
39447,-83.3333333333333,4,1,1,71,0,0
39958,-83.3333333333333,4,1,1,66,0,0
40405,-83.3333333333333,4,1,1,70,0,0
42192,-83.3333333333333,4,1,1,50,0,0
42447,-83.3333333333333,4,1,1,68,0,0
42894,-83.3333333333333,4,1,1,55,0,0
43022,-83.3333333333333,4,1,1,68,0,0
43150,-83.3333333333333,4,1,1,53,0,0
43277,-83.3333333333333,4,1,1,39,0,0
43469,-83.3333333333333,4,1,1,63,0,0
44745,-83.3333333333333,4,2,1,63,0,0
45001,-83.3333333333333,4,1,1,63,0,0
45526,-83.3333333333333,4,1,1,68,0,0
45894,-66.6666666666667,4,1,1,53,0,0
45958,-66.6666666666667,4,1,1,38,0,0
46086,-83.3333333333333,4,1,1,68,0,0
47235,-83.3333333333333,4,2,1,68,0,0
47362,-83.3333333333333,4,1,1,50,0,0
47554,-83.3333333333333,4,1,1,68,0,0
48830,-83.3333333333333,4,1,1,56,0,0
49086,-83.3333333333333,4,1,1,43,0,0
49341,-83.3333333333333,4,1,1,69,0,0
50731,-83.3333333333333,4,1,1,68,0,1
67101,-83.3333333333333,4,2,1,68,0,0
74618,-100,4,1,1,68,0,0
74873,-100,4,2,1,68,0,0
75384,-100,4,2,1,68,0,0
75767,-100,4,1,1,68,0,0
76405,-100,4,2,1,68,0,0
76660,-100,4,1,1,68,0,0
76916,-100,4,1,1,49,0,0
77171,-100,4,1,1,71,0,0
77809,-100,4,1,1,49,0,0
78958,-100,4,2,1,68,0,0
79213,-100,4,1,1,68,0,0
80554,-100,4,1,1,49,0,0
80745,-100,4,1,1,69,0,0
81256,-100,4,1,1,68,0,0
81511,-100,4,2,1,68,0,0
82022,-100,4,1,1,68,0,0
82277,-100,4,2,1,68,0,0
82788,-100,4,1,1,68,0,0
83043,-100,4,2,1,68,0,0
83299,-100,4,1,0,68,0,0
84447,-100,4,2,0,68,0,0
84575,-100,4,2,1,68,0,0
84830,-100,4,1,1,68,0,0
85086,-100,4,1,1,49,0,0
85341,-100,4,1,1,71,0,0
85596,-100,4,1,1,61,0,0
85852,-100,4,2,1,49,0,0
86107,-100,4,1,1,74,0,0
86490,-100,4,2,1,74,0,0
86873,-100,4,1,1,74,0,0
87128,-100,4,1,1,51,0,0
87384,-100,4,1,1,71,0,0
87639,-100,4,1,1,51,0,0
87894,-100,4,2,1,51,0,0
88150,-100,4,1,1,72,0,0
88405,-100,4,2,1,72,0,0
88916,-100,4,1,1,72,0,0
89171,-100,4,1,1,54,0,0
89426,-100,4,1,1,71,0,0
89873,-100,4,1,1,50,0,0
90001,-100,4,2,1,68,0,0
90192,-100,4,1,1,68,0,0
90511,-100,4,2,1,68,0,0
91022,-100,4,1,1,49,0,0
91277,-100,4,1,1,43,0,0
91405,-100,4,1,1,55,0,0
91533,-83.3333333333333,4,1,1,70,0,0
91724,-83.3333333333333,4,2,1,70,0,0
91979,-83.3333333333333,4,1,1,70,0,0
92362,-83.3333333333333,4,1,1,49,0,0
93001,-83.3333333333333,4,1,1,61,0,0
93256,-83.3333333333333,4,1,1,51,0,0
93511,-83.3333333333333,4,1,1,68,0,0
93767,-83.3333333333333,4,2,1,68,0,0
94022,-83.3333333333333,4,1,1,68,0,0
94341,-83.3333333333333,4,1,1,33,0,0
94596,-83.3333333333333,4,1,1,69,0,0
94788,-83.3333333333333,4,1,1,38,0,0
95043,-83.3333333333333,4,1,1,68,0,0
95299,-83.3333333333333,4,1,1,42,0,0
95554,-83.3333333333333,4,1,1,68,0,0
96256,-83.3333333333333,4,2,1,68,0,0
96384,-83.3333333333333,4,1,1,46,0,0
96511,-83.3333333333333,4,1,1,33,0,0
96639,-83.3333333333333,4,1,1,69,0,0
97341,-83.3333333333333,4,1,1,48,0,0
97596,-83.3333333333333,4,1,1,71,0,0
97852,-83.3333333333333,4,1,1,51,0,0
98107,-83.3333333333333,4,1,1,71,0,0
98362,-83.3333333333333,4,1,1,48,0,0
98618,-83.3333333333333,4,1,1,69,0,0
98873,-83.3333333333333,4,1,1,52,0,0
99128,-83.3333333333333,4,1,1,69,0,0
99384,-83.3333333333333,4,1,1,49,0,0
99639,-83.3333333333333,4,1,1,71,0,0
100086,-83.3333333333333,4,2,1,71,0,0
100213,-83.3333333333333,4,1,1,71,0,0
100341,-83.3333333333333,4,1,1,49,0,0
100469,-83.3333333333333,4,1,1,32,0,0
100660,-83.3333333333333,4,1,1,71,0,0
100979,-83.3333333333333,4,1,1,52,0,0
101171,-83.3333333333333,4,1,1,72,0,0
101490,-83.3333333333333,4,1,1,31,0,0
101682,-83.3333333333333,4,1,1,69,0,0
101937,-83.3333333333333,4,2,1,69,0,0
102128,-83.3333333333333,4,1,1,48,0,0
102256,-83.3333333333333,4,1,1,69,0,0
102703,-100,4,1,1,70,0,0
103213,-76.9230769230769,4,1,1,70,0,0
103852,-83.3333333333333,4,1,1,70,0,0
103979,-83.3333333333333,4,2,1,70,0,0
104235,-83.3333333333333,4,1,1,70,0,0
104554,-83.3333333333333,4,2,1,52,0,0
104745,-83.3333333333333,4,1,1,70,0,0
105001,-83.3333333333333,4,1,1,51,0,0
105256,-83.3333333333333,4,1,1,70,0,0
105511,-83.3333333333333,4,1,1,49,0,0
105767,-83.3333333333333,4,1,1,69,0,0
106022,-83.3333333333333,4,1,1,49,0,0
106533,-83.3333333333333,4,1,1,70,0,0
108447,-83.3333333333333,4,1,1,33,0,0
108830,-83.3333333333333,4,1,1,70,0,0
109086,-83.3333333333333,4,1,1,41,0,0
109341,-83.3333333333333,4,2,1,69,0,0
109596,-83.3333333333333,4,1,1,51,0,0
109852,-83.3333333333333,4,1,1,69,0,0
110490,-83.3333333333333,4,1,1,31,0,0
110873,-83.3333333333333,4,1,1,69,0,0
111128,-83.3333333333333,4,1,1,41,0,0
111384,-83.3333333333333,4,2,1,69,0,0
111639,-83.3333333333333,4,1,1,51,0,0
111894,-83.3333333333333,4,1,1,69,0,0
112277,-83.3333333333333,4,1,1,28,0,0
112660,-83.3333333333333,4,1,1,69,0,0
112916,-83.3333333333333,4,1,1,47,0,0
113426,-83.3333333333333,4,1,1,71,0,0
114320,-83.3333333333333,4,1,1,51,0,0
114830,-83.3333333333333,4,1,1,31,0,0
115341,-83.3333333333333,4,1,1,12,0,0
115852,-83.3333333333333,4,1,1,70,0,0
116092,-83.3333333333333,4,1,1,70,0,1
124277,-133.333333333333,4,1,1,70,0,0
125809,-133.333333333333,4,2,1,70,0,0
129511,-100,4,2,1,70,0,0
130277,-133.333333333333,4,2,1,70,0,0
133596,-100,4,2,1,70,0,0
134362,-133.333333333333,4,2,1,70,0,0
170362,-100,4,2,1,70,0,0
171128,-133.333333333333,4,2,1,70,0,0
174320,-83.3333333333333,4,2,1,70,0,0
191156,-83.3333333333333,4,1,1,70,0,1
191299,-83.3333333333333,4,1,1,70,0,0

[Colours]
Combo1 : 198,19,19
Combo2 : 43,149,255
Combo3 : 19,73,215
Combo4 : 49,49,49
Combo5 : 255,0,0

[HitObjects]
256,192,9880,5,4
256,192,10646,2,2,B|328:128|440:128,1,180
496,128,11412,2,0,B|464:64|480:16,1,90
392,56,11922,1,4
392,56,12178,1,0
392,56,12688,6,2,B|184:56,1,180
136,56,13454,1,0
72,96,13710,1,0
40,160,13965,1,4
40,160,14220,1,0
40,160,14731,54,2,B|144:160|184:248|184:296,1,180
192,336,15497,2,0,B|304:336,1,90
360,336,16007,1,4
360,336,16263,1,0
360,336,16773,6,0,B|392:256|360:152,1,180,2|0
336,88,17539,1,8
176,88,18050,53,4
224,152,18305,2,2,B|224:224|184:264|112:296,1,180,2|0
56,320,19071,1,2
24,168,19582,1,8
40,88,19837,1,0
120,112,20092,2,0,B|216:152|304:104,1,180,6|0
352,56,20858,2,2,B|416:144|360:256,1,180,2|0
336,296,21624,1,8
272,256,21880,1,0
128,192,22390,6,0,B|40:176|40:96|112:64,1,180,2|0
176,40,23156,2,2,B|232:120|208:216,1,180,2|8
168,280,23922,1,0
128,352,24178,2,0,B|320:352,1,180,6|0
256,280,24944,2,0,B|448:280,1,180,6|0
416,208,25709,1,8
488,208,25965,1,0
432,56,26475,54,2,B|384:112|264:120,1,180,2|0
192,120,27241,2,0,B|192:240,1,90,6|0
120,232,27752,2,0,B|120:136,1,90,8|0
56,96,28263,2,0,B|0:120|-16:240|64:200|64:312|-16:344,2,270,6|2|8
120,56,30050,1,0
256,32,30561,5,0
256,112,30816,1,8
256,192,31071,1,0
304,256,31327,2,0,B|368:288|440:256|448:192,1,180,6|0
360,192,32092,2,2,B|432:368,1,180,2|0
488,304,32858,1,2
456,232,33114,1,0
424,160,33369,1,2
256,80,33880,1,8
256,160,34135,1,0
256,160,34263,1,0
256,160,34390,21,6
168,208,34646,21,0
160,304,34901,2,2,B|192:256|248:240|264:304|320:288|352:240,1,216.000005149841
432,216,35667,1,0
352,152,35922,1,8
448,104,36178,1,0
365,48,36433,54,0,B|141:48,1,216.000005149841,6|8
64,40,37199,21,0
16,112,37454,1,2
96,128,37709,1,0
176,144,37965,2,0,B|312:144,1,108.000002574921,2|0
376,144,38475,21,6
104,272,38986,21,2
192,312,39241,1,0
256,248,39497,1,6
256,248,40007,2,0,B|288:160|224:112,1,108.000002574921,8|0
216,80,40518,53,4
256,16,40773,1,0
296,80,41029,1,8
336,16,41284,1,6
176,16,41795,1,6
216,152,42305,1,0
296,152,42561,1,6
352,216,42816,5,0
312,288,43071,2,0,B|192:288,1,108.000002574921,8|0
160,216,43582,1,6
80,240,43837,1,0
32,168,44092,1,2
112,144,44348,1,0
176,88,44603,37,6
256,112,44858,22,0,B|256:224,2,108.000002574921,0|2|0
256,32,45624,21,4
320,312,46135,37,2
256,352,46390,1,0
192,312,46646,53,6
48,192,47156,5,8
72,112,47412,1,0
152,128,47667,2,0,B|192:96|192:32,1,108.000002574921,6|0
240,144,48178,2,0,B|200:176|200:240,1,108.000002574921,6|0
208,328,48688,5,6
288,344,48944,1,0
336,272,49199,1,8
400,216,49454,22,2,B|472:176|496:112|448:16,1,216.000005149841,2|0
364,42,50220,2,0,B|124:42,1,216.000005149841,8|6
40,184,51241,5,8
80,256,51497,1,0
152,304,51752,2,0,B|200:320|272:296,1,108.000002574921,2|0
312,224,52263,2,0,B|264:208|192:232,1,108.000002574921,8|0
136,184,52773,1,6
256,64,53284,53,8
344,64,53539,1,0
408,120,53795,2,0,B|448:176|400:232,2,108.000002574921,2|0|8
328,144,54561,1,2
248,176,54816,2,2,B|160:216|64:200|16:160,1,216.000005149841,6|8
64,96,55582,1,0
152,96,55837,2,2,B|176:192|96:304,1,216.000005149841
448,352,56858,5,4
144,248,57369,1,4
360,184,57880,1,4
200,336,58390,1,4
416,280,58901,54,0,B|472:176|424:56,1,216.000005149841,6|8
344,16,59667,1,2
272,88,59922,2,0,B|160:152,1,108.000002574921,2|0
272,192,60433,2,0,B|232:312,1,108.000002574921,8|0
144,352,60944,2,0,B|40:304|24:224|32:152,1,216.000005149841,6|8
48,80,61709,5,0
128,120,61965,1,2
200,64,62220,1,0
280,104,62475,1,8
344,48,62731,1,0
408,104,62986,2,2,B|488:128|488:176|488:224|408:248,1,216.000005149841,6|8
280,360,64007,2,2,B|200:336|200:288|200:240|280:216,2,216.000005149841,2|2|6
112,320,65539,53,6
56,160,66050,1,6
224,200,66561,1,6
256,192,74475,21,0
256,280,74731,1,8
256,192,74986,1,0
168,80,75497,2,0,B|88:88|64:144|64:208,1,180,2|0
64,288,76263,2,0,B|152:336,1,90,6|0
216,368,76773,2,0,B|304:320,1,90,8|0
368,288,77284,2,2,B|400:224|368:160|296:192|240:120|288:48,2,270,6|2|8
288,256,79071,1,0
144,288,79582,6,0,B|104:208|136:128|192:96,2,180,6|2|0
72,312,80858,2,0,B|32:208,1,90,8|0
16,160,81369,6,0,B|112:144,2,90,4|0|0
64,80,82135,2,0,B|144:24,2,90,4|0|0
8,24,82901,1,4
0,192,83412,38,6,B|8:296|88:360|192:352|288:280,1,360,6|0
352,232,84688,1,0
376,136,84944,2,0,B|384:64|336:24,1,90,2|0
280,8,85454,1,6
232,80,85710,1,0
64,32,86220,5,0
56,208,86731,1,0
136,248,86986,2,0,B|128:320|176:360,1,90,2|0
232,376,87497,1,6
280,304,87752,1,0
368,192,88263,54,0,B|400:120|360:56|320:32,1,180,2|0
240,24,89029,2,0,B|176:104,1,90,6|0
128,40,89539,2,0,B|64:120,1,90,2|0
144,152,90050,2,0,B|80:232,1,90,2|0
32,288,90561,1,2
192,312,91071,1,8
256,264,91327,1,0
256,264,91454,1,0
256,264,91582,37,6
344,248,91837,37,0
400,184,92092,2,0,B|408:96|336:48|264:56,1,216.000005149841,2|2
176,72,92858,1,0
128,136,93114,1,6
200,176,93369,1,0
160,240,93624,37,6
112,304,93880,5,0
192,336,94135,1,8
256,280,94390,1,0
312,336,94646,2,0,B|536:336,1,216.000005149841,2|2
408,192,95667,37,4
256,112,96178,37,2
256,192,96433,1,0
256,272,96688,2,2,B|208:312|104:296|72:240|72:208,1,216.000005149841,2|6
64,136,97454,1,0
128,72,97710,37,4
184,136,97965,1,0
256,96,98220,1,8
256,184,98475,2,0,B|256:312,1,108.000002574921,2|8
328,264,98986,2,0,B|344:336|280:368,1,108.000002574921,2|8
184,264,99497,2,0,B|168:336|232:368,1,108.000002574921,6|12
128,360,100007,5,0
96,280,100263,2,2,B|104:168|176:128|240:120,1,216.000005149841,2|6
304,120,101029,2,0,B|464:120,2,108.000002574921,0|8|0
360,48,101795,37,6
152,48,102305,37,2
256,64,102561,1,0
192,128,102816,6,0,B|160:216,1,90,4|0
240,208,103327,2,0,B|192:336,1,116.999997907877,4|0
160,384,103837,5,6
256,368,104092,21,0
328,320,104348,1,8
360,240,104603,1,2
384,160,104858,2,0,B|504:160,1,108.000002574921,6|0
448,88,105369,2,0,B|320:88,1,108.000002574921,2|0
256,88,105880,5,4
208,152,106135,1,0
256,208,106390,1,8
184,224,106646,22,0,B|80:232|32:168|24:96,1,216.000005149841,2|0
104,120,107412,2,0,B|104:192|72:264|16:312,1,216.000005149841,2|6
256,352,108688,5,0
208,296,108944,1,2
232,224,109199,1,0
280,168,109454,1,2
304,96,109710,1,0
256,40,109965,1,6
96,192,110731,53,0
152,144,110986,1,2
224,168,111241,1,0
280,216,111497,1,2
352,240,111752,1,0
408,192,112007,1,6
360,104,112518,5,8
360,104,112773,1,0
360,104,113029,1,2
152,104,113539,1,2
152,280,114050,53,4
360,280,114561,1,4
360,104,115071,1,4
152,104,115582,1,4
264,192,116092,6,0,B|344:216|432:192|464:144,1,216.000005149841,6|8
496,72,116858,1,0
424,40,117114,1,2
368,96,117369,1,0
304,56,117624,2,0,B|80:56,1,216.000005149841,8|6
40,192,118646,53,8
112,216,118901,1,0
112,288,119156,1,2
184,312,119412,1,0
256,336,119667,2,0,B|256:104,2,216.000005149841,2|6|8
328,312,120944,5,0
400,288,121199,1,2
400,216,121454,1,0
472,192,121710,1,2
256,40,122220,53,6
256,144,122731,1,6
256,248,123241,1,6
256,352,123752,1,6
432,264,126050,53,0
376,312,126305,38,2,B|328:320|232:288|208:232|256:192|304:152|280:96|184:64|136:72,1,404.99998793006
144,328,128348,2,2,B|240:328|296:296|352:216|376:160|360:112,1,337.499989941716,2|0
320,32,129880,2,0,B|200:32,1,90,2|0
144,48,130390,6,2,B|80:48|24:112|72:192|112:120|144:120|176:112|184:136|208:184|168:192|120:184|80:184|64:192|152:224|72:232|112:256|152:264|200:240,1,404.99998793006
328,192,132433,2,2,B|472:224|456:304|408:320|376:328|344:288|344:256|376:216|400:176|408:152,1,337.499989941716,2|0
440,104,133965,2,0,B|344:72,1,90,2|0
280,56,134475,54,2,B|184:0|80:0|0:72|-24:160|16:240|64:272,1,472.499985918403,2|0
136,232,136518,2,2,B|232:288|336:288|416:216|440:128|400:48|352:16,1,472.499985918403,2|0
312,112,138561,6,2,B|440:128|512:32,1,202.49999396503,2|0
408,16,139582,2,2,B|392:144|488:216,1,202.49999396503,2|0
256,192,140603,12,4,142646
48,88,143412,53,2
120,72,143667,2,0,B|152:96|136:152,1,67.4999979883433,2|0
112,200,144178,2,0,B|80:224|96:280,1,67.4999979883433,2|0
120,336,144688,2,0,B|352:336,1,202.49999396503,4|0
400,336,145710,5,2
360,272,145965,1,0
432,248,146220,1,2
400,184,146475,1,0
464,152,146731,1,6
432,88,146986,1,0
368,120,147241,2,0,B|272:120,1,67.4999979883433,8|0
224,120,147752,2,2,B|160:120|176:88|160:56|224:56,2,134.999995976687,2|2|6
336,256,149284,21,4
176,256,149795,1,4
256,360,150305,1,4
408,360,150816,22,0,B|464:328|448:240,1,134.999995976687,4|2
432,168,151582,1,0
368,200,151837,2,0,B|328:112,1,67.4999979883433,2|0
312,72,152348,2,0,B|152:72,1,134.999995976687,2|4
32,72,153369,5,0
88,120,153624,1,0
16,144,153880,2,2,B|-8:192|24:232|96:192|136:272|80:312,1,202.49999396503
48,368,154901,2,0,B|200:368,1,134.999995976687,4|0
256,368,155667,1,0
328,368,155922,1,2
184,296,156433,1,2
256,160,156944,37,6
328,296,157454,1,6
168,208,157965,1,6
344,208,158475,1,6
328,320,167156,6,2,B|400:336|456:312|456:240|432:208,2,202.49999396503
256,296,168944,2,0,B|256:224,1,67.4999979883433,2|4
184,240,169454,2,0,B|184:168,1,67.4999979883433,2|4
112,192,169965,1,2
256,88,170475,1,0
288,168,170731,2,2,B|360:136|360:48|312:24,1,180
256,192,171369,12,4,173284
40,72,174050,38,2,B|200:72,1,134.999995976687,2|0
256,72,174816,1,8
320,120,175071,1,0
256,168,175327,1,4
16,352,176092,5,0
88,272,176348,1,2
184,320,176603,1,0
256,240,176858,1,2
328,320,177114,1,0
424,272,177369,1,6
496,32,178135,53,0
424,112,178390,1,2
328,64,178646,1,0
256,144,178901,1,2
184,64,179156,1,0
88,112,179412,1,6
160,288,179922,5,2
160,288,180178,1,0
160,288,180433,1,2
352,288,180944,1,2
480,136,181454,53,4
256,136,181965,1,4
32,136,182475,1,4
144,24,182986,1,4
368,24,183497,6,0,B|400:96|376:168|304:216,1,216.000005149841,4|0
208,264,184263,2,0,B|272:368,1,108.000002574921,0|2
160,344,184773,2,0,B|96:240,1,108.000002574921,0|2
56,168,185284,1,0
56,168,185539,2,0,B|280:168,1,216.000005149841,4|0
384,168,186305,53,0
472,88,186561,2,0,B|352:88,1,108.000002574921,2|0
256,144,187071,2,0,B|144:144,1,108.000002574921,2|0
32,144,187582,5,4
104,224,187837,1,0
32,296,188092,1,8
104,368,188348,1,0
176,296,188603,1,2
336,88,189114,1,2
472,200,189624,53,4
328,200,190135,1,4
184,200,190646,1,4
40,200,191156,1,4
