osu file format v9

[General]
AudioFilename: Break_the_ice.mp3
AudioLeadIn: 982
PreviewTime: 49469
Countdown: 1
SampleSet: Soft
StackLeniency: 0.7
Mode: 0
LetterboxInBreaks: 0

[Editor]
DistanceSpacing: 1.18
BeatDivisor: 8
GridSize: 8

[Metadata]
Title:Break the Ice
Artist:Britney Spears
Creator:Larto
Version:Hot
Source:
Tags:Blackout RJ RandomJibberish Random Jibberish

[Difficulty]
HPDrainRate:7
CircleSize:4
OverallDifficulty:7
ApproachRate:7
SliderMultiplier:2
SliderTickRate:2

[Events]
//Background and Video events
Video,-1089,"AGingerFairy.avi"
0,0,"Britney-Spears-Wallpapers34.jpg"
//Break Periods
2,67086,73575
2,124277,125150
2,159001,166256
//Storyboard Layer 0 (Background)
//Storyboard Layer 1 (Fail)
//Storyboard Layer 2 (Pass)
//Storyboard Layer 3 (Foreground)
//Storyboard Sound Samples
//Background Colour Transformations
3,100,163,162,255

[TimingPoints]
1710,510.63829787234,4,2,0,68,1,0
11324,-100,4,2,1,49,0,0
11579,-100,4,2,1,31,0,0
11835,-100,4,2,1,68,0,0
13367,-100,4,2,1,52,0,0
13622,-100,4,2,1,31,0,0
13877,-100,4,2,1,68,0,0
15664,-100,4,2,1,30,0,0
15920,-100,4,2,1,68,0,0
17452,-100,4,1,1,44,0,0
17707,-100,4,2,1,68,0,0
17962,-100,4,1,1,68,0,0
18207,-100,4,2,1,68,0,0
18575,-100,4,1,1,68,0,0
18703,-100,4,2,1,68,0,0
19306,-100,4,1,1,49,0,0
19484,-100,4,1,1,68,0,0
19807,-100,4,2,1,68,0,0
19994,-100,4,1,0,68,0,0
20603,-100,4,1,0,51,0,0
21526,-66.6666666666667,4,1,1,68,0,0
21782,-66.6666666666667,4,2,1,68,0,0
22037,-100,4,1,1,68,0,0
22292,-100,4,2,1,68,0,0
23411,-100,4,1,1,49,0,0
23569,-100,4,1,1,69,0,0
23922,-100,4,2,1,69,0,0
24079,-100,4,1,0,69,0,0
25611,-66.6666666666667,4,1,1,68,0,0
25867,-66.6666666666667,4,2,1,68,0,0
26122,-100,4,1,1,68,0,0
26377,-100,4,2,1,68,0,0
26633,-100,4,1,1,49,0,0
26888,-100,4,2,1,68,0,0
27143,-100,4,1,1,68,0,0
27496,-100,4,1,1,52,0,0
27624,-100,4,1,1,71,0,0
28007,-100,4,2,1,51,0,0
28165,-100,4,1,0,71,0,0
28776,-100,4,1,0,50,0,0
29697,-66.6666666666667,4,1,1,68,0,0
30049,-66.6666666666667,4,2,1,68,0,0
30207,-100,4,1,1,68,0,0
30447,-100,4,1,1,51,0,0
30703,-100,4,1,1,68,0,0
30958,-100,4,2,1,68,0,0
31213,-100,4,1,1,68,0,0
31469,-100,4,2,1,56,0,0
31724,-100,4,1,1,45,0,0
31979,-100,4,1,0,69,0,0
32618,-100,4,1,1,69,0,0
32682,-100,4,1,1,50,0,0
32809,-100,4,2,1,69,0,0
33001,-100,4,1,1,69,0,0
33192,-100,4,1,1,51,0,0
33320,-100,4,2,1,70,0,0
33639,-100,4,1,1,51,0,0
33830,-100,4,1,1,69,0,0
33958,-100,4,2,1,69,0,0
34086,-100,4,1,1,69,0,0
34213,-100,4,1,1,51,0,0
34341,-100,4,1,1,69,0,0
34420,-83.3333333333333,4,1,1,69,0,0
34533,-83.3333333333333,4,2,1,69,0,0
34788,-83.3333333333333,4,1,1,69,0,0
35007,-83.3333333333333,4,2,1,69,0,0
35618,-83.3333333333333,4,1,1,69,0,0
36128,-83.3333333333333,4,2,1,69,0,0
36320,-83.3333333333333,4,1,1,69,0,0
36575,-83.3333333333333,4,2,1,69,0,0
36830,-83.3333333333333,4,1,1,69,0,0
37022,-83.3333333333333,4,2,1,69,0,0
37150,-83.3333333333333,4,1,1,37,0,0
37277,-83.3333333333333,4,2,1,51,0,0
37405,-83.3333333333333,4,1,1,71,0,0
37596,-83.3333333333333,4,2,1,71,0,0
37852,-83.3333333333333,4,1,1,71,0,0
38107,-83.3333333333333,4,1,1,48,0,0
38362,-83.3333333333333,4,1,1,71,0,0
39064,-83.3333333333333,4,2,1,71,0,0
39192,-83.3333333333333,4,1,1,49,0,0
39320,-83.3333333333333,4,2,1,72,0,0
39447,-83.3333333333333,4,1,1,71,0,0
39830,-83.3333333333333,4,2,1,49,0,0
39958,-83.3333333333333,4,1,1,66,0,0
40405,-83.3333333333333,4,1,1,70,0,0
42192,-83.3333333333333,4,1,1,50,0,0
42447,-83.3333333333333,4,1,1,68,0,0
42894,-83.3333333333333,4,1,1,55,0,0
43022,-83.3333333333333,4,1,1,68,0,0
43150,-83.3333333333333,4,1,1,53,0,0
43277,-83.3333333333333,4,1,1,39,0,0
43469,-83.3333333333333,4,1,1,63,0,0
44745,-83.3333333333333,4,2,1,63,0,0
45001,-83.3333333333333,4,1,1,63,0,0
45526,-66.6666666666667,4,1,1,68,0,0
45894,-66.6666666666667,4,1,1,53,0,0
45958,-66.6666666666667,4,1,1,38,0,0
46086,-83.3333333333333,4,1,1,68,0,0
47235,-83.3333333333333,4,2,1,68,0,0
47362,-83.3333333333333,4,1,1,50,0,0
47554,-83.3333333333333,4,1,1,68,0,0
48830,-83.3333333333333,4,1,1,56,0,0
49086,-83.3333333333333,4,1,1,43,0,0
49341,-83.3333333333333,4,1,1,69,0,0
50731,-83.3333333333333,4,1,1,68,0,1
57001,-83.3333333333333,4,2,1,68,0,1
57256,-83.3333333333333,4,1,1,68,0,1
57511,-83.3333333333333,4,2,1,68,0,1
57767,-83.3333333333333,4,1,1,68,0,1
58022,-83.3333333333333,4,2,1,68,0,1
58277,-83.3333333333333,4,1,1,68,0,1
65171,-83.3333333333333,4,2,1,68,0,1
65426,-83.3333333333333,4,1,1,68,0,1
65682,-83.3333333333333,4,2,1,68,0,1
65937,-83.3333333333333,4,1,1,68,0,1
66192,-83.3333333333333,4,2,1,68,0,1
66447,-83.3333333333333,4,1,1,68,0,1
67101,-83.3333333333333,4,2,1,68,0,0
74618,-100,4,1,1,68,0,0
74873,-100,4,2,1,68,0,0
75128,-100,4,1,1,68,0,0
75384,-100,4,2,1,68,0,0
75767,-100,4,1,1,68,0,0
76405,-100,4,2,1,68,0,0
76660,-100,4,1,1,68,0,0
76916,-100,4,1,1,49,0,0
77171,-100,4,1,1,71,0,0
77682,-100,4,1,1,48,0,0
78447,-100,4,2,0,48,0,0
78703,-66.6666666666667,4,1,1,48,0,0
78958,-66.6666666666667,4,2,1,68,0,0
79213,-100,4,1,1,68,0,0
80554,-100,4,1,1,49,0,0
80745,-100,4,1,1,69,0,0
81256,-66.6666666666667,4,1,1,68,0,0
81511,-66.6666666666667,4,2,1,68,0,0
82022,-66.6666666666667,4,1,1,68,0,0
82277,-66.6666666666667,4,2,1,68,0,0
82788,-66.6666666666667,4,1,1,68,0,0
83043,-100,4,2,1,68,0,0
83299,-100,4,1,0,68,0,0
84433,-100,4,2,0,68,0,0
84575,-100,4,2,1,68,0,0
84830,-100,4,1,1,68,0,0
85086,-100,4,1,1,49,0,0
85341,-100,4,1,1,71,0,0
85596,-100,4,1,1,61,0,0
85852,-100,4,2,1,49,0,0
86107,-100,4,1,1,74,0,0
86490,-100,4,2,1,74,0,0
86873,-100,4,1,1,74,0,0
87128,-100,4,1,1,51,0,0
87384,-100,4,1,1,71,0,0
87639,-100,4,1,1,51,0,0
87894,-100,4,2,1,51,0,0
88150,-100,4,1,1,72,0,0
88405,-100,4,2,1,72,0,0
88916,-100,4,1,1,72,0,0
89171,-100,4,1,1,54,0,0
89426,-100,4,1,1,71,0,0
89873,-100,4,1,1,50,0,0
90001,-100,4,2,1,68,0,0
90192,-100,4,1,1,68,0,0
90384,-100,4,1,1,49,0,0
90511,-100,4,2,1,68,0,0
90767,-100,4,1,1,68,0,0
91022,-100,4,1,1,49,0,0
91150,-100,4,2,1,68,0,0
91277,-100,4,1,1,43,0,0
91405,-100,4,1,1,55,0,0
91533,-83.3333333333333,4,1,1,70,0,0
91724,-83.3333333333333,4,2,1,70,0,0
91979,-83.3333333333333,4,1,1,70,0,0
92362,-83.3333333333333,4,1,1,49,0,0
93001,-83.3333333333333,4,1,1,61,0,0
93256,-83.3333333333333,4,1,1,51,0,0
93511,-83.3333333333333,4,1,1,68,0,0
93767,-83.3333333333333,4,2,1,68,0,0
94022,-83.3333333333333,4,1,1,68,0,0
94213,-83.3333333333333,4,2,1,68,0,0
94341,-83.3333333333333,4,1,1,33,0,0
94469,-83.3333333333333,4,2,1,49,0,0
94596,-83.3333333333333,4,1,1,69,0,0
94788,-83.3333333333333,4,1,1,38,0,0
95043,-83.3333333333333,4,1,1,68,0,0
95299,-83.3333333333333,4,1,1,42,0,0
95554,-83.3333333333333,4,1,1,68,0,0
96256,-83.3333333333333,4,2,1,68,0,0
96384,-83.3333333333333,4,1,1,46,0,0
96511,-83.3333333333333,4,1,1,33,0,0
96639,-83.3333333333333,4,1,1,69,0,0
97341,-83.3333333333333,4,1,1,48,0,0
97596,-83.3333333333333,4,1,1,71,0,0
97852,-83.3333333333333,4,1,1,51,0,0
98107,-83.3333333333333,4,1,1,71,0,0
98362,-83.3333333333333,4,1,1,48,0,0
98618,-83.3333333333333,4,1,1,69,0,0
98873,-83.3333333333333,4,1,1,52,0,0
99128,-83.3333333333333,4,1,1,69,0,0
99384,-83.3333333333333,4,1,1,49,0,0
99639,-83.3333333333333,4,1,1,71,0,0
100086,-83.3333333333333,4,2,1,71,0,0
100213,-83.3333333333333,4,1,1,71,0,0
100341,-83.3333333333333,4,1,1,49,0,0
100469,-83.3333333333333,4,1,1,32,0,0
100660,-83.3333333333333,4,1,1,71,0,0
100979,-83.3333333333333,4,1,1,52,0,0
101171,-83.3333333333333,4,1,1,72,0,0
101490,-83.3333333333333,4,1,1,31,0,0
101682,-83.3333333333333,4,1,1,69,0,0
101937,-83.3333333333333,4,2,1,69,0,0
102128,-83.3333333333333,4,1,1,48,0,0
102256,-83.3333333333333,4,1,1,69,0,0
102703,-133.333333333333,4,1,1,70,0,0
103213,-66.6666666666667,4,1,1,70,0,0
103852,-83.3333333333333,4,1,1,70,0,0
103979,-83.3333333333333,4,2,1,70,0,0
104235,-83.3333333333333,4,1,1,70,0,0
104426,-83.3333333333333,4,1,1,52,0,0
104554,-83.3333333333333,4,2,1,52,0,0
104745,-83.3333333333333,4,1,1,70,0,0
105001,-83.3333333333333,4,1,1,51,0,0
105256,-83.3333333333333,4,1,1,70,0,0
105511,-83.3333333333333,4,1,1,49,0,0
105767,-83.3333333333333,4,1,1,69,0,0
106022,-83.3333333333333,4,1,1,49,0,0
106533,-83.3333333333333,4,1,1,70,0,0
108447,-83.3333333333333,4,1,1,33,0,0
108830,-83.3333333333333,4,1,1,46,0,0
109086,-83.3333333333333,4,1,1,41,0,0
109341,-83.3333333333333,4,2,1,69,0,0
109596,-83.3333333333333,4,1,1,51,0,0
109852,-83.3333333333333,4,1,1,69,0,0
110490,-83.3333333333333,4,1,1,31,0,0
110873,-83.3333333333333,4,1,1,47,0,0
111128,-83.3333333333333,4,1,1,41,0,0
111384,-83.3333333333333,4,2,1,69,0,0
111639,-83.3333333333333,4,1,1,51,0,0
111894,-83.3333333333333,4,1,1,69,0,0
112277,-83.3333333333333,4,1,1,28,0,0
112660,-83.3333333333333,4,1,1,69,0,0
112916,-83.3333333333333,4,1,1,47,0,0
113426,-83.3333333333333,4,1,1,71,0,0
114320,-83.3333333333333,4,1,1,51,0,0
114830,-83.3333333333333,4,1,1,31,0,0
115341,-83.3333333333333,4,1,1,12,0,0
115852,-83.3333333333333,4,1,1,70,0,0
116092,-83.3333333333333,4,1,1,70,0,1
122362,-83.3333333333333,4,2,1,0,0,1
122618,-83.3333333333333,4,1,1,70,0,1
122873,-83.3333333333333,4,2,1,0,0,1
123128,-83.3333333333333,4,1,1,70,0,1
123384,-83.3333333333333,4,2,1,0,0,1
123639,-83.3333333333333,4,1,1,70,0,1
124277,-133.333333333333,4,1,1,70,0,0
125809,-133.333333333333,4,2,1,70,0,0
129511,-100,4,2,1,70,0,0
130277,-133.333333333333,4,2,1,70,0,0
133596,-100,4,2,1,70,0,0
134362,-133.333333333333,4,2,1,70,0,0
137682,-100,4,2,1,70,0,0
138535,-133.333333333333,4,2,1,70,0,0
170362,-100,4,2,1,70,0,0
171128,-133.333333333333,4,2,1,70,0,0
174320,-83.3333333333333,4,2,1,70,0,0
191156,-83.3333333333333,4,1,1,70,0,1
191299,-83.3333333333333,4,1,1,70,0,0

[Colours]
Combo1 : 198,19,19
Combo2 : 43,149,255
Combo3 : 19,73,215
Combo4 : 49,49,49
Combo5 : 255,0,0

[HitObjects]
256,168,9880,5,4
256,168,10646,2,2,B|240:224|112:240|80:152,1,200
24,104,11412,1,0
88,48,11667,1,0
152,104,11922,5,4
152,104,12178,1,0
152,104,12688,2,2,B|168:160|296:176|328:88,1,200
392,48,13454,1,0
464,104,13710,1,0
392,160,13965,53,4
392,160,14220,1,0
392,160,14731,2,2,B|336:176|320:304|408:336,1,200
312,352,15497,1,0
256,288,15752,1,0
200,352,16007,5,4
200,352,16263,1,0
200,352,16773,2,2,B|256:336|272:208|184:176,1,200
144,112,17539,2,0,B|264:112,1,100,12|0
336,112,18050,53,4
440,120,18305,2,2,B|480:152|496:224|368:184|368:256|456:296,1,200,2|0
296,264,19071,2,0,B|376:336,1,100,2|0
192,272,19582,2,0,B|272:344,1,100,8|0
296,264,20092,2,2,B|344:208|344:128|280:80,1,200,6|0
224,24,20858,2,2,B|176:80|176:160|240:208,1,200,2|0
264,120,21624,2,0,B|168:104|112:192,1,149.999995529652,8|0
64,240,22135,5,4
136,304,22390,2,2,B|192:248|280:328|320:232,1,200
434,277,23156,2,0,B|360:344,1,100,2|0
448,144,23667,2,0,B|373:210,1,100,8|0
256,240,24178,2,2,B|184:192|192:104|264:64,1,200,6|0
288,160,24944,2,2,B|88:160,1,200,2|0
128,88,25710,2,0,B|160:168|120:240,1,150,8|0
64,328,26220,53,4
152,304,26475,1,2
248,336,26731,1,8
336,312,26986,1,0
416,272,27241,2,0,B|376:208|440:152,1,100,4|0
488,128,27752,2,0,B|520:192|480:232,1,100,8|0
416,272,28263,2,0,B|312:264|256:184|272:120,1,200,6|8
264,64,29029,2,2,B|288:160|256:224|176:256,1,200,2|0
128,296,29795,2,0,B|120:216|56:168,1,150,8|0
0,88,30305,5,4
96,40,30561,1,0
200,80,30816,1,8
296,32,31071,1,0
304,144,31327,2,0,B|304:208|384:232,2,100,4|0|8
384,80,32092,2,2,B|352:128|304:176|192:168,1,200,2|0
224,184,32731,1,0
232,200,32858,1,2
96,232,33114,1,0
104,248,33241,1,0
112,264,33369,1,2
320,72,33752,1,0
328,88,33880,1,8
336,104,34007,1,0
344,120,34135,1,0
352,136,34263,1,0
368,128,34390,21,6
376,296,34646,21,0
248,296,34901,2,2,B|176:256|248:168|176:144,1,180.000004291535,2|0
144,120,35412,2,0,B|208:168|296:160,1,120.000002861023,2|0
144,240,35922,2,0,B|80:192|-8:200,1,120.000002861023,2|0
40,64,36433,53,6
168,40,36688,5,0
256,104,36944,1,8
280,128,37071,1,0
256,152,37199,1,0
232,176,37327,1,0
256,200,37454,1,6
352,288,37709,1,2
256,376,37965,1,2
160,288,38220,1,2
120,160,38475,37,4
392,160,38986,21,6
376,136,39114,1,0
344,136,39241,1,0
328,112,39369,1,0
296,112,39497,2,2,B|224:96|176:184|256:248,1,180.000004291535,2|0
256,264,40007,2,0,B|104:264,1,120.000002861023,6|2
64,152,40518,53,4
192,176,40773,1,0
256,64,41029,1,8
320,176,41284,2,0,B|472:176,1,120.000002861023,6|0
312,264,41795,2,0,B|160:264,1,120.000002861023,6|0
128,352,42305,1,0
256,344,42561,1,6
384,352,42816,5,0
400,336,42944,1,0
408,312,43071,1,8
400,288,43199,1,0
384,272,43327,1,0
288,200,43582,2,0,B|200:184|144:232,1,120.000002861023,6|0
224,120,44092,2,0,B|312:104|368:152,1,120.000002861023,6|0
408,208,44603,5,6
335,290,44858,1,0
256,368,45114,1,8
177,290,45369,1,0
336,208,45624,6,0,B|152:208,1,149.999995529652,4|0
152,208,46007,53,0
112,208,46135,1,2
192,128,46390,1,2
320,128,46646,1,6
256,32,46901,53,0
104,32,47156,1,8
64,56,47284,1,0
40,96,47412,1,0
24,200,47667,2,2,B|32:288|112:304,1,120.000002861023,6|0
216,328,48178,2,2,B|208:240|128:224,1,120.000002861023
136,120,48688,5,4
200,48,48944,1,0
312,48,49199,1,8
376,120,49454,22,2,B|104:120,1,240.000005722046,2|0
128,224,50220,1,8
256,208,50475,1,0
384,224,50731,1,6
440,320,50986,6,0,B|376:352|304:336,1,120.000002861023,0|8
216,320,51497,1,2
112,280,51752,2,0,B|152:208|96:136,1,120.000002861023,2|0
216,104,52263,2,0,B|168:176|224:248,1,120.000002861023,8|0
216,104,52773,2,0,B|-48:104,1,240.000005722046,6|8
32,16,53539,53,0
56,24,53667,1,0
80,16,53795,1,2
184,32,54050,1,0
296,16,54305,1,8
400,32,54561,1,2
488,80,54816,6,0,B|416:136|408:224|496:280,1,240.000005722046,4|8
400,328,55582,1,0
280,304,55837,2,0,B|352:248|360:160|272:104,1,240.000005722046,6|2
274,105,56858,54,0,B|272:167|272:167|200:167,1,120.000002861023,4|0
274,105,57369,2,0,B|368:87|368:87|392:31,1,120.000002861023,4|0
274,105,57880,2,0,B|360:223,1,120.000002861023,4|0
277,109,58390,1,4
280,112,58901,6,0,C|40:112,1,240.000005722046,4|8
3,209,59667,1,2
3,209,59795,1,0
3,209,59922,1,2
96,261,60178,1,0
192,211,60433,1,8
278,275,60688,1,0
368,328,60944,54,0,B|408:272|352:208,1,120.000002861023,6|0
296,128,61454,2,0,B|368:128|400:64,1,120.000002861023,8|0
416,48,61837,1,0
432,16,61965,1,6
328,48,62220,1,0
224,16,62475,1,8
120,48,62731,1,2
24,96,62986,6,6,B|24:208|88:240|192:240,1,240.000005722046,6|8
328,256,63752,1,0
488,232,64007,2,6,B|488:120|424:88|320:88,1,240.000005722046,6|2
336,88,65029,54,0,B|328:144|328:144|224:144,1,120.000002861023,6|0
344,94,65539,2,0,B|200:94,1,120.000002861023,6|0
224,94,66050,2,0,B|224:38|224:38|120:38,1,120.000002861023,6|0
159,38,66561,1,2
256,192,74475,69,0
176,264,74731,1,8
96,192,74986,1,0
176,120,75241,1,4
256,48,75497,22,2,B|320:112|416:96|462:36,1,200,2|0
368,16,76263,1,6
400,152,76518,1,0
264,192,76773,1,8
296,328,77029,1,0
152,335,77284,2,0,B|56:303|56:175|124:148,1,200,6|0
168,221,78050,2,0,B|264:189|264:61|196:34,1,200,2|0
168,128,78816,2,0,B|352:128,1,149.999995529652,12|0
408,128,79327,5,4
464,224,79582,1,2
368,280,79837,1,8
272,256,80092,2,2,B|224:280|200:336|264:400|336:360,1,200,2|0
272,256,80858,2,0,B|216:152,1,100,8|0
192,88,81369,6,0,L|128:88|112:120|56:120,2,150,4|0|0
280,88,82135,2,0,L|344:88|360:56|416:56,2,150,4|0|0
320,160,82901,2,0,L|160:160,1,149.999995529652,4|0
64,168,83412,38,2,B|32:304|168:360|256:360|336:304|352:272,1,400,6|0
408,216,84688,1,0
296,208,84944,1,6
360,128,85199,1,0
272,96,85454,2,0,B|224:72|136:88,2,100,6|2|0
216,168,86220,5,2
112,320,86731,1,0
184,256,86986,1,8
264,312,87241,1,8
344,264,87497,2,0,B|384:224|368:144,1,100,6|0
352,80,88007,53,0
280,144,88263,2,0,B|224:168|160:112|160:64|184:16,1,200,2|0
88,32,89029,2,0,B|48:144,1,100,2|0
104,200,89539,2,0,B|64:312,1,100,6|0
64,320,89922,1,0
56,344,90050,1,2
168,264,90305,1,0
160,288,90433,1,0
152,312,90561,1,2
256,96,90944,1,0
256,112,91071,1,8
256,128,91199,1,0
256,144,91327,1,0
256,160,91454,1,0
256,176,91582,37,6
256,296,91837,21,0
152,352,92092,2,2,B|88:352|40:288|40:224,1,180.000004291535,2|0
40,208,92603,2,0,B|40:56,1,120.000002861023,6|0
112,32,93114,2,2,B|112:168,1,120.000002861023,2|0
192,80,93624,53,4
256,192,93880,21,0
208,304,94135,1,8
232,312,94263,1,0
256,320,94390,1,0
280,312,94518,1,0
304,304,94646,1,6
376,192,94901,1,2
320,80,95156,1,8
192,80,95412,1,2
136,192,95667,37,4
432,104,96178,5,2
448,120,96305,1,0
456,144,96433,1,8
456,168,96561,1,8
472,184,96688,1,6
472,184,97199,2,2,B|472:328,1,120.000002861023
368,160,97709,54,0,B|368:296,1,120.000002861023,4|0
256,192,98220,2,0,B|256:328,2,120.000002861023,8|6|8
296,80,98986,2,0,B|296:112|256:136|216:112|216:80,1,120.000002861023,2|8
316,7,99497,2,6,B|148:7,1,120.000002861023,6|14
96,32,100007,5,0
80,48,100135,1,0
64,72,100263,1,8
80,88,100390,1,0
96,104,100518,1,0
160,192,100773,2,0,B|176:224|208:232|240:224|256:192,1,120.000002861023,6|0
352,192,101284,2,0,B|336:160|304:152|272:160|256:192,1,120.000002861023,6|0
256,304,101795,37,6
360,344,102050,37,0
376,328,102178,1,0
360,320,102305,1,2
416,232,102561,1,2
440,104,102816,6,0,B|304:104,1,112.499996647239,4|0
368,128,103327,2,0,B|192:128,1,149.999995529652,6|0
56,128,103837,21,6
16,256,104092,5,0
144,224,104348,1,8
152,240,104475,1,0
160,256,104603,1,2
216,352,104858,1,6
304,296,105114,1,0
248,200,105369,1,2
360,200,105624,1,2
464,200,105880,6,0,B|504:136|464:64,1,120.000002861023,4|0
368,48,106390,1,8
256,32,106646,22,2,B|192:16|128:40|88:104|112:168,1,240.000005722046,2|0
136,272,107412,2,0,B|272:272,1,120.000002861023,8|0
136,272,107922,1,4
96,32,108688,5,0
160,96,108944,1,2
224,160,109199,1,0
288,224,109454,1,2
352,296,109709,1,0
416,352,109965,1,6
416,32,110731,53,0
352,96,110986,1,2
288,160,111241,1,0
224,224,111497,1,2
160,296,111752,1,0
96,352,112007,1,6
48,144,112518,5,8
152,144,112773,1,0
256,144,113029,2,2,B|528:144,1,240.000005722046,2|6
256,312,114050,53,4
256,312,114561,1,4
256,312,115071,1,4
256,312,115582,1,4
256,312,116092,2,0,B|264:152|104:336|112:192,1,240.000005722046,6|8
120,96,116858,5,2
120,96,116986,1,0
120,96,117114,1,2
208,136,117369,2,0,B|272:144|320:96,2,120.000002861023,0|8|0
232,40,118135,2,0,B|304:280,1,240.000005722046,6|8
336,360,118901,53,2
288,376,119029,1,0
240,360,119156,2,0,B|184:336|176:248,1,120.000002861023,2|0
56,240,119667,2,0,B|112:264|120:352,1,120.000002861023,8|0
56,240,120178,6,0,B|248:72,1,240.000005722046,6|8
288,200,120944,1,0
256,328,121199,2,0,B|64:160,1,240.000005722046,6|2
86,180,122220,54,0,B|126:148|126:148|78:92,1,120.000002861023,6|0
80,95,122731,2,0,B|221:99,1,120.000002861023,6|0
199,98,123241,2,0,B|228:38|228:38|308:38,1,120.000002861023,6|0
282,38,123752,1,6
64,200,126050,53,2
256,344,126305,38,0,B|344:304|336:128|176:256|168:80|256:40,1,374.999988824129,0|2
360,40,127837,1,2
360,40,128348,2,0,B|384:120|312:152|224:64|168:80|152:192,1,299.999991059304
152,288,129624,1,0
152,288,129752,1,0
152,288,129880,2,2,B|160:232|96:192,1,100,2|0
40,160,130390,6,0,B|48:80|352:16|160:368|464:304|472:224,1,524.999984353781
440,152,132433,2,0,B|336:136|256:192|208:232|200:328,1,299.999991059304
184,384,133709,1,0
184,384,133837,1,0
184,384,133965,2,2,B|72:384,1,100,2|0
24,296,134475,54,0,B|0:240|0:144|64:88|192:72|160:200|136:272|280:184|304:192|312:120|256:32,1,524.999984353781,0|0
160,64,136518,2,0,B|200:192|320:248|400:264,1,299.999991059304
480,272,137795,1,0
480,272,137922,1,0
480,272,138050,2,2,B|432:272|392:320,1,100,2|0
304,368,138561,6,2,B|296:320|264:304|240:336|184:320|192:280|224:248|208:224|176:208|152:216,1,224.999993294478,2|0
64,184,139582,2,2,B|48:120|80:80|160:96|192:88|184:40|184:24|160:0,1,224.999993294478,2|0
256,192,140603,8,4,142646
64,112,143412,53,0
48,200,143667,1,2
128,232,143922,1,0
200,176,144178,1,8
280,136,144433,1,0
368,136,144688,1,4
448,192,144944,1,2
448,192,145071,1,0
448,192,145199,1,0
376,248,145454,5,0
376,248,145582,1,0
376,248,145709,1,2
288,232,145965,1,0
216,184,146220,1,0
152,120,146475,1,2
72,80,146731,2,0,B|32:120|48:168,1,74.9999977648259,4|0
64,240,147241,2,0,B|120:240|136:192,1,74.9999977648259,8|0
152,120,147752,1,2
208,56,148007,1,0
304,32,148263,2,2,B|368:24|400:88|368:128,1,149.999995529652,2|4
320,200,149029,21,0
320,200,149284,1,4
400,256,149539,1,0
400,256,149795,1,4
312,288,150050,1,0
312,288,150305,1,4
312,288,150816,22,6,B|272:200|200:168|128:168,1,224.999993294478,6|2
40,152,151837,1,2
80,80,152092,1,0
160,88,152348,1,8
200,16,152603,1,0
256,80,152858,6,0,B|352:160|496:136,1,224.999993294478,4|0
466,139,153752,1,0
466,139,153880,1,2
480,64,154135,1,0
416,24,154390,1,8
400,96,154646,1,0
384,168,154901,2,0,C|224:168,1,149.999995529652,4|0
152,168,155667,1,0
192,240,155922,2,0,C|352:240,1,149.999995529652,2|2
456,320,156944,21,4
456,320,157199,1,0
392,376,157454,1,4
392,376,157709,1,0
368,296,157965,1,4
368,296,158220,1,0
304,352,158475,1,4
256,192,167156,22,2,B|272:304|176:360|96:328|104:328,2,224.999993294478,2|0|2
240,112,168944,1,2
240,112,169071,1,2
240,112,169199,1,0
320,136,169454,1,2
320,136,169582,1,2
320,136,169710,1,0
384,88,169965,1,2
456,120,170220,1,0
392,168,170475,1,0
392,168,170603,1,0
392,168,170731,2,2,B|392:232|336:264,1,100,2|0
280,296,171241,6,2,B|200:296|160:264|136:160|184:120,1,224.999993294478,2|4
256,32,172518,1,2
256,32,172773,1,2
312,80,173029,1,2
312,80,173156,1,2
312,80,173284,1,0
384,64,173539,1,2
384,64,173667,1,2
384,64,173795,1,0
440,112,174050,1,6
440,112,174561,21,0
440,216,174816,1,8
344,168,175071,1,0
344,272,175327,1,4
128,96,176092,5,0
40,160,176348,1,2
128,224,176603,1,0
216,160,176858,1,8
304,224,177114,1,0
216,288,177369,1,4
424,40,178135,53,0
424,40,178263,1,0
424,40,178390,1,2
320,112,178646,1,0
216,40,178901,1,2
112,112,179156,1,0
216,184,179412,1,4
320,256,179667,1,0
218,330,179922,1,8
115,256,180178,1,0
216,184,180433,1,2
320,112,180688,1,0
216,40,180944,1,2
110,110,181199,1,0
8,219,181454,6,0,B|8:299|8:299|40:331,1,112.499996647239,4|0
16,224,181965,2,0,B|80:176|80:176|112:240,1,120.000002861023,4|0
98,212,182475,2,0,B|224:192,1,120.000002861023,4|0
216,193,182986,1,4
432,104,183497,53,4
504,224,183752,1,0
400,320,184007,1,0
320,200,184263,1,0
216,104,184518,2,0,B|144:104|120:176,1,120.000002861023,2|0
72,296,185029,2,0,B|144:296|168:224,1,120.000002861023,2|0
40,176,185539,2,0,B|48:80|128:40|192:24,1,120.000002861023,4|0
216,16,186050,1,0
352,24,186305,5,0
392,56,186433,1,0
432,88,186561,1,2
472,224,186816,1,0
360,304,187071,1,0
216,304,187327,1,2
80,280,187582,2,0,B|56:208|128:152,1,120.000002861023,4|0
136,32,188092,53,2
256,112,188348,1,0
376,32,188603,1,2
344,168,188858,1,0
168,168,189114,1,2
256,272,189369,1,0
256,384,189624,6,0,B|312:384|312:384|384:344,1,120.000002861023,4|0
368,352,190135,2,0,B|488:288,1,120.000002861023,4|0
473,295,190646,2,0,B|400:192,1,120.000002861023,4|0
404,197,191156,1,4
