osu file format v14

[General]
AudioFilename: Bring Me The Horizon - Can You Feel My Heart.mp3
AudioLeadIn: 2000
PreviewTime: 43735
Countdown: 0
SampleSet: Soft
StackLeniency: 0.7
Mode: 0
LetterboxInBreaks: 1
WidescreenStoryboard: 1

[Editor]
Bookmarks: 139360,180560,199316,214316
DistanceSpacing: 1
BeatDivisor: 2
GridSize: 4
TimelineZoom: 1

[Metadata]
Title:Can You Feel My Heart
TitleUnicode:Can You Feel My Heart
Artist:Bring Me The Horizon
ArtistUnicode:Bring Me The Horizon
Creator:Vass_Bass
Version:Easy
Source:
Tags:ryuu reiji-rj Sempiternal
BeatmapID:710955
BeatmapSetID:221860

[Difficulty]
HPDrainRate:2
CircleSize:3
OverallDifficulty:2
ApproachRate:3
SliderMultiplier:1
SliderTickRate:1

[Events]
//Background and Video events
0,0,"bacg.jpg",0,0
//Break Periods
2,124560,134170
//Storyboard Layer 0 (Background)
//Storyboard Layer 1 (Fail)
//Storyboard Layer 2 (Pass)
//Storyboard Layer 3 (Foreground)
//Storyboard Sound Samples

[TimingPoints]
610,468.75,4,2,1,50,1,0
15610,-100,4,1,1,60,0,1
18188,-100,4,1,1,40,0,1
18305,-100,4,1,1,60,0,1
25688,-100,4,1,1,40,0,1
25805,-100,4,1,1,60,0,1
30610,-100,4,1,1,50,0,0
33188,-100,4,2,1,50,0,0
34360,-100,4,1,1,50,0,0
36938,-100,4,2,1,50,0,0
38110,-100,4,1,1,50,0,0
40688,-100,4,2,1,50,0,0
41860,-100,4,1,1,50,0,0
45610,-100,4,1,1,60,0,1
48188,-100,4,1,1,40,0,1
48305,-100,4,1,1,60,0,1
52641,-100,4,2,1,60,0,1
53110,-100,4,1,1,60,0,1
55688,-100,4,1,1,40,0,1
55805,-100,4,1,1,60,0,1
58852,-100,4,1,1,50,0,1
60610,-100,4,1,1,50,0,0
63188,-100,4,2,1,50,0,0
64360,-100,4,1,1,50,0,0
70688,-100,4,2,1,50,0,0
71860,-100,4,1,1,50,0,0
78188,-100,4,1,1,40,0,0
79008,-100,4,1,1,50,0,0
81469,-100,4,1,1,40,0,0
83110,-100,4,1,1,50,0,0
85336,-100,4,1,1,40,0,0
86274,-100,4,1,1,50,0,0
90610,-100,4,1,1,60,0,1
93070,-100,4,1,1,40,0,1
93305,-100,4,1,1,60,0,1
97875,-100,4,1,1,40,0,1
98110,-100,4,1,1,60,0,1
100570,-100,4,1,1,40,0,1
100805,-100,4,1,1,60,0,1
104906,-100,4,1,1,55,0,0
105610,-100,4,1,1,60,0,1
108188,-100,4,1,1,40,0,1
108305,-100,4,1,1,60,0,1
112641,-100,4,2,1,60,0,1
113110,-100,4,1,1,60,0,1
115570,-100,4,1,1,40,0,1
115805,-100,4,1,1,60,0,1
120610,-100,4,2,1,5,0,0
135610,-100,4,2,1,30,0,0
150610,-100,4,2,1,40,0,0
165610,-100,4,2,1,50,0,0
180610,-100,4,2,1,40,0,0
184360,-100,4,1,1,50,0,1
184828,-100,4,1,1,50,0,0
199360,-100,4,1,1,60,0,1
201820,-100,4,1,1,40,0,1
202055,-100,4,1,1,60,0,1
214360,-100,4,1,1,50,0,0

[Colours]
Combo1 : 255,128,128
Combo2 : 192,192,192
Combo3 : 20,74,92

[HitObjects]
60,108,610,6,0,P|112:124|164:200,1,150,0|0,1:0|1:0,0:0:0:0:
408,248,2485,2,0,P|356:264|304:340,1,150,0|0,1:0|1:0,0:0:0:0:
484,168,4360,6,0,B|496:104|496:104|460:8,1,150,0|0,1:0|1:0,0:0:0:0:
216,44,6235,2,0,B|204:108|204:108|240:204,2,150,0|0|0,1:0|1:0|0:0,0:0:0:0:
132,96,8110,22,0,L|300:104,1,150,0|0,1:0|1:0,0:0:0:0:
504,216,9985,2,0,L|354:208,1,150,0|0,1:0|1:0,0:0:0:0:
136,332,11860,2,0,P|108:284|116:188,1,150,0|0,1:0|1:0,0:0:0:0:
113,192,15610,6,0,P|200:184|284:100,2,200,6|8|6,0:0|3:0|0:0,0:0:0:0:
44,120,17953,2,0,P|36:84|36:64,2,50,2|2|8,0:0|0:0|3:0,0:0:0:0:
109,196,18891,2,0,P|117:231|117:251,2,50,2|2|4,0:0|0:0|0:0,0:0:0:0:
32,260,19828,1,2,0:0:0:0:
32,260,20297,2,0,P|52:312|100:336,1,100,8|2,3:0|0:0,0:0:0:0:
188,352,21235,22,0,P|252:320|328:332,1,150,6|0,0:0|3:0,0:0:0:0:
372,348,22172,2,0,L|380:244,1,100,8|6,3:0|0:0,0:0:0:0:
328,164,23110,22,0,P|260:164|180:56,2,200,4|8|6,0:0|3:0|0:0,0:0:0:0:
428,152,25453,2,0,L|484:136,2,50,2|2|8,0:0|0:0|3:0,0:0:0:0:
328,164,26391,2,0,P|320:136|316:104,2,50,0|2|6,0:0|0:0|0:0,0:0:0:0:
388,244,27328,21,2,0:0:0:0:
388,244,27797,2,0,P|396:304|380:348,1,100,8|2,3:0|0:0,0:0:0:0:
296,292,28735,2,0,L|-16:268,1,300,4|2,0:0|0:0,0:0:0:0:
4,168,30610,22,0,L|156:180,1,150,4|4,0:0|0:3,0:0:0:0:
380,284,32485,2,0,P|408:240|404:132,1,150,0|8,0:0|1:0,0:0:0:0:
184,36,34360,2,0,P|180:80|236:184,1,150,0|4,0:0|0:3,0:0:0:0:
432,316,36235,2,0,P|372:312|300:368,2,150,0|8|0,0:0|1:0|0:0,0:0:0:0:
448,216,38110,6,0,L|456:48,1,150,0|4,0:0|0:3,0:0:0:0:
208,20,39985,2,0,L|200:169,1,150,0|8,0:0|1:0,0:0:0:0:
64,380,41860,2,0,P|40:348|32:224,2,150,0|4|0,0:0|0:3|0:0,0:0:0:0:
160,340,43735,21,2,0:0:0:0:
260,340,44203,1,0,0:0:0:0:
308,252,44672,1,2,0:0:0:0:
208,252,45140,1,0,0:0:0:0:
208,252,45610,6,0,P|156:176|164:52,2,200,6|8|6,0:0|3:0|0:0,0:0:0:0:
308,252,47953,2,0,P|348:248|364:240,2,50,2|2|8,0:0|0:0|3:0,0:0:0:0:
292,152,48891,2,0,P|284:124|288:92,2,50,2|2|4,0:0|0:0|0:0,0:0:0:0:
388,120,49828,1,2,0:0:0:0:
468,176,50297,2,0,P|472:224|456:272,1,100,8|2,3:0|0:0,0:0:0:0:
384,344,51235,6,0,P|328:328|232:368,1,150,6|2,0:0|0:0,0:0:0:0:
200,332,52172,2,0,P|160:344|96:332,1,100,8|6,3:0|1:0,0:0:0:0:
60,244,53110,6,0,B|24:192|24:192|44:48,2,200,4|8|6,0:0|3:0|0:0,0:0:0:0:
120,164,55453,2,0,L|132:100,2,50,2|2|8,0:0|0:0|3:0,0:0:0:0:
216,184,56391,2,0,L|272:192,2,50,2|2|4,0:0|0:0|0:0,0:0:0:0:
232,84,57328,1,2,0:0:0:0:
232,84,57797,2,0,L|336:104,1,100,8|2,3:0|0:0,0:0:0:0:
428,88,58735,2,0,B|472:128|448:192|448:192|360:276|440:372,1,300,6|0,0:0|0:0,0:0:0:0:
328,360,60610,6,0,L|179:354,1,150,4|8,0:0|0:0,0:0:0:0:
48,140,62485,2,0,L|197:146,1,150,0|8,0:0|1:0,0:0:0:0:
412,16,64360,2,0,B|444:60|444:60|432:160,1,150,0|8,0:0|0:0,0:0:0:0:
328,320,66235,6,0,P|261:308|185:352,1,150,0|8,0:0|1:0,0:0:0:0:
141,332,67172,2,0,P|105:344|33:344,1,100,0|0,0:0|0:0,0:0:0:0:
40,244,68110,6,0,P|16:200|20:80,1,150,0|8,0:0|0:0,0:0:0:0:
256,36,69985,2,0,L|412:48,1,150,0|8,0:0|1:0,0:0:0:0:
304,276,71860,2,0,L|453:287,2,150,0|8|8,0:0|0:0|0:0,0:0:0:0:
204,264,73735,2,0,P|156:252|52:288,2,150,8|8|8,0:0|0:0|3:0,0:0:0:0:
264,344,75610,5,4,0:0:0:0:
264,344,76313,2,0,P|296:292|276:188,1,150,8|2,0:0|3:0,0:0:0:0:
240,116,77485,1,0,0:0:0:0:
240,116,78188,2,0,L|80:112,1,150,10|2,0:0|3:0,0:0:0:0:
52,204,79360,22,0,P|44:240|104:340,1,150,0|8,0:0|0:0,0:0:0:0:
244,356,80766,1,0,3:0:0:0:
244,356,81235,2,0,P|252:320|192:220,2,150,0|10|2,0:0|0:0|0:0,0:0:0:0:
340,332,83110,6,0,L|496:324,2,150,4|0|0,0:0|3:0|3:0,0:0:0:0:
326,231,84985,2,2,L|476:224,2,150,0|2|0,0:0|0:0|0:0,0:0:0:0:
306,131,86860,2,0,L|456:124,2,150
216,92,88735,5,4,0:0:0:0:
300,36,89203,1,8,0:0:0:0:
400,52,89672,1,8,0:0:0:0:
436,144,90141,1,8,0:0:0:0:
332,136,90610,6,0,B|336:212|336:212|364:256|364:256|368:332,2,200,4|8|6,0:0|3:0|0:0,0:0:0:0:
244,92,92953,2,0,P|200:92|172:96,2,50,2|2|8,0:0|0:0|3:0,0:0:0:0:
204,184,93891,2,0,P|248:184|276:180,2,50,2|2|4,0:0|0:0|0:0,0:0:0:0:
116,140,94828,1,2,0:0:0:0:
116,140,95297,2,0,P|56:144|8:128,1,100,8|2,3:0|0:0,0:0:0:0:
0,232,96235,22,0,P|64:244|152:236,1,150,4|0,0:0|0:0,0:0:0:0:
196,252,97172,2,0,P|248:248|296:256,1,100,0|0,0:0|0:0,0:0:0:0:
392,284,98110,22,0,P|432:196|408:96,2,200,6|8|6,0:0|3:0|0:0,0:0:0:0:
294,255,100453,2,0,P|282:227|278:199,2,50,2|2|8,0:0|0:0|3:0,0:0:0:0:
392,284,101391,2,0,P|404:312|408:340,2,50,2|2|4,0:0|0:0|0:0,0:0:0:0:
312,344,102328,1,2,0:0:0:0:
312,344,102797,2,0,P|272:340|216:368,1,100,8|2,3:0|0:0,0:0:0:0:
120,352,103735,6,0,P|88:276|96:204,1,150,4|0,0:0|0:0,0:0:0:0:
96,160,104672,2,0,L|212:168,1,100,0|0,0:0|0:0,0:0:0:0:
276,108,105610,6,0,B|248:168|248:168|288:312,2,200,4|8|6,0:0|3:0|0:0,0:0:0:0:
356,168,107953,2,0,L|372:232,2,50,2|2|8,0:0|0:0|3:0,0:0:0:0:
276,108,108891,2,0,L|212:104,2,50,2|2|4,0:0|0:0|0:0,0:0:0:0:
368,64,109828,1,2,0:0:0:0:
356,168,110297,1,8,3:0:0:0:
276,108,110766,1,2,0:0:0:0:
196,48,111235,22,0,P|128:44|56:92,1,150,2|0,0:0|3:0,0:0:0:0:
20,116,112172,2,0,L|36:220,1,100,8|6,3:0|1:0,0:0:0:0:
120,160,113110,22,0,L|152:364,2,200,4|8|6,0:0|3:0|0:0,0:0:0:0:
216,140,115453,2,0,P|248:136|276:120,2,50,2|2|8,0:0|0:0|3:0,0:0:0:0:
120,160,116391,2,0,P|88:154|56:161,2,50,2|2|4,0:0|0:0|0:0,0:0:0:0:
192,228,117328,1,2,0:0:0:0:
216,324,117797,1,8,3:0:0:0:
316,324,118266,1,2,0:0:0:0:
292,228,118735,6,0,P|364:224|436:168,1,150,6|0,0:0|3:0,0:0:0:0:
476,192,119672,2,0,L|472:84,1,100,8|0,3:0|0:0,0:0:0:0:
256,192,120610,12,0,124360,0:0:0:0:
176,152,135610,6,0,L|24:144,2,150,4|2|0,1:0|0:0|0:0,0:0:0:0:
256,212,137485,2,0,P|280:268|252:364,2,150,2|2|0,3:0|0:0|0:0,0:0:0:0:
272,112,139360,2,0,L|424:104,2,150,2|2|0,3:0|0:0|0:0,0:0:0:0:
196,48,141235,1,2,3:0:0:0:
196,48,142172,1,2,0:0:0:0:
204,224,143110,6,0,L|196:388,2,150,2|2|0,0:0|3:0|0:0,0:0:0:0:
300,192,144985,2,0,L|292:341,2,150,0|2|2,0:0|0:0|3:0,0:0:0:0:
296,92,146860,2,0,P|372:80|440:112,2,150,2|0|0,0:0|0:0|0:0,0:0:0:0:
196,108,148735,1,2,0:0:0:0:
256,300,149672,1,2,0:0:0:0:
416,176,150610,21,4,1:0:0:0:
416,176,151547,2,0,P|348:188|276:148,2,150,2|2|0,3:0|0:0|0:0,0:0:0:0:
464,88,153422,1,2,0:0:0:0:
264,88,154360,5,2,3:0:0:0:
264,88,155297,2,0,P|296:140|292:240,2,150,2|2|0,3:0|0:0|0:0,0:0:0:0:
164,88,157172,1,2,3:0:0:0:
120,284,158110,22,0,P|88:232|92:132,2,150,2|2|0,3:0|3:0|0:0,0:0:0:0:
196,348,159985,1,0,0:0:0:0:
196,348,160922,2,0,L|356:340,1,150,2|2,0:0|3:0,0:0:0:0:
396,356,161860,2,0,P|412:296|388:208,2,150,2|2|0,0:0|3:0|0:0,0:0:0:0:
304,316,163735,2,0,B|252:300|252:300|208:312|208:312|152:292,2,150,2|0|0,0:0|0:0|0:0,0:0:0:0:
392,268,165610,5,4,1:0:0:0:
392,268,166313,2,0,P|420:212|408:128,1,150,0|0,1:0|1:0,0:0:0:0:
268,76,167719,2,0,L|104:84,1,150,0|0,1:0|1:0,0:0:0:0:
124,184,168891,1,0,1:0:0:0:
136,284,169360,21,4,1:0:0:0:
136,284,170063,2,0,L|285:276,1,150,0|0,1:0|1:0,0:0:0:0:
432,300,171469,2,0,P|452:240|448:148,1,150,0|0,1:0|1:0,0:0:0:0:
432,56,172641,1,0,1:0:0:0:
332,64,173110,5,4,1:0:0:0:
204,144,173813,2,0,P|156:116|128:24,1,150,0|0,1:0|1:0,0:0:0:0:
268,84,175219,2,0,L|256:240,1,150,0|0,1:0|1:0,0:0:0:0:
300,324,176391,1,0,1:0:0:0:
380,264,176860,1,4,1:0:0:0:
292,144,177563,22,0,P|220:132|152:176,1,150,0|0,1:0|1:0,0:0:0:0:
140,268,178735,1,0,0:0:0:0:
240,268,179203,2,0,B|312:280|346:250|346:250|392:232|440:252,1,200,0|0,1:0|1:0,0:0:0:0:
384,336,180610,6,0,P|348:248|388:156,1,200,4|4,1:0|1:2,0:0:0:0:
387,156,182485,2,0,L|183:148,1,200,4|2,1:2|1:0,0:0:0:0:
56,256,184360,22,0,P|24:212|24:68,2,200,4|8|0,0:0|0:0|0:0,0:0:0:0:
132,320,186703,1,2,2:0:0:0:
192,240,187172,2,0,P|288:224|396:280,1,200,8|4,0:0|0:0,0:0:0:0:
456,80,189047,1,8,0:0:0:0:
456,80,189985,2,0,P|408:72|344:92,1,100,0|2,0:0|2:0,0:0:0:0:
272,132,190922,2,0,P|220:144|164:132,1,100,8|0,0:0|0:0,0:0:0:0:
120,52,191860,6,0,L|144:252,2,200,4|8|0,0:0|0:0|0:0,0:0:0:0:
44,116,194203,1,2,2:0:0:0:
44,116,194672,2,0,P|144:144|220:88,1,200,8|4,0:0|0:0,0:0:0:0:
416,72,196547,1,8,0:0:0:0:
416,72,197485,2,0,L|412:192,1,100,0|0,0:0|0:0,0:0:0:0:
312,160,198422,2,0,L|308:280,1,100,0|0,0:0|0:0,0:0:0:0:
240,332,199360,22,0,P|144:328|64:264,2,200,6|4|6,0:0|0:3|0:0,0:0:0:0:
332,296,201703,2,0,P|344:324|344:356,2,50,2|2|4,0:0|0:0|0:3,0:0:0:0:
256,228,202641,2,0,P|244:200|244:172,2,50,2|2|6,0:0|0:0|0:0,0:0:0:0:
352,196,203578,1,2,0:0:0:0:
312,104,204047,2,0,P|264:72|224:76,1,100,4|2,0:3|0:0,0:0:0:0:
144,136,204985,22,0,B|128:192|128:192|164:232|152:304,1,150,6|0,0:0|0:0,0:0:0:0:
124,316,205922,2,0,P|64:320|24:296,1,100,4|6,0:3|0:0,0:0:0:0:
92,224,206860,22,0,P|168:216|244:324,2,200,4|4|6,0:0|0:3|0:0,0:0:0:0:
24,152,209203,2,0,P|8:128|0:100,2,50,2|2|4,0:0|0:0|0:3,0:0:0:0:
92,224,210141,2,0,P|83:247|69:267,2,50,2|2|4,0:0|0:0|0:0,0:0:0:0:
120,128,211078,1,2,0:0:0:0:
220,124,211547,1,4,0:3:0:0:
320,124,212016,1,2,0:0:0:0:
320,124,212485,22,0,P|336:184|320:228,1,100,0|0,0:0|0:0,0:0:0:0:
232,256,213422,2,0,P|176:256|104:324,1,150,4|0,0:3|0:0,0:0:0:0:
60,332,214360,6,0,P|24:284|24:168,1,150,4|8,0:0|0:0,0:0:0:0:
204,32,216235,2,0,L|188:240,1,200,8|8,3:0|0:0,0:0:0:0:
208,328,217641,2,0,P|236:320|260:308,2,50,0|8|4,0:0|3:0|0:0,0:0:0:0:
