osu file format v12

[General]
AudioFilename: Alligator Blood - Bring Me The Horizon.mp3
AudioLeadIn: 1996
PreviewTime: 57151
Countdown: 0
SampleSet: Normal
StackLeniency: 0.2
Mode: 0
LetterboxInBreaks: 0

[Editor]
Bookmarks: 10610
DistanceSpacing: 0.8
BeatDivisor: 4
GridSize: 4

[Metadata]
Title:Alligator Blood
TitleUnicode:Alligator Blood
Artist:Bring Me The Horizon
ArtistUnicode:Bring Me The Horizon
Creator:AkagamiNamikaze
Version:Dream
Source:
Tags:there hell believe seen heaven keep secret oliver sykes rock metalcore deathcore screamo
BeatmapID:202077
BeatmapSetID:70288

[Difficulty]
HPDrainRate:7
CircleSize:4
OverallDifficulty:7
ApproachRate:9
SliderMultiplier:2.4
SliderTickRate:2

[Events]
//Background and Video events
0,0,"53947121035172911.jpg",0,0
//Break Periods
2,157912,159254
2,160197,161540
2,176197,177540
2,178483,179826
2,239438,241305
//Storyboard Layer 0 (Background)
//Storyboard Layer 1 (Fail)
//Storyboard Layer 2 (Pass)
//Storyboard Layer 3 (Foreground)
//Storyboard Sound Samples
//Background Colour Transformations
3,100,163,162,255

[TimingPoints]
75,585.365853658537,4,1,0,70,1,0
7089,-50,4,1,0,70,0,0
7162,-50,4,1,0,30,0,0
7706,-50,4,1,0,40,0,0
8291,-50,4,1,0,50,0,0
8584,-50,4,1,0,60,0,0
8865,-200,4,1,0,5,0,0
10615,292.682926829268,4,1,0,70,1,1
19844,-100,4,1,0,70,0,0
19990,-100,4,1,0,70,0,1
29195,-100,4,1,0,70,0,0
29341,-100,4,1,0,70,0,1
29488,-100,4,1,0,70,0,0
48371,-100,4,1,0,60,0,0
48663,-100,4,1,0,50,0,0
48956,-100,4,1,0,40,0,0
49249,-100,4,1,0,70,0,0
53054,-100,4,1,0,60,0,0
53346,-100,4,1,0,50,0,0
53639,-100,4,1,0,40,0,0
53932,-100,4,1,0,70,0,0
57439,-100,4,1,0,70,0,1
66658,-100,4,1,0,70,0,0
66805,-100,4,1,0,70,0,1
76024,-100,4,1,0,70,0,0
76170,-100,4,1,0,70,0,1
76317,-100,4,1,0,70,0,0
85536,-100,4,1,0,70,0,1
85683,-100,4,1,0,70,0,0
87878,-100,4,1,0,70,0,1
88024,-100,4,1,0,70,0,0
90219,-100,4,1,0,70,0,1
90366,-100,4,1,0,70,0,0
92561,-100,4,1,0,70,0,1
92707,-100,4,1,0,70,0,0
94614,-200,4,1,0,70,0,0
94902,-100,4,1,0,70,0,1
103980,-200,4,1,0,70,0,1
104122,-200,4,1,0,70,0,0
104268,-100,4,1,0,70,0,1
113634,-100,4,1,0,70,0,0
115541,-200,4,1,0,70,0,0
115614,-200,4,1,0,100,0,0
115907,-200,4,1,0,70,0,0
115980,-100,4,1,0,70,0,0
134712,285.714285714286,4,1,0,70,1,0
152992,-100,4,1,0,70,0,1
157564,-100,4,1,0,70,0,0
162135,-100,4,1,0,70,0,1
166707,-100,4,1,0,70,0,0
171278,-100,4,1,0,70,0,1
175849,-100,4,1,0,70,0,0
180421,-100,4,1,0,70,0,1
184997,292.682926829268,4,1,0,70,1,0
189674,-100,4,1,0,70,0,1
198894,-100,4,1,0,70,0,0
199040,-100,4,1,0,70,0,1
199187,-100,4,1,0,70,0,0
206070,-133.333333333333,4,1,0,70,0,0
212572,375,4,1,0,70,1,1
212759,-100,4,1,0,40,0,0
216978,-100,4,1,0,70,0,0
218478,-100,4,1,0,40,0,0
224572,-100,4,1,0,70,0,1
236572,666.666666666667,4,1,0,70,1,0
236780,-100,4,1,0,5,0,0
243900,-200,4,1,0,70,0,0
244566,333.333333333333,4,1,0,70,1,1
244732,-100,4,1,0,70,0,0
255316,-100,4,1,0,45,0,0
259232,-100,4,1,0,70,0,0

[Colours]
Combo1 : 128,128,128
Combo2 : 255,255,255
Combo3 : 192,192,192
Combo4 : 255,0,0

[HitObjects]
220,152,75,2,0,L|196:132,2,30
292,232,367,2,0,L|316:252,2,30
212,236,660,2,0,L|156:276,1,60,8|0,3:3|2:0,0:0:0:0:
88,240,953,2,0,L|64:204,2,30,0|0|0,2:0|2:0|2:0,0:0:0:0:
136,344,1245,2,0,L|200:352,1,60,0|0,2:0|2:0,0:0:0:0:
276,332,1538,2,0,P|304:320|344:324,1,60,0|0,2:0|2:0,0:0:0:0:
404,356,1831,2,0,P|412:324|404:292,1,60,8|0,3:3|2:0,0:0:0:0:
352,244,2123,2,0,L|360:208,4,30,0|0|0|0|0,2:0|2:0|2:0|2:0|2:0,0:0:0:0:
260,240,2562,5,0,2:0:0:0:
176,260,2709,2,0,L|136:212,1,60,0|0,2:0|2:0,0:0:0:0:
212,164,3001,2,0,L|256:112,1,60,8|0,3:3|2:0,0:0:0:0:
328,152,3294,2,0,P|360:160|388:152,1,60,0|0,2:0|2:0,0:0:0:0:
356,80,3587,1,0,3:0:0:0:
384,8,3733,2,0,P|352:0|324:8,1,60,0|0,2:0|2:0,0:0:0:0:
260,80,4026,1,0,2:0:0:0:
160,80,4172,2,0,L|128:48,3,30
160,80,4465,2,0,P|140:136|152:196,1,120
151,194,4830,2,0,L|136:240,1,30
228,232,5050,6,0,L|268:248,4,30
256,192,5489,12,0,6806,0:0:0:0:
304,88,7089,6,0,L|256:48,3,60
244,140,7381,2,0,L|180:136,3,60
256,212,7674,2,0,L|208:256,3,60
316,256,7967,2,0,L|356:300,3,60
364,204,8259,2,0,L|424:208,3,60
364,132,8552,2,0,L|416:104,3,60
304,88,8865,6,2,B|215:36|131:124|132:180|215:272|304:216,1,360,2|0,0:0|0:0,3:0:0:0:
408,272,10761,5,0,0:0:0:0:
284,336,10907,2,0,P|168:360|80:280,1,240,0|8,0:0|0:0,0:0:0:0:
144,232,11346,1,0,0:0:0:0:
72,172,11493,2,0,L|152:72,1,120
196,156,11785,2,0,L|384:156,2,180
276,64,12370,1,8,0:0:0:0:
276,244,12517,1,0,0:0:0:0:
308,64,12663,1,0,0:0:0:0:
308,244,12809,1,0,0:0:0:0:
196,156,12956,6,0,L|132:156,2,60
376,156,13248,2,0,P|420:80|304:72,1,240,0|8,0:0|0:0,0:0:0:0:
292,144,13687,1,0,0:0:0:0:
292,332,13834,2,0,L|292:392,2,60
208,304,14127,2,0,L|104:244,1,120
88,104,14419,2,0,L|200:160,1,120
248,236,14712,1,8,0:0:0:0:
320,56,14859,1,0,0:0:0:0:
444,204,15005,2,0,P|404:312|288:328,1,240,8|0,0:0|0:0,0:0:0:0:
188,304,15444,5,0,0:0:0:0:
332,224,15590,1,0,0:0:0:0:
264,380,15736,1,0,0:0:0:0:
236,216,15883,1,8,0:0:0:0:
364,320,16029,1,0,0:0:0:0:
464,144,16175,5,0,0:0:0:0:
260,136,16322,1,0,0:0:0:0:
104,264,16468,1,0,0:0:0:0:
92,252,16614,1,0,0:0:0:0:
80,240,16761,2,0,P|48:148|144:60,1,240,0|8,0:0|0:0,0:0:0:0:
128,164,17200,1,0,0:0:0:0:
216,24,17346,2,0,L|216:160,1,120
188,224,17639,6,0,L|212:284,2,60
264,200,17932,2,0,P|320:172|376:180,1,120
332,252,18224,1,8,0:0:0:0:
420,244,18371,1,0,0:0:0:0:
456,164,18517,6,0,P|416:112|352:96,1,120
216,24,18810,1,0,0:0:0:0:
188,224,18956,1,0,0:0:0:0:
28,100,19102,6,0,L|28:340,1,240,0|8,0:0|0:0,0:0:0:0:
48,336,19468,1,0,3:3:0:0:
68,332,19541,1,0,3:3:0:0:
88,328,19614,1,0,3:3:0:0:
108,324,19688,1,8,0:0:0:0:
128,320,19761,1,0,3:3:0:0:
148,316,19834,1,0,3:0:0:0:
168,312,19907,1,0,3:3:0:0:
188,308,19980,1,8,0:0:0:0:
188,224,20127,6,0,L|284:144,1,120
400,172,20419,2,0,L|300:260,1,120,0|8,0:0|0:0,0:0:0:0:
336,328,20712,1,0,0:0:0:0:
416,288,20858,2,0,P|408:192|280:164,1,240,0|4,0:0|3:3,0:0:0:0:
276,152,21224,1,4,3:3:0:0:
268,144,21297,1,4,3:3:0:0:
196,196,21444,2,0,P|180:132|204:76,1,120
120,40,21736,1,8,0:0:0:0:
112,48,21810,1,0,0:0:0:0:
104,56,21883,1,0,0:0:0:0:
60,152,22029,2,0,L|112:276,1,120
192,312,22322,5,4,3:3:0:0:
192,312,22395,1,4,3:3:0:0:
192,312,22468,1,4,3:3:0:0:
272,288,22614,2,0,L|272:164,1,120
328,212,22907,2,0,P|272:220|208:212,1,120,8|0,0:0|0:0,0:0:0:0:
200,132,23200,1,4,3:3:0:0:
192,128,23273,1,4,3:3:0:0:
184,124,23346,1,4,3:3:0:0:
60,152,23493,2,0,P|68:212|96:264,1,120
328,212,23785,2,0,P|320:152|292:100,1,120
148,40,24078,5,8,0:0:0:0:
384,80,24224,1,0,0:0:0:0:
220,256,24371,2,0,P|316:320|432:268,1,240,8|0,0:0|0:0,0:0:0:0:
328,212,24810,5,0,0:0:0:0:
244,160,24956,2,0,P|180:140|144:100,1,120
224,76,25249,2,0,P|288:96|322:133,1,120,8|0,0:0|0:0,0:0:0:0:
388,260,25541,1,0,0:0:0:0:
396,268,25834,2,0,L|268:276,1,120
328,212,26127,2,0,L|200:220,1,120
28,72,26419,2,0,L|156:64,1,120,8|0,0:0|0:0,0:0:0:0:
96,128,26712,2,0,L|220:120,1,120
336,112,27005,5,0,3:0:0:0:
344,104,27078,1,0,3:0:0:0:
352,96,27151,1,0,3:0:0:0:
424,40,27297,2,0,P|440:100|420:168,1,120
480,220,27590,2,0,P|416:244|356:228,1,120,8|0,0:0|0:0,0:0:0:0:
284,216,27883,1,8,3:1:0:0:
280,228,27956,1,8,3:1:0:0:
276,240,28029,1,8,3:1:0:0:
272,252,28102,1,8,3:1:0:0:
268,264,28175,1,8,3:3:0:0:
188,312,28322,2,0,P|152:256|140:200,1,120
104,8,28614,2,0,P|140:64|152:120,1,120,12|8,0:3|0:0,0:0:0:0:
180,120,28834,1,8,0:0:0:0:
204,124,28907,1,8,0:0:0:0:
224,120,28980,1,8,0:0:0:0:
240,108,29054,1,8,0:0:0:0:
260,96,29127,1,8,0:0:0:0:
280,84,29200,6,8,P|404:84|428:184,1,240,8|0,3:3|0:0,3:3:0:0:
348,232,29639,1,8,0:0:0:0:
312,320,29785,2,0,P|192:352|88:296,1,240,8|0,3:0|0:0,0:0:0:0:
156,188,30224,1,8,0:0:0:0:
260,96,30371,2,0,P|344:180|264:252,1,240,8|0,3:0|0:0,0:0:0:0:
260,176,30810,1,8,0:0:0:0:
260,24,30956,2,0,P|380:72|416:184,1,240,8|0,3:0|0:0,0:0:0:0:
156,188,31395,1,8,0:0:0:0:
164,196,31541,1,0,0:0:0:0:
256,344,31688,6,0,P|312:324|344:256,1,120
200,104,31980,2,0,P|144:124|112:192,1,120,8|0,0:0|0:0,0:0:0:0:
332,112,32273,2,0,P|312:55|248:24,1,120
196,188,32566,1,8,0:0:0:0:
356,184,32712,2,0,L|388:304,1,120,8|0,3:3|0:0,0:0:0:0:
392,316,33005,1,0,0:0:0:0:
192,264,33151,1,8,0:0:0:0:
356,184,33297,2,0,L|324:64,1,120,8|0,3:3|0:0,0:0:0:0:
320,56,33590,1,0,0:0:0:0:
316,44,33737,1,8,0:0:0:0:
424,80,33883,6,0,P|348:168|232:128,1,240,8|0,0:0|0:0,0:0:0:0:
240,64,34322,2,0,P|184:84|164:144,1,120,8|0,0:0|0:0,0:0:0:0:
120,48,34614,2,0,L|224:128,1,120
336,192,34907,1,8,0:0:0:0:
180,232,35054,2,0,P|264:284|176:340,1,240,8|0,3:3|0:0,0:0:0:0:
108,280,35493,2,0,P|92:220|120:164,1,120,8|0,0:0|0:0,0:0:0:0:
240,64,35785,2,0,L|120:64,1,120
248,72,36078,1,8,0:0:0:0:
256,80,36224,1,0,0:0:0:0:
264,88,36371,1,8,0:0:0:0:
408,196,36517,6,0,B|408:240|408:240|388:264|360:276|324:264,1,120
160,276,36810,1,8,0:0:0:0:
72,120,36956,2,0,B|72:76|72:76|92:52|120:40|156:52,1,120
248,192,37249,1,8,0:0:0:0:
388,304,37395,2,0,L|472:208,1,120
324,324,37688,1,8,0:0:0:0:
184,212,37834,2,0,L|100:308,1,120
72,120,38127,1,8,0:0:0:0:
80,112,38200,1,8,0:0:0:0:
88,104,38273,1,8,0:0:0:0:
196,52,38419,1,8,0:0:0:0:
316,68,38566,6,0,B|352:148|352:148|324:184|288:208|216:200,1,240
40,280,39005,2,0,P|78:322|132:353,1,120,8|0,0:0|0:0,0:0:0:0:
240,352,39297,2,0,B|240:292|144:288|64:192,1,240,0|8,0:0|0:0,0:0:0:0:
160,180,39736,2,0,P|256:144|240:248,1,240
164,260,40175,2,0,L|320:72,1,240,8|0,0:0|0:0,0:0:0:0:
328,64,40541,1,0,0:0:0:0:
336,56,40614,1,0,0:0:0:0:
436,192,40761,1,8,0:0:0:0:
364,344,40907,6,0,P|244:336|124:296,1,240
96,228,41346,2,0,P|144:184|212:172,1,120,8|0,0:0|0:0,0:0:0:0:
204,248,41639,2,0,P|336:224|372:128,1,240,0|8,0:0|0:0,0:0:0:0:
264,168,42078,1,0,0:0:0:0:
104,40,42224,5,8,0:0:0:0:
104,56,42371,1,0,0:0:0:0:
104,72,42517,1,8,0:0:0:0:
104,88,42663,1,0,0:0:0:0:
104,104,42810,2,0,L|104:348,1,240,8|8,0:0|0:0,0:0:0:0:
32,292,43249,2,0,P|160:304|248:236,1,240,0|0,0:0|0:0,0:0:0:0:
180,192,43688,2,0,P|252:156|292:168,1,120,8|0,0:0|0:0,0:0:0:0:
328,240,43980,1,0,0:0:0:0:
360,320,44127,2,0,P|436:294|454:263,1,120,0|8,0:0|0:0,0:0:0:0:
416,188,44419,1,0,0:0:0:0:
220,40,44566,6,0,P|160:40|120:88,1,120
292,344,44858,2,0,P|352:344|392:296,1,120,8|0,0:0|0:0,0:0:0:0:
100,152,45151,2,0,P|57:194|63:256,1,120
412,232,45444,2,0,P|454:189|448:127,1,120,8|0,0:0|0:0,0:0:0:0:
232,156,45736,2,0,L|124:244,1,120,8|0,0:0|0:0,0:0:0:0:
280,228,46029,2,0,L|388:140,1,120,8|0,0:0|0:0,0:0:0:0:
240,304,46322,2,0,P|316:308|360:264,1,120,8|0,0:0|0:0,0:0:0:0:
272,80,46614,2,0,P|196:76|163:100,1,120,8|8,0:0|0:0,0:0:0:0:
256,192,46907,12,8,47785,0:0:0:0:
40,48,48078,5,8,3:3:0:0:
48,56,48151,1,8,3:3:0:0:
56,60,48224,1,8,3:3:0:0:
64,64,48297,1,8,3:3:0:0:
72,64,48371,1,8,3:3:0:0:
80,64,48444,1,8,3:3:0:0:
88,64,48517,1,8,3:3:0:0:
96,60,48590,1,8,3:3:0:0:
104,56,48663,5,8,3:3:0:0:
112,48,48736,1,8,3:3:0:0:
120,48,48810,1,8,3:3:0:0:
128,48,48883,1,8,3:3:0:0:
136,48,48956,1,8,3:3:0:0:
144,52,49029,1,8,3:3:0:0:
152,56,49102,1,8,3:3:0:0:
160,64,49175,1,8,3:3:0:0:
168,64,49249,5,0,0:0:0:0:
176,64,49322,1,0,0:0:0:0:
184,60,49395,1,0,0:0:0:0:
192,56,49468,1,0,0:0:0:0:
200,48,49541,1,8,3:3:0:0:
208,48,49614,1,8,3:3:0:0:
216,48,49688,1,8,3:3:0:0:
224,52,49761,1,8,3:3:0:0:
232,56,49834,5,8,3:3:0:0:
328,192,49980,2,0,P|356:344|200:324,1,360,0|4,0:0|0:2,0:0:0:0:
456,56,50712,6,0,B|352:16|320:144|216:44,1,240,4|4,0:2|0:2,0:0:0:0:
56,328,51297,2,0,B|160:368|192:240|296:340,1,240,4|0,0:2|0:0,0:0:0:0:
292,336,51663,1,0,0:0:0:0:
300,344,51736,1,0,0:0:0:0:
256,192,51883,2,0,P|196:192|204:176,1,120
320,48,52175,1,0,0:0:0:0:
312,56,52249,1,0,0:0:0:0:
304,64,52322,1,0,0:0:0:0:
256,192,52468,2,0,P|316:192|308:208,1,120
472,336,52761,5,8,3:3:0:0:
464,328,52834,1,8,3:3:0:0:
456,324,52907,1,8,3:3:0:0:
448,320,52980,1,8,3:3:0:0:
440,320,53054,1,8,3:3:0:0:
432,320,53127,1,8,3:3:0:0:
424,320,53200,1,8,3:3:0:0:
416,324,53273,1,8,3:3:0:0:
408,328,53346,5,8,3:3:0:0:
400,336,53419,1,8,3:3:0:0:
392,336,53493,1,8,3:3:0:0:
384,336,53566,1,8,3:3:0:0:
376,336,53639,1,8,3:3:0:0:
368,332,53712,1,8,3:3:0:0:
360,328,53785,1,8,3:3:0:0:
352,320,53858,1,8,3:3:0:0:
344,320,53932,5,0,0:0:0:0:
336,320,54005,1,0,0:0:0:0:
328,324,54078,1,0,0:0:0:0:
320,328,54151,1,0,0:0:0:0:
312,336,54224,1,8,3:3:0:0:
304,336,54297,1,8,3:3:0:0:
296,336,54371,1,8,3:3:0:0:
288,332,54444,1,8,3:3:0:0:
280,328,54517,5,8,3:3:0:0:
184,192,54663,2,0,P|156:40|312:60,1,360,0|4,0:0|0:2,0:0:0:0:
272,184,55249,6,0,P|248:248|184:272,1,120
64,36,55541,2,0,P|56:168|128:256,1,240,4|0,0:2|0:0,0:0:0:0:
144,328,55980,1,4,0:2:0:0:
224,356,56127,2,0,P|288:332|316:288,1,120
392,92,56419,2,0,P|284:164|224:280,1,240,4|0,0:2|0:0,0:0:0:0:
316,288,56858,1,4,0:2:0:0:
308,272,56932,1,0,0:0:0:0:
304,256,57005,1,0,0:0:0:0:
236,124,57151,1,0,0:0:0:0:
392,92,57297,6,0,P|448:196|388:196,1,240,0|0,0:0|0:0,0:0:0:0:
236,236,57736,1,8,0:0:0:0:
84,188,57883,2,0,L|44:72,1,120
240,20,58175,1,0,0:0:0:0:
236,236,58322,2,0,P|188:272|120:272,1,120,8|0,0:0|0:0,0:0:0:0:
236,124,58614,2,0,P|284:88|352:88,1,120
312,164,58907,5,8,0:0:0:0:
392,304,59054,1,0,0:0:0:0:
240,304,59200,1,0,0:0:0:0:
388,216,59346,1,0,0:0:0:0:
240,220,59493,1,8,0:0:0:0:
320,360,59639,1,0,0:0:0:0:
316,260,59785,1,0,0:0:0:0:
172,260,59932,6,0,P|168:192|200:148,1,120,0|8,0:0|0:0,0:0:0:0:
460,256,60224,2,0,P|464:188|435:147,1,120
316,52,60517,2,0,P|256:32|204:56,1,120,0|8,0:0|0:0,0:0:0:0:
336,120,60810,1,0,0:0:0:0:
128,28,60956,2,0,P|124:92|232:124,2,180,8|8|8,0:3|0:3|0:3,0:0:0:0:
196,56,61541,1,0,0:0:0:0:
44,120,61688,1,0,0:0:0:0:
180,212,61834,1,8,0:0:0:0:
64,328,61980,1,0,0:0:0:0:
80,328,62054,1,0,0:0:0:0:
96,328,62127,2,0,L|224:328,1,120
400,380,62419,6,0,P|488:324|400:272,1,240,8|0,0:0|0:0,0:0:0:0:
392,192,62858,2,0,P|340:228|328:284,1,120,0|8,0:0|0:0,0:0:0:0:
256,328,63151,1,0,0:0:0:0:
256,108,63297,2,0,L|256:236,1,120
256,328,63590,1,8,0:0:0:0:
120,192,63736,2,0,P|172:228|184:284,1,120
256,328,64029,1,0,0:0:0:0:
256,108,64175,2,0,L|256:-32,1,120,8|0,0:0|0:0,0:0:0:0:
120,120,64468,6,0,P|56:120|52:168,1,120,8|0,0:0|0:0,0:0:0:0:
256,108,64761,1,0,0:0:0:0:
400,264,64907,2,0,P|464:264|468:216,1,120,8|0,0:0|0:0,0:0:0:0:
256,328,65200,1,0,0:0:0:0:
44,328,65346,2,0,L|44:200,1,120,8|0,0:0|0:0,0:0:0:0:
256,216,65639,1,0,0:0:0:0:
368,36,65785,2,0,L|248:36,1,120,8|0,0:0|0:0,0:0:0:0:
60,136,66078,1,0,0:0:0:0:
256,144,66224,1,8,0:0:0:0:
264,140,66297,1,8,0:0:0:0:
272,132,66371,1,8,0:0:0:0:
212,56,66517,1,8,0:0:0:0:
160,136,66663,6,0,P|148:220|276:220,1,240
320,284,67102,2,0,P|348:232|320:168,1,120,8|0,0:0|0:0,0:0:0:0:
336,68,67395,2,0,L|444:128,1,120
444,316,67688,2,0,L|340:380,1,120,8|0,0:0|0:0,0:0:0:0:
188,356,67980,5,0,0:0:0:0:
103,226,68127,1,0,0:0:0:0:
258,217,68273,1,8,0:0:0:0:
108,316,68419,1,0,0:0:0:0:
263,307,68566,1,0,0:0:0:0:
177,176,68712,1,0,0:0:0:0:
115,76,68858,1,8,0:0:0:0:
231,71,69005,1,0,0:0:0:0:
296,172,69151,6,0,P|296:232|248:272,1,120
288,340,69444,2,0,P|348:340|388:388,1,120,8|0,0:0|0:0,0:0:0:0:
460,344,69736,2,0,P|460:284|508:244,1,120
472,172,70029,2,0,P|412:172|372:124,1,120,8|0,0:0|0:0,0:0:0:0:
444,96,70322,2,0,B|416:36|416:36|304:36,2,160,8|8|8,0:3|0:3|0:3,0:0:0:0:
360,112,70907,2,0,L|264:188,1,120
252,196,71200,1,8,0:0:0:0:
260,308,71346,1,8,0:0:0:0:
248,304,71419,1,8,0:0:0:0:
236,300,71493,2,0,P|136:212|156:112,1,240,0|8,0:0|0:0,0:0:0:0:
232,64,71932,5,0,0:0:0:0:
316,108,72078,2,0,P|272:152|208:160,1,120
232,64,72371,1,8,0:0:0:0:
312,24,72517,2,0,P|408:64|368:176,1,240
412,236,72956,2,0,P|472:176|488:128,1,120,8|0,0:0|0:0,0:0:0:0:
412,236,73249,2,0,P|472:296|488:344,1,120
412,236,73541,2,0,P|352:296|339:327,1,120,8|0,0:0|0:0,0:0:0:0:
96,332,73834,6,0,P|48:296|56:236,1,120,8|0,0:0|0:0,0:0:0:0:
116,184,74127,1,0,0:0:0:0:
316,52,74273,2,0,L|440:40,1,120,8|0,0:0|0:0,0:0:0:0:
480,112,74566,1,0,0:0:0:0:
268,224,74712,2,0,L|360:308,1,120,8|0,0:0|0:0,0:0:0:0:
268,224,75005,1,8,0:0:0:0:
260,216,75078,1,8,0:0:0:0:
252,208,75151,1,8,0:0:0:0:
244,200,75224,1,8,0:0:0:0:
236,192,75297,1,8,3:3:0:0:
228,184,75371,1,8,3:3:0:0:
220,176,75444,1,8,3:3:0:0:
212,168,75517,1,8,3:3:0:0:
204,160,75590,1,8,0:0:0:0:
172,252,75736,1,8,3:3:0:0:
172,252,76176,5,8,0:3:0:0:
232,64,76468,6,0,P|292:48|352:64,1,120,8|0,0:0|0:0,0:0:0:0:
416,128,76761,1,0,0:0:0:0:
348,196,76907,2,0,P|288:212|228:196,1,120,0|8,0:0|0:0,0:0:0:0:
164,132,77200,1,0,0:0:0:0:
60,192,77346,2,0,P|32:252|48:312,2,120,0|0|8,0:0|0:0|0:0,0:0:0:0:
184,240,77785,2,0,P|212:180|196:120,2,120
120,356,78224,1,8,0:0:0:0:
116,72,78371,2,0,P|236:28|296:104,1,240,8|0,0:0|0:0,0:0:0:0:
200,112,78810,6,0,P|160:152|100:160,1,120,8|0,0:0|0:0,0:0:0:0:
72,232,79102,2,0,P|184:228|276:136,1,240,0|8,0:0|0:0,0:0:0:0:
464,244,79541,2,0,P|352:248|260:340,1,240
164,324,79980,1,8,0:0:0:0:
376,144,80127,2,0,P|336:36|228:48,1,240
288,116,80566,2,0,P|299:181|340:224,1,120,8|0,0:0|0:0,0:0:0:0:
288,116,80858,6,0,P|224:128|164:104,1,120
52,260,81151,1,8,0:0:0:0:
244,264,81297,2,0,P|132:224|40:136,1,240
236,176,81736,1,8,0:0:0:0:
112,328,81883,2,0,P|228:352|360:340,1,240
396,156,82322,1,8,0:0:0:0:
240,44,82468,2,0,L|136:116,1,120,8|4,0:3|0:2,0:0:0:0:
276,112,82761,2,0,L|276:232,1,120,8|4,0:3|0:2,0:0:0:0:
312,44,83054,2,0,L|416:116,1,120,8|4,0:3|0:2,0:0:0:0:
440,284,83346,5,0,0:0:0:0:
268,312,83493,1,8,0:0:0:0:
336,152,83639,2,0,L|348:272,1,120
176,240,83932,1,0,0:0:0:0:
80,96,84078,2,0,P|144:80|208:84,1,120,8|0,0:0|0:0,0:0:0:0:
372,84,84371,1,0,0:0:0:0:
240,196,84517,2,0,P|176:212|112:208,1,120,0|8,0:0|0:0,0:0:0:0:
120,212,84810,1,0,0:0:0:0:
36,280,84956,1,0,0:0:0:0:
32,288,85029,1,0,0:0:0:0:
36,296,85102,1,0,0:0:0:0:
40,304,85175,1,0,0:0:0:0:
36,312,85249,1,0,0:0:0:0:
32,320,85322,1,0,0:0:0:0:
36,328,85395,1,0,0:0:0:0:
40,336,85468,1,0,0:0:0:0:
36,344,85541,6,0,P|96:332|152:296,1,120
200,356,85834,1,0,0:0:0:0:
216,272,85980,1,0,0:0:0:0:
280,320,86127,2,0,P|360:240|344:112,1,240
424,280,86566,2,0,L|196:160,1,240
264,80,87005,2,0,P|203:73|148:90,1,120
180,264,87297,2,0,P|132:225|105:175,1,120
56,104,87590,1,0,0:0:0:0:
68,104,87736,1,0,0:0:0:0:
80,104,87883,1,0,0:0:0:0:
211,168,88029,5,0,0:0:0:0:
211,168,88102,1,0,0:0:0:0:
211,168,88175,2,0,P|264:136|332:132,1,120
304,208,88468,2,0,P|396:152|336:56,1,240
256,44,88907,2,0,L|148:104,1,120
132,32,89200,2,0,P|76:124|172:172,1,240
156,296,89639,1,0,0:0:0:0:
288,324,89785,1,0,0:0:0:0:
200,224,89932,1,0,0:0:0:0:
212,356,90078,1,0,0:0:0:0:
280,240,90224,6,0,P|336:208|360:156,1,120
408,88,90517,1,0,0:0:0:0:
324,72,90663,2,0,P|208:40|96:72,1,240
36,136,91102,1,0,0:0:0:0:
112,148,91249,2,0,P|224:116|336:176,1,240
308,240,91688,2,0,L|184:240,1,120
224,312,91980,2,0,L|88:312,1,120
188,240,92273,2,0,L|64:240,1,120
68,156,92566,6,0,P|96:100|152:72,1,120
256,40,92858,1,0,0:0:0:0:
367,73,93005,2,0,P|416:100|444:156,1,120
256,192,93297,1,0,0:0:0:0:
224,312,93444,2,0,P|175:285|147:229,1,120
72,312,93736,1,0,0:0:0:0:
288,312,93883,2,0,P|336:285|364:229,1,120
440,312,94175,1,0,0:0:0:0:
256,192,94322,1,0,0:0:0:0:
256,192,94395,1,0,0:0:0:0:
256,192,94468,1,0,0:0:0:0:
256,192,94541,1,0,0:0:0:0:
256,192,94614,2,0,L|256:72,1,120
156,48,95054,5,0,0:0:0:0:
64,96,95200,2,0,P|112:136|168:148,1,120
40,184,95493,2,0,P|144:304|224:336,1,240
280,272,95932,1,0,0:0:0:0:
172,208,96078,2,0,L|268:104,2,120
280,272,96517,1,0,0:0:0:0:
384,208,96663,2,0,L|288:104,2,120
276,36,97102,1,0,0:0:0:0:
188,48,97249,6,0,P|132:76|100:124,1,120
92,204,97541,1,0,0:0:0:0:
176,196,97688,2,0,P|232:168|264:120,1,120
348,92,97980,1,0,0:0:0:0:
400,168,98127,2,0,L|400:288,1,120
196,340,98419,2,0,L|320:340,1,120
308,172,98712,2,0,L|204:256,1,120
108,284,99005,1,0,0:0:0:0:
40,116,99151,1,0,0:0:0:0:
108,284,99297,1,0,0:0:0:0:
176,116,99444,1,0,0:0:0:0:
108,284,99590,6,0,P|156:240|196:192,1,120
264,160,99883,1,0,0:0:0:0:
264,160,100175,2,0,P|320:124|388:112,1,120
440,168,100468,1,0,0:0:0:0:
364,224,100614,2,0,P|312:112|216:40,1,240
124,64,101054,2,0,P|72:100|36:152,1,120
132,156,101346,2,0,P|116:216|132:272,1,120
380,270,101639,2,0,P|396:216|380:156,1,120
432,72,101932,6,0,P|256:40|72:72,1,360
80,312,102517,2,0,P|256:344|440:312,1,360
80,192,103102,2,0,P|136:164|192:152,1,120
432,192,103395,2,0,P|376:220|320:232,1,120
256,36,103688,1,0,0:0:0:0:
256,36,103761,1,0,0:0:0:0:
256,36,103834,1,0,0:0:0:0:
256,36,103907,1,0,0:0:0:0:
256,36,103981,2,0,L|256:156,1,120
256,260,104419,5,0,0:0:0:0:
180,208,104566,2,0,P|156:264|180:320,1,120
328,320,104858,2,0,P|412:268|316:208,1,240
256,136,105297,1,0,0:0:0:0:
160,100,105444,2,0,P|96:116|48:148,1,120
51,266,105736,2,0,P|96:296|160:312,1,120
352,312,106029,2,0,P|416:296|460:266,1,120
460,145,106321,2,0,P|416:116|352:100,1,120
216,40,106614,6,0,P|152:40|92:56,2,120
256,120,107054,1,0,0:0:0:0:
296,40,107200,2,0,P|360:40|420:56,2,120
256,120,107639,1,0,0:0:0:0:
180,152,107785,1,0,0:0:0:0:
144,220,107932,1,0,0:0:0:0:
184,284,108078,1,0,0:0:0:0:
328,284,108224,1,0,0:0:0:0:
368,220,108370,1,0,0:0:0:0:
332,152,108517,1,0,0:0:0:0:
256,120,108663,1,0,0:0:0:0:
256,320,108810,1,0,0:0:0:0:
256,120,108956,6,0,L|256:0,1,120
180,152,109249,2,0,P|256:228|332:144,1,240
392,88,109688,2,0,P|408:148|400:212,1,120
148,264,109980,2,0,P|276:308|368:260,1,240
316,196,110419,1,0,0:0:0:0:
196,196,110566,1,0,0:0:0:0:
256,120,110712,2,0,P|232:64|188:20,1,120
256,264,111005,2,0,P|280:320|324:364,1,120
160,108,111297,6,0,P|76:216|208:352,1,360
352,276,111883,2,0,P|436:168|304:32,1,360
256,192,112468,1,0,0:0:0:0:
256,192,112541,12,0,113346,0:0:0:0:
56,40,113639,5,0,0:0:0:0:
56,72,113712,1,0,0:0:0:0:
56,104,113785,2,0,P|76:160|112:216,1,120
196,212,114078,1,0,0:0:0:0:
168,124,114224,2,0,P|232:128|388:204,1,240
408,228,114590,1,0,0:0:0:0:
424,264,114663,2,0,P|360:280|312:312,1,120
220,304,114956,1,0,0:0:0:0:
120,340,115102,2,0,P|84:224|8:124,1,240
64,56,115541,2,0,P|152:44|248:56,1,180
292,128,116127,5,0,0:0:0:0:
368,84,116273,2,0,P|428:104|472:144,1,120
372,180,116566,2,0,P|324:216|200:120,1,240
132,72,117005,1,0,0:0:0:0:
68,132,117151,2,0,P|64:192|68:252,1,120
148,232,117444,2,0,P|260:308|368:288,1,240
372,180,117883,1,0,0:0:0:0:
208,40,118029,1,0,0:0:0:0:
412,40,118175,1,0,0:0:0:0:
252,184,118322,1,0,0:0:0:0:
248,188,118468,1,0,0:0:0:0:
244,192,118614,6,0,P|184:204|120:208,1,120,0|0,0:0|0:0,0:0:0:0:
208,112,118907,2,0,P|316:128|316:248,1,240
376,316,119346,1,0,0:0:0:0:
440,248,119493,2,0,B|448:192|448:192|440:128,1,120
312,8,119785,2,0,B|256:0|256:0|192:8,1,120
72,136,120078,2,0,B|64:192|64:192|72:256,1,120
200,376,120371,2,0,B|256:384|256:384|320:376,1,120
376,316,120663,1,0,0:0:0:0:
136,316,120956,6,0,P|156:260|196:208,1,120
288,104,121249,2,0,P|312:228|228:292,1,240
140,252,121688,1,0,0:0:0:0:
224,192,121834,2,0,L|348:228,1,120
432,188,122127,1,0,0:0:0:0:
428,184,122419,2,0,P|368:172|324:136,1,120
408,88,122712,2,0,P|468:100|512:136,1,120
484,264,123005,6,0,P|316:312|132:288,1,360
28,120,123590,2,0,P|196:72|380:96,1,360
252,292,124175,1,0,0:0:0:0:
252,280,124249,1,0,0:0:0:0:
252,268,124322,1,0,0:0:0:0:
252,256,124395,1,0,0:0:0:0:
252,244,124468,1,0,0:0:0:0:
252,232,124541,1,0,0:0:0:0:
252,220,124614,1,0,0:0:0:0:
252,208,124688,1,0,0:0:0:0:
252,196,124761,6,0,L|128:200,1,120
252,196,125054,2,0,L|376:192,1,120
440,128,125346,1,0,0:0:0:0:
72,256,125639,5,0,0:0:0:0:
188,336,125785,1,0,0:0:0:0:
216,196,125932,2,0,P|176:104|44:104,1,240
24,180,126371,1,0,0:0:0:0:
112,176,126517,2,0,L|180:68,1,120
248,120,126810,2,0,P|368:96|456:168,1,240
332,192,127249,1,0,0:0:0:0:
472,276,127395,1,0,0:0:0:0:
352,308,127541,1,0,0:0:0:0:
184,328,127688,6,0,L|184:208,1,120
244,264,127980,2,0,P|184:280|128:264,1,120
68,160,128273,2,0,P|184:132|300:160,1,240
360,100,128712,1,0,0:0:0:0:
436,60,128858,1,0,0:0:0:0:
472,212,129005,1,0,0:0:0:0:
436,60,129151,1,0,0:0:0:0:
472,212,129297,1,0,0:0:0:0:
320,248,129444,1,0,0:0:0:0:
272,100,129590,1,0,0:0:0:0:
320,248,129736,1,0,0:0:0:0:
272,100,129883,1,0,0:0:0:0:
120,68,130029,6,0,P|68:104|40:152,1,120
68,308,130322,2,0,P|120:272|148:224,1,120
180,136,130614,2,0,P|280:196|332:312,1,240
400,248,131054,1,0,0:0:0:0:
356,156,131200,2,0,L|244:232,1,120
232,312,131493,2,0,P|320:384|420:324,1,240
400,248,131932,1,0,0:0:0:0:
444,168,132078,2,0,B|484:116|484:116|496:56,1,120,0|0,0:0|0:0,0:0:0:0:
400,84,132371,6,0,P|256:68|88:192,1,360
112,300,132956,2,0,P|256:316|424:192,1,360
256,192,133541,1,0,0:0:0:0:
256,192,133614,12,0,134419,0:0:0:0:
160,52,134712,5,0,0:0:0:0:
256,120,134854,1,0,0:0:0:0:
352,52,134997,1,0,0:0:0:0:
256,120,135140,2,0,P|176:216|152:332,1,240
264,372,135569,2,0,P|344:276|368:160,2,240
224,292,136283,1,0,0:0:0:0:
144,236,136426,1,0,0:0:0:0:
144,228,136569,1,0,0:0:0:0:
144,220,136712,1,0,0:0:0:0:
144,36,136854,6,0,P|96:80|48:252,1,240
144,324,137283,2,0,P|264:332|384:320,1,240
456,252,137712,1,0,0:0:0:0:
372,124,137854,1,0,0:0:0:0:
456,124,137997,1,0,0:0:0:0:
372,252,138140,2,0,L|252:252,1,120
144,220,138426,1,0,0:0:0:0:
44,172,138569,1,0,0:0:0:0:
144,128,138712,2,0,L|264:128,1,120
204,188,138997,2,0,P|220:132|204:72,1,120
280,36,139283,5,0,0:0:0:0:
288,36,139426,1,0,0:0:0:0:
296,36,139569,1,0,0:0:0:0:
412,156,139712,2,0,P|348:156|256:292,1,240
100,156,140140,2,0,P|164:156|256:292,1,240
348,244,140569,1,0,0:0:0:0:
316,348,140712,2,0,P|256:360|196:348,1,120
164,244,140997,1,0,0:0:0:0:
156,236,141140,1,0,0:0:0:0:
148,228,141283,1,0,0:0:0:0:
36,92,141426,6,0,P|128:92|256:184,1,240
84,328,141854,2,0,P|196:364|316:348,2,240
48,232,142569,1,0,0:0:0:0:
144,192,142711,2,0,B|312:232|380:96|256:-8|132:96|200:232|368:192,1,480
424,124,143426,1,0,0:0:0:0:
352,76,143569,2,0,P|256:16|156:84,1,240
156,84,143997,5,0,0:0:0:0:
152,92,144140,1,0,0:0:0:0:
64,276,144283,2,0,P|164:192|264:128,1,240
448,276,144712,2,0,P|348:192|248:128,1,240
256,224,145140,2,0,L|256:352,1,120
256,132,145425,1,0,0:0:0:0:
256,44,145569,1,0,0:0:0:0:
256,36,145711,1,0,0:0:0:0:
256,28,145854,1,0,0:0:0:0:
156,100,145997,6,0,P|256:156|360:96,1,240
396,176,146426,2,0,P|384:232|396:292,1,120
356,368,146712,2,0,P|256:312|152:372,1,240
115,292,147140,1,0,0:0:0:0:
40,256,147283,2,0,P|84:208|136:184,1,120
80,76,147569,2,0,P|140:64|196:76,1,120
316,76,147854,2,0,P|372:64|432:76,1,120
379,184,148140,2,0,P|428:208|472:256,1,120
356,292,148426,5,0,0:0:0:0:
348,300,148569,1,0,0:0:0:0:
340,308,148712,1,0,0:0:0:0:
116,356,148854,2,0,B|212:308|212:308|280:332|352:304,1,240
364,216,149283,2,0,P|256:244|152:172,1,240
224,116,149712,1,0,0:0:0:0:
296,172,149854,2,8,P|239:268|114:290,1,240,0|0,0:0|0:0,0:0:0:0:
108,288,150283,1,0,0:0:0:0:
100,280,150426,1,0,0:0:0:0:
40,192,150569,6,0,P|124:72|204:16,1,240
312,18,150997,2,0,P|388:72|472:192,2,240
256,88,151712,1,0,0:0:0:0:
128,192,151854,1,0,0:0:0:0:
384,192,151997,1,0,0:0:0:0:
256,192,152140,1,0,0:0:0:0:
256,312,152283,1,0,0:0:0:0:
256,304,152354,1,0,0:0:0:0:
256,296,152426,2,0,P|188:304|144:336,1,120
256,88,152712,2,0,P|324:80|368:48,1,120
432,112,152997,6,0,P|428:232|328:272,1,240
256,88,153426,2,0,L|256:340,1,240
80,112,153854,2,0,P|84:232|182:272,1,240
148,180,154283,1,0,0:0:0:0:
172,92,154426,2,0,P|224:56|288:52,1,120
328,172,154712,2,0,P|276:208|212:212,1,120
252,132,154997,1,0,0:0:0:0:
396,208,155140,2,0,P|300:280|184:280,1,240
104,252,155569,6,0,P|48:284|0:332,1,120
16,192,155854,1,0,0:0:0:0:
7,61,155997,2,0,P|48:100|104:132,1,120
504,61,156283,2,0,P|464:100|408:132,1,120
104,48,156569,2,0,P|159:49|221:66,1,120
408,48,156854,2,0,P|352:49|290:66,1,120
152,132,157140,1,0,0:0:0:0:
360,132,157283,1,0,0:0:0:0:
256,304,157426,1,0,0:0:0:0:
256,64,157569,5,0,0:0:0:0:
256,64,157712,1,0,0:0:0:0:
256,320,159854,5,0,0:0:0:0:
256,320,159997,1,0,0:0:0:0:
38,313,162140,6,0,B|91:230|108:146|108:146|193:129|277:75,1,360
352,38,162712,2,0,P|400:80|424:132,1,120
280,240,162997,2,0,P|232:198|208:146,1,120
424,128,163283,2,0,P|428:191|408:245,1,120,0|0,0:0|0:0,0:0:0:0:
208,148,163569,2,0,P|203:84|223:30,1,120
288,92,163854,1,0,0:0:0:0:
348,192,163997,1,0,0:0:0:0:
288,92,164140,1,0,0:0:0:0:
348,192,164283,1,0,0:0:0:0:
256,192,164426,12,0,166426,0:0:0:0:
32,192,166712,5,0,0:0:0:0:
32,192,166997,2,0,P|128:116|240:88,1,240
376,192,167426,2,0,L|136:192,1,240
272,296,167854,2,0,P|384:268|480:192,1,240
412,100,168283,1,0,0:0:0:0:
312,44,168426,2,0,P|256:40|192:44,1,120
312,168,168712,2,0,P|256:172|192:168,1,120
100,100,168997,1,0,0:0:0:0:
100,100,169283,6,0,P|100:224|120:344,1,240
180,260,169712,2,0,P|304:260|424:240,1,240
488,312,170140,2,0,P|488:188|468:68,1,240
380,40,170569,1,0,0:0:0:0:
372,44,170640,1,0,0:0:0:0:
364,40,170712,2,0,L|236:40,1,120
172,136,170997,2,0,L|292:136,1,120
420,136,171283,6,0,P|456:200|364:328,1,240
144,240,171712,2,0,P|256:208|372:240,1,240
137,325,172140,2,0,P|56:200|92:136,1,240
160,72,172569,1,0,0:0:0:0:
248,36,172712,2,0,P|320:48|364:84,1,120
392,164,172997,1,0,0:0:0:0:
308,172,173140,2,0,P|344:224|396:244,1,120
228,176,173426,6,0,P|308:288|416:320,1,240
448,236,173854,1,0,0:0:0:0:
448,96,173997,1,0,0:0:0:0:
308,64,174140,2,0,L|188:68,1,120
108,180,174426,2,0,L|228:176,1,120
336,272,174712,2,0,P|280:304|224:312,1,120
244,168,174997,2,0,P|300:136|356:128,1,120
224,312,175283,2,0,P|161:295|116:261,1,120
356,128,175569,2,0,P|418:144|463:178,1,120
292,220,175854,5,0,0:0:0:0:
284,228,175997,1,0,0:0:0:0:
220,164,178140,5,0,0:0:0:0:
228,156,178283,1,0,0:0:0:0:
120,40,180426,6,0,B|220:88|256:152|256:152|292:88|396:40,1,360
380,140,180997,2,0,P|332:180|308:232,1,120
132,140,181283,2,0,P|180:180|204:232,1,120
396,228,181569,2,0,P|436:276|488:300,1,120,0|0,0:0|0:0,3:0:0:0:
116,228,181854,2,0,P|76:276|24:300,1,120,0|0,0:0|0:0,3:0:0:0:
128,344,182140,1,0,0:0:0:0:
384,344,182283,1,0,0:0:0:0:
188,288,182426,1,0,0:0:0:0:
324,288,182569,1,0,0:0:0:0:
256,192,182712,12,0,184712,0:0:0:0:
256,40,184997,5,0,0:0:0:0:
256,72,185070,1,0,0:0:0:0:
256,104,185143,1,0,0:0:0:0:
256,228,185289,2,0,L|256:348,1,120
356,208,185582,2,0,P|256:148|156:212,1,240
159,205,185948,1,0,0:0:0:0:
159,205,186021,1,0,0:0:0:0:
200,304,186167,6,0,L|328:304,1,120
432,276,186460,1,0,0:0:0:0:
448,248,186533,1,0,0:0:0:0:
464,220,186606,2,0,P|488:164|480:104,1,120
388,68,186899,1,0,0:0:0:0:
256,156,187045,1,0,0:0:0:0:
124,68,187192,1,0,0:0:0:0:
256,60,187338,6,0,L|256:-4,2,60
176,244,187631,1,0,0:0:0:0:
336,244,187777,1,0,0:0:0:0:
256,332,187923,2,0,B|228:216|280:216|252:88,1,240
256,60,188289,1,0,0:0:0:0:
248,28,188362,6,0,P|188:32|136:60,1,120
264,28,188655,2,0,P|324:32|376:60,1,120
256,136,188948,1,0,0:0:0:0:
256,256,189094,1,0,0:0:0:0:
256,256,189679,6,0,L|204:288,2,60
360,288,189972,1,0,0:0:0:0:
432,208,190118,1,0,0:0:0:0:
400,104,190265,2,0,P|324:76|164:72,1,240
88,148,190704,1,0,0:0:0:0:
160,228,190850,2,0,P|164:288|160:352,1,120
256,284,191143,1,0,0:0:0:0:
256,252,191289,1,0,0:0:0:0:
351,347,191436,2,0,P|348:288|352:228,1,120
200,156,191728,1,0,0:0:0:0:
312,156,191875,1,0,0:0:0:0:
256,60,192021,6,0,L|256:0,2,60
144,80,192314,2,0,P|104:120|80:184,1,120
431,178,192606,2,0,P|408:120|368:80,1,120
256,212,192899,1,0,0:0:0:0:
256,212,192972,1,0,0:0:0:0:
256,212,193045,1,0,0:0:0:0:
216,320,193192,2,0,P|156:320|96:300,1,120
296,320,193484,2,0,P|356:320|416:300,1,120
168,236,193777,1,0,0:0:0:0:
344,236,193923,1,0,0:0:0:0:
140,156,194070,2,0,P|256:124|368:156,1,240
436,80,194509,5,0,0:0:0:0:
316,44,194655,1,0,0:0:0:0:
196,44,194801,1,0,0:0:0:0:
76,80,194948,2,0,P|64:140|72:204,1,120
136,308,195240,1,0,0:0:0:0:
136,308,195387,1,0,0:0:0:0:
200,196,195533,2,0,P|206:137|194:77,1,120
292,108,195826,1,0,0:0:0:0:
296,112,196118,2,0,L|404:176,1,120
424,296,196411,2,0,L|316:232,1,120
224,312,196704,6,0,L|280:348,2,60
88,292,196997,1,0,0:0:0:0:
180,192,197143,1,0,0:0:0:0:
88,292,197289,2,0,P|64:176|96:60,1,240
200,44,197728,1,0,0:0:0:0:
304,24,197875,2,0,L|424:16,1,120
376,100,198167,2,0,P|416:148|376:308,1,240
368,312,198533,5,0,0:0:0:0:
360,320,198606,1,0,0:0:0:0:
352,324,198679,1,0,0:0:0:0:
344,324,198753,1,0,0:0:0:0:
336,328,198826,1,0,0:0:0:0:
328,328,198899,1,0,0:0:0:0:
320,324,198972,1,0,0:0:0:0:
312,324,199045,6,0,L|252:324,2,60
272,244,199338,2,0,L|208:244,2,60
240,164,199631,2,0,L|120:164,1,120
64,100,199923,1,0,0:0:0:0:
64,100,199997,1,0,0:0:0:0:
64,100,200070,1,0,0:0:0:0:
140,40,200216,2,0,P|160:100|136:168,1,120
208,216,200509,1,0,0:0:0:0:
208,216,200582,1,0,0:0:0:0:
208,216,200655,1,0,0:0:0:0:
300,200,200801,2,0,P|364:200|420:224,1,120
460,292,201094,1,0,0:0:0:0:
416,360,201240,2,0,P|364:380|300:380,1,120
232,328,201533,5,0,0:0:0:0:
152,364,201679,2,0,L|32:356,1,120
32,276,201972,2,0,P|72:192|152:272,1,240
151,268,202338,1,0,0:0:0:0:
151,268,202411,1,0,0:0:0:0:
196,192,202557,2,0,P|184:136|184:72,1,120
316,192,202850,2,0,P|328:136|328:72,1,120
112,32,203143,1,0,0:0:0:0:
400,32,203289,1,0,0:0:0:0:
256,76,203436,2,0,B|280:196|232:196|260:328,1,240
332,248,203875,5,0,0:0:0:0:
404,180,204021,2,0,P|428:232|416:300,1,120
256,316,204314,2,0,P|308:340|376:328,1,120,0|0,0:0|0:0,3:0:0:0:
184,272,204606,1,0,0:0:0:0:
184,272,204899,2,0,P|196:212|172:140,1,120,0|0,0:0|0:0,0:0:0:0:
120,212,205191,2,0,P|60:208|16:168,1,120
64,88,205484,2,0,L|184:72,1,120
329,72,205777,2,0,L|448:88,1,120
184,156,206070,6,0,P|256:284|324:152,2,360.000013732911
112,312,207533,1,0,0:0:0:0:
400,312,207826,1,0,0:0:0:0:
40,264,208118,6,0,B|252:192|256:8|256:8|260:192|472:264,1,720.000027465821
104,72,209582,1,0,0:0:0:0:
408,72,209875,1,0,0:0:0:0:
256,352,210167,1,0,0:0:0:0:
256,192,210240,12,0,212070,0:0:0:0:
256,192,212572,5,0,0:0:0:0:
192,120,212759,1,0,0:0:0:0:
124,52,212947,2,0,P|72:92|48:152,1,120
49,243,213322,2,0,P|72:292|124:332,1,120
220,308,213697,1,0,0:0:0:0:
312,276,213884,1,0,0:0:0:0:
396,228,214072,2,0,L|468:132,1,120
428,44,214447,2,0,L|356:140,1,120
256,136,214822,1,0,0:0:0:0:
176,80,215009,1,0,0:0:0:0:
176,80,215104,2,0,P|116:112|80:152,1,120
81,149,215385,1,0,0:0:0:0:
72,248,215572,6,0,P|132:264|204:276,1,120
200,372,215947,2,0,P|257:374|319:372,1,120,0|0,0:0|0:0,0:0:0:0:
327,274,216322,2,0,P|384:264|444:248,1,120
432,152,216697,2,0,P|369:149|312:152,1,120,0|0,0:0|0:0,0:0:0:0:
252,76,217072,1,0,0:0:0:0:
132,76,217259,1,0,0:0:0:0:
132,196,217447,1,0,0:0:0:0:
252,196,217634,1,0,0:0:0:0:
320,32,217822,5,0,0:0:0:0:
64,28,218009,1,0,0:0:0:0:
64,240,218197,1,0,0:0:0:0:
320,248,218384,1,0,0:0:0:0:
188,312,218572,6,0,L|196:192,1,120
324,72,218947,2,0,L|316:192,1,120
148,304,219322,2,0,L|196:193,1,120,0|0,0:0|0:0,3:0:0:0:
364,80,219697,2,0,L|315:190,1,120,0|0,0:0|0:0,3:0:0:0:
256,124,220072,2,0,L|212:8,1,120
256,260,220447,2,0,L|300:376,1,120
88,192,220822,2,0,P|152:180|208:192,1,120
204,192,221103,2,0,P|257:202|321:190,1,120
318,190,221384,2,0,P|372:180|436:192,1,120
456,108,221759,5,0,0:0:0:0:
356,36,221947,2,0,L|232:28,1,120
124,112,222322,2,0,L|248:124,1,120
376,220,222697,2,0,L|252:212,1,120
112,264,223072,1,0,0:0:0:0:
256,344,223259,1,0,0:0:0:0:
400,264,223447,1,0,0:0:0:0:
256,184,223634,1,0,0:0:0:0:
256,344,223822,2,0,B|144:192|368:192|256:8,1,360
56,56,224572,6,0,P|112:44|176:56,1,120,4|2,0:2|0:0,0:0:0:0:
116,164,224947,2,0,P|172:176|236:164,1,120,0|2,0:0|0:0,0:0:0:0:
248,56,225322,2,0,P|304:44|368:56,1,120,0|2,0:0|0:0,0:0:0:0:
308,164,225697,2,0,P|364:176|428:164,1,120,0|2,0:0|0:0,0:0:0:0:
472,228,226072,2,0,L|396:320,1,120,2|0,0:0|0:0,0:0:0:0:
352,248,226447,2,2,L|276:344,1,120,0|2,0:0|0:0,0:0:0:0:
232,264,226822,1,0,0:0:0:0:
144,268,227009,2,0,P|168:208|220:180,1,120,2|2,0:0|0:0,0:0:0:0:
268,112,227384,2,0,P|136:132|72:232,1,240,2|2,0:0|0:0,0:0:0:0:
16,144,227947,5,0,0:0:0:0:
80,68,228134,1,2,0:0:0:0:
176,32,228322,1,0,0:0:0:0:
280,36,228509,1,2,0:0:0:0:
368,92,228697,2,0,L|432:196,1,120,0|2,0:0|0:0,0:0:0:0:
488,136,229072,2,0,P|508:192|488:260,1,120,2|0,0:0|0:0,0:0:0:0:
416,284,229447,2,2,L|304:328,1,120,0|2,0:0|0:0,0:0:0:0:
312,240,229822,2,0,L|200:284,1,120,4|2,0:2|0:0,0:0:0:0:
224,192,230197,2,0,L|108:240,1,120,2|0,0:0|0:0,0:0:0:0:
128,144,230572,1,4,0:2:0:0:
176,68,230759,6,0,P|232:44|292:48,1,120,2|0,0:0|0:0,0:0:0:0:
428,220,231134,2,0,P|372:244|312:240,1,120,2|0,0:0|0:0,0:0:0:0:
288,48,231509,2,0,P|348:55|398:88,1,120,2|0,0:0|0:0,0:0:0:0:
316,240,231884,2,0,P|255:232|205:199,1,120,2|2,0:0|0:0,0:0:0:0:
396,88,232259,2,0,P|444:124|471:178,1,120,2|0,0:0|0:0,0:0:0:0:
208,200,232634,2,0,P|159:163|132:109,1,120,2|0,0:0|0:0,0:0:0:0:
72,44,233009,1,2,0:0:0:0:
48,204,233197,1,2,0:0:0:0:
220,116,233384,2,2,P|332:152|404:248,1,240,2|0,0:0|0:0,0:0:0:0:
208,200,233947,6,0,P|148:164|136:104,1,120,0|2,0:0|0:0,0:0:0:0:
284,216,234322,2,0,L|296:344,1,120,0|2,0:0|0:0,0:0:0:0:
224,376,234697,2,0,L|212:256,1,120,2|2,0:0|0:0,0:0:0:0:
132,224,235072,2,0,L|144:344,1,120,2|0,0:0|0:0,0:0:0:0:
128,212,235447,1,0,0:0:0:0:
124,200,235634,1,2,0:0:0:0:
108,68,235822,2,0,L|120:188,1,120,2|0,0:0|0:0,0:0:0:0:
104,56,236197,1,0,0:0:0:0:
100,44,236384,1,2,0:0:0:0:
96,32,236572,1,12,0:3:0:0:
256,192,236739,12,0,239238,0:0:0:0:
256,144,241905,5,0,0:0:0:0:
256,144,241988,1,0,0:0:0:0:
256,144,242071,1,0,0:0:0:0:
256,144,242239,2,0,L|316:144,1,60
284,224,242572,2,0,L|156:224,1,120
156,152,243072,1,0,0:0:0:0:
136,80,243238,2,0,P|104:92|88:120,1,60
92,192,243571,2,0,L|92:316,1,120
164,304,244066,2,0,L|260:304,1,90
254,304,244649,5,0,0:0:0:0:
254,304,244732,1,0,0:0:0:0:
296,228,244899,6,0,P|312:168|352:120,1,120
384,208,245232,2,0,P|424:96|336:32,1,240
340,32,245649,1,0,0:0:0:0:
340,32,245732,1,0,0:0:0:0:
216,228,245899,2,0,P|200:168|160:124,1,120
254,304,246232,2,0,P|188:300|136:256,1,120
112,196,246566,1,0,0:0:0:0:
200,52,246732,1,0,0:0:0:0:
400,196,246899,1,0,0:0:0:0:
312,52,247065,1,0,0:0:0:0:
256,192,247232,5,0,0:0:0:0:
256,192,247316,1,0,0:0:0:0:
256,192,247399,1,0,0:0:0:0:
196,368,247566,2,0,P|256:380|312:368,1,120
256,192,247899,2,0,L|256:316,1,120
104,164,248232,1,0,0:0:0:0:
104,164,248316,1,0,0:0:0:0:
104,164,248399,2,0,P|160:124|208:104,1,120
260,36,248732,1,0,0:0:0:0:
260,36,248899,1,0,0:0:0:0:
328,156,249066,1,0,0:0:0:0:
328,156,249232,1,0,0:0:0:0:
276,284,249399,1,0,0:0:0:0:
276,284,249566,1,0,0:0:0:0:
412,264,249732,1,0,0:0:0:0:
412,264,249899,2,0,P|456:152|384:68,1,240
260,116,250399,5,0,0:0:0:0:
132,80,250566,2,0,L|80:192,1,120
120,280,250899,1,0,0:0:0:0:
128,268,250982,1,0,0:0:0:0:
136,256,251066,2,0,L|192:144,1,120
244,216,251399,1,0,0:0:0:0:
272,312,251566,2,0,P|336:180|264:116,1,240
408,164,252066,2,0,P|416:232|392:300,1,120
472,116,252399,1,0,0:0:0:0:
480,352,252566,6,0,L|360:352,1,120
392,264,252899,2,0,L|272:264,1,120
32,32,253232,2,0,L|152:32,1,120
120,120,253565,2,0,L|240:120,1,120
128,296,253899,2,0,P|184:316|244:308,1,120
384,88,254232,2,0,P|328:68|268:76,1,120
332,272,254566,2,0,P|380:237|408:183,1,120
180,112,254899,2,0,P|131:146|103:200,1,120
256,196,255232,5,0,0:0:0:0:
288,100,255399,1,0,0:0:0:0:
356,176,255566,2,0,P|408:208|448:256,1,120
332,272,255899,2,0,P|432:232|432:112,1,240
368,44,256399,1,0,0:0:0:0:
288,100,256566,2,0,L|160:100,1,120
236,176,256899,2,0,L|372:176,1,120
332,272,257232,2,0,P|516:180|360:44,1,480
288,100,258066,5,0,0:0:0:0:
236,176,258232,2,0,L|160:268,1,120
120,172,258566,2,0,P|140:116|188:76,1,120
288,100,258899,1,0,0:0:0:0:
296,108,259065,1,0,0:0:0:0:
304,116,259232,2,0,P|364:112|424:116,1,120
208,268,259565,2,0,P|148:272|88:268,1,120
292,268,259899,2,0,P|331:313|376:352,1,120
220,116,260232,2,0,P|180:70|135:31,1,120
256,192,260565,1,0,0:0:0:0:
256,192,260899,6,0,P|316:180|372:192,1,120
420,128,261232,2,0,P|436:248|336:260,1,240
328,256,261649,1,0,0:0:0:0:
316,248,261732,1,0,0:0:0:0:
256,192,261899,2,0,P|196:180|140:192,1,120
92,128,262232,2,0,P|76:248|176:260,1,240
256,192,262732,1,0,0:0:0:0:
264,200,262899,2,0,P|316:220|352:276,1,120
308,348,263232,5,0,0:0:0:0:
224,324,263399,1,0,0:0:0:0:
224,324,263482,1,0,0:0:0:0:
224,324,263566,1,0,0:0:0:0:
224,324,263649,1,0,0:0:0:0:
224,324,263732,2,0,P|216:260|224:204,1,120
288,60,264066,1,0,0:0:0:0:
288,60,264149,1,0,0:0:0:0:
288,60,264233,1,0,0:0:0:0:
288,60,264316,1,0,0:0:0:0:
288,60,264399,2,0,P|296:124|288:180,1,120
212,120,264732,2,0,P|152:112|92:120,1,120
300,264,265066,2,0,P|360:272|420:264,1,120
256,352,265399,1,0,0:0:0:0:
256,32,265566,1,0,0:0:0:0:
256,192,265732,1,0,0:0:0:0:
