osu file format v12

[General]
AudioFilename: Assassin's Creed 4_ Black Flag Soundtrack - Main Theme.mp3
AudioLeadIn: 0
PreviewTime: 65556
Countdown: 0
SampleSet: Normal
StackLeniency: 0.7
Mode: 0
LetterboxInBreaks: 1
WidescreenStoryboard: 0

[Editor]
DistanceSpacing: 1
BeatDivisor: 4
GridSize: 8

[Metadata]
Title:
TitleUnicode:
Artist:Brian Tyler - Black Flag, Main Theme
ArtistUnicode:Brian Tyler - Black Flag, Main Theme
Creator:oempa
Version:Hard
Source:Black Flag OST
Tags:assasins creed pirates
BeatmapID:350906
BeatmapSetID:140516

[Difficulty]
HPDrainRate:7
CircleSize:4
OverallDifficulty:6
ApproachRate:8
SliderMultiplier:2.2
SliderTickRate:1

[Events]
//Background and Video events
0,0,"BG.jpg",0,0
//Break Periods
2,57352,65349
//Storyboard Layer 0 (Background)
//Storyboard Layer 1 (Fail)
//Storyboard Layer 2 (Pass)
//Storyboard Layer 3 (Foreground)
//Storyboard Sound Samples
//Background Colour Transformations
3,100,163,162,255

[TimingPoints]
7751,652.173913043478,3,2,0,50,1,0
66099,468.75,3,1,0,75,1,1
127621,-100,3,2,0,5,0,0
127838,-100,3,1,0,100,0,0

[Colours]
Combo1 : 11,34,244
Combo2 : 0,200,0
Combo3 : 170,170,255
Combo4 : 255,255,255
Combo5 : 0,0,0
Combo6 : 236,0,0

[HitObjects]
48,280,7751,1,2,2:2:0:0:
48,280,8729,1,0,2:2:0:0:
176,352,9055,1,0,2:2:0:0:
320,352,9381,1,0,2:2:0:0:
448,280,9707,1,0,2:2:0:0:
72,48,10685,1,0,2:2:0:0:
384,360,11664,5,0,2:2:0:0:
504,280,11990,1,0,2:2:0:0:
512,136,12316,1,0,2:2:0:0:
384,64,12642,1,0,2:2:0:0:
352,192,12968,1,0,2:2:0:0:
208,192,13294,1,0,2:2:0:0:
64,192,13620,1,2,2:2:0:0:
264,203,15903,37,0,2:2:0:0:
162,101,16229,1,0,2:2:0:0:
264,0,16555,1,0,2:2:0:0:
366,100,16881,1,0,2:2:0:0:
264,200,17207,1,2,2:2:0:0:
159,299,17533,1,0,2:2:0:0:
512,32,19490,2,0,P|448:8|288:72,1,220
232,160,20468,5,0,2:2:0:0:
136,248,20794,1,0,2:2:0:0:
224,344,21120,1,0,2:2:0:0:
328,264,21446,2,2,B|368:232|368:232|368:176,1,110
368,32,22098,1,0,2:2:0:0:
224,32,22424,2,2,B|184:72|184:72|184:136,1,110
184,272,23077,1,0,0:0:0:0:
320,272,23403,5,0,2:2:0:0:
320,136,23729,1,0,2:2:0:0:
384,272,24055,1,0,2:2:0:0:
384,136,24381,1,0,2:2:0:0:
448,272,24707,1,0,2:2:0:0:
448,136,25033,1,2,2:2:0:0:
512,272,25359,1,0,2:2:0:0:
56,352,26337,5,0,2:2:0:0:
192,288,26664,1,0,2:2:0:0:
56,232,26990,1,0,2:2:0:0:
192,168,27316,2,2,P|240:144|328:160,1,110
488,232,28294,1,0,2:2:0:0:
392,344,28620,1,0,2:2:0:0:
360,200,28946,1,0,2:2:0:0:
440,64,29272,2,2,B|400:24|400:24|336:24,1,110
88,192,29924,37,0,0:0:0:0:
88,192,30087,1,0,0:0:0:0:
168,192,30250,2,2,L|320:192,1,110
464,136,30903,5,0,2:2:0:0:
464,280,31229,1,0,2:2:0:0:
360,384,31555,1,0,2:2:0:0:
216,384,31881,1,0,2:2:0:0:
112,280,32207,1,0,2:2:0:0:
112,136,32533,1,0,2:2:0:0:
216,32,32859,1,0,2:2:0:0:
360,32,33185,5,0,2:2:0:0:
256,136,33511,1,0,2:2:0:0:
360,240,33837,1,0,2:2:0:0:
256,344,34164,1,0,2:2:0:0:
152,240,34490,1,0,2:2:0:0:
256,136,34816,1,0,2:2:0:0:
368,32,35142,2,2,P|440:40|424:176,1,220
336,264,36120,5,0,2:2:0:0:
256,384,36446,1,0,2:2:0:0:
184,264,36772,1,0,2:2:0:0:
96,152,37098,2,2,P|96:48|200:40,1,220
192,176,38077,2,2,P|294:237|352:141,1,220
472,96,39055,38,0,L|376:96,1,55
400,144,39381,2,0,L|312:144,1,55
336,192,39707,2,0,L|256:192,1,55
272,240,40033,2,0,L|184:240,1,55
216,192,40359,2,0,L|144:192,1,55
144,152,40685,2,0,L|56:152,1,55
72,112,41011,2,0,L|0:112,1,55
32,168,41337,6,0,L|112:168,1,55
88,216,41664,2,0,L|176:216,1,55
160,256,41990,2,0,L|240:256,1,55
240,216,42316,2,0,L|320:216,1,55
312,176,42642,2,0,L|392:176,1,55
432,184,42968,6,2,P|424:288|312:272,1,220
216,168,43946,6,2,P|112:176|128:288,1,220
256,192,44924,12,0,49653,2:2:0:0:
136,336,50794,22,0,B|200:312|200:312|96:64|96:64|-8:312|-8:312|56:336,2,660
496,72,55196,70,0,P|256:192|520:288,1,660
256,208,66099,22,0,B|352:152|352:152|248:96,1,220,12|0,0:0|0:0,0:0:0:0:
48,32,66802,5,0,0:0:0:0:
168,64,67036,1,0,0:0:0:0:
48,112,67270,1,0,0:0:0:0:
184,144,67505,1,12,0:0:0:0:
504,376,68208,1,12,0:0:0:0:
216,56,68911,6,0,B|192:40|192:40|136:40|136:40|112:56,1,110,8|0,0:0|0:0,0:0:0:0:
16,144,69380,2,0,B|0:168|0:168|0:224|0:224|16:248,1,110,8|0,0:0|0:0,0:0:0:0:
96,352,69849,2,0,B|120:368|120:368|176:368|176:368|200:352,1,110,8|0,0:0|0:0,0:0:0:0:
296,264,70317,2,0,B|312:240|312:240|312:184|312:184|296:160,1,110,8|0,0:0|0:0,0:0:0:0:
208,72,70786,2,0,B|168:72|168:72|104:128,1,110,8|0,0:0|0:2,0:0:0:0:
120,248,71255,2,0,B|176:296|176:296|224:296,1,110,8|0,0:0|0:2,0:0:0:0:
344,296,71724,6,0,B|408:264|408:264|408:184|408:184|344:152,1,220,8|0,0:0|0:2,0:0:0:0:
96,136,72427,1,0,0:0:0:0:
192,224,72661,1,0,0:0:0:0:
280,136,72895,1,0,0:0:0:0:
240,0,73130,2,0,P|192:-8|120:8,1,110,8|0,0:0|0:2,0:0:0:0:
72,56,73599,1,0,0:0:0:0:
128,128,73833,2,0,P|176:136|248:120,1,110,8|0,0:0|0:2,0:0:0:0:
312,80,74302,1,0,0:0:0:0:
240,32,74536,2,0,P|192:24|120:40,1,110,8|0,0:0|0:2,0:0:0:0:
64,96,75005,2,0,P|55:151|75:223,1,110,8|0,0:0|0:0,0:0:0:0:
152,200,75474,2,0,P|143:144|163:72,1,110,8|0,0:0|0:0,0:0:0:0:
224,40,75942,2,0,P|280:32|336:40,1,110,8|0,0:0|0:0,0:0:0:0:
384,112,76411,2,0,B|384:168|384:168|432:216,1,110,8|0,0:0|0:0,0:0:0:0:
512,200,76880,2,0,B|512:144|512:144|464:96,1,110,8|0,0:0|0:0,0:0:0:0:
200,64,77349,38,0,P|120:40|48:160,1,220,12|0,0:0|0:2,0:0:0:0:
136,128,78052,1,0,0:0:0:0:
168,232,78286,1,0,0:0:0:0:
256,304,78520,1,0,0:0:0:0:
368,312,78755,2,0,P|408:312|472:264,1,110,12|0,0:0|0:0,0:0:0:0:
512,184,79224,1,0,0:0:0:0:
488,80,79458,2,0,P|456:40|392:56,1,110,12|0,0:0|0:0,0:0:0:0:
320,112,79927,5,0,0:0:0:0:
208,168,80161,1,0,0:0:0:0:
104,112,80395,1,0,0:0:0:0:
208,48,80630,1,0,0:0:0:0:
320,112,80864,1,0,0:0:0:0:
208,168,81099,1,0,0:0:0:0:
304,248,81333,1,8,0:0:0:0:
304,360,81567,5,0,0:0:0:0:
412,356,81802,1,0,0:0:0:0:
320,298,82036,1,0,0:0:0:0:
228,240,82270,1,0,0:0:0:0:
337,236,82505,1,0,0:0:0:0:
445,232,82739,1,8,0:0:0:0:
352,176,82974,6,0,P|256:144|144:184,1,220,4|0,0:0|0:0,0:0:0:0:
40,248,83677,1,0,0:0:0:0:
96,344,83911,1,0,0:0:0:0:
152,248,84145,1,0,0:0:0:0:
96,344,84380,1,8,0:0:0:0:
488,32,85083,1,8,0:0:0:0:
256,296,85786,37,8,0:0:0:0:
128,80,86255,1,0,0:0:0:0:
384,80,86724,1,8,0:0:0:0:
384,328,87192,1,0,0:0:0:0:
128,328,87661,1,8,0:0:0:0:
0,112,88130,1,0,0:0:0:0:
464,24,88599,5,8,0:0:0:0:
456,144,88833,1,0,0:0:0:0:
456,184,88950,1,0,0:0:0:0:
424,216,89067,1,0,0:0:0:0:
304,216,89302,1,0,0:0:0:0:
304,336,89536,1,0,0:0:0:0:
184,336,89770,1,0,0:0:0:0:
184,216,90005,1,0,0:0:0:0:
184,96,90239,5,8,0:0:0:0:
304,96,90474,1,0,0:0:0:0:
344,96,90591,1,0,0:0:0:0:
376,120,90708,1,0,0:0:0:0:
384,240,90942,1,0,0:0:0:0:
512,240,91177,1,0,0:0:0:0:
448,136,91411,1,0,0:0:0:0:
384,240,91645,1,0,0:0:0:0:
448,136,91880,1,0,0:0:0:0:
384,32,92114,5,8,0:0:0:0:
264,32,92349,1,0,0:0:0:0:
224,40,92466,1,0,0:0:0:0:
208,80,92583,1,0,0:0:0:0:
208,200,92817,1,0,0:0:0:0:
208,320,93052,1,0,0:0:0:0:
312,256,93286,1,0,0:0:0:0:
360,144,93520,1,0,0:0:0:0:
360,24,93755,38,0,P|264:-8|152:32,1,220
48,96,94458,1,0,0:0:0:0:
48,216,94692,1,0,0:0:0:0:
128,304,94927,1,0,0:0:0:0:
248,288,95161,1,0,0:0:0:0:
144,232,95396,1,0,0:0:0:0:
264,216,95630,5,8,0:0:0:0:
48,96,95864,2,0,L|-8:64,2,55
144,168,96333,1,0,0:0:0:0:
208,64,96567,1,0,0:0:0:0:
272,168,96802,1,0,0:0:0:0:
336,272,97036,1,0,0:0:0:0:
392,168,97270,1,8,0:0:0:0:
200,48,97505,6,0,L|136:0,2,55
304,120,97974,1,0,0:0:0:0:
400,224,98208,1,0,0:0:0:0:
448,336,98443,1,0,0:0:0:0:
496,224,98677,1,0,0:0:0:0:
448,112,98911,1,0,0:0:0:0:
360,24,99145,1,8,0:0:0:0:
144,208,99380,6,0,L|88:256,2,55
248,144,99849,1,0,0:0:0:0:
248,264,100083,1,0,0:0:0:0:
144,208,100318,1,0,0:0:0:0:
248,264,100552,1,0,0:0:0:0:
360,312,100786,1,8,0:0:0:0:
480,144,101020,38,0,L|520:96,2,55
400,216,101490,1,0,0:0:0:0:
280,224,101724,1,0,0:0:0:0:
280,112,101959,1,0,0:0:0:0:
168,112,102193,1,0,0:0:0:0:
224,16,102427,1,0,0:0:0:0:
336,16,102661,6,0,P|408:88|344:176,1,220
264,232,103364,1,0,0:0:0:0:
144,264,103598,1,0,0:0:0:0:
264,312,103832,1,0,0:0:0:0:
264,312,104067,2,0,P|358:318|408:200,1,220,8|0,0:0|0:0,0:0:0:0:
288,216,104770,2,0,P|322:304|450:299,1,220,8|0,0:0|0:0,0:0:0:0:
376,248,105474,6,0,L|445:147,1,110,8|0,0:0|0:0,0:0:0:0:
505,54,105942,1,8,0:0:0:0:
370,38,106177,1,0,0:0:0:0:
462,131,106411,1,8,0:0:0:0:
334,125,106645,1,0,0:0:0:0:
433,217,106880,1,8,0:0:0:0:
305,211,107114,1,0,0:0:0:0:
405,297,107349,1,8,0:0:0:0:
277,290,107583,1,0,0:0:0:0:
376,376,107817,1,8,0:0:0:0:
32,256,108286,6,0,P|-16:176|48:72,1,220,8|0,0:0|0:0,0:0:0:0:
160,16,108989,1,0,0:0:0:0:
288,32,109224,1,0,0:0:0:0:
280,160,109458,1,0,0:0:0:0:
152,200,109692,2,0,P|128:248|152:296,1,110,8|0,0:0|0:0,0:0:0:0:
272,360,110161,1,0,0:0:0:0:
387,301,110395,2,0,P|411:253|379:190,1,110,8|0,0:0|0:0,0:0:0:0:
344,248,110864,1,0,0:0:0:0:
200,296,111099,38,0,B|178:317|178:317|130:317|130:317|107:296,1,110,8|0,0:0|0:0,0:0:0:0:
16,176,111567,2,0,B|-5:154|-5:154|-5:106|-5:106|16:83,1,110,8|0,0:0|0:0,0:0:0:0:
144,0,112036,2,0,B|166:-21|166:-21|214:-21|214:-21|237:0,1,110,8|0,0:0|0:0,0:0:0:0:
344,112,112505,2,0,B|344:142|344:142|376:176|376:176|376:224,1,110,8|0,0:0|0:0,0:0:0:0:
368,360,112974,2,0,B|322:327|322:327|254:327,1,110,8|0,0:0|0:0,0:0:0:0:
112,328,113442,2,0,B|91:306|91:306|91:258|91:258|112:235,1,110,8|0,0:0|0:0,0:0:0:0:
216,120,113911,6,0,B|264:80|272:152|312:184|352:152|368:80|416:120,1,220,12|0,0:0|0:0,0:0:0:0:
512,232,114614,1,0,0:0:0:0:
392,328,114849,1,0,0:0:0:0:
248,368,115083,1,0,0:0:0:0:
96,328,115317,2,0,P|56:296|64:240,1,110,12|0,0:0|0:0,0:0:0:0:
176,144,115786,1,0,0:0:0:0:
296,40,116020,2,0,P|346:73|345:129,1,110,12|0,0:0|0:0,0:0:0:0:
344,272,116489,1,0,0:0:0:0:
192,272,116724,5,0,0:0:0:0:
224,120,116958,1,0,0:0:0:0:
264,272,117192,1,0,0:0:0:0:
160,152,117427,1,0,0:0:0:0:
304,216,117661,1,0,0:0:0:0:
152,216,117895,1,0,0:0:0:0:
288,152,118130,1,0,0:0:0:0:
192,272,118364,1,0,0:0:0:0:
64,360,118598,5,0,0:0:0:0:
216,336,118832,1,0,0:0:0:0:
328,232,119067,1,0,0:0:0:0:
328,88,119301,1,0,0:0:0:0:
144,88,119536,38,8,P|72:144|152:216,1,220,8|0,0:0|0:0,0:0:0:0:
296,224,120239,1,0,0:0:0:0:
144,216,120474,1,0,0:0:0:0:
216,352,120708,1,0,0:0:0:0:
368,352,120942,2,0,P|440:288|360:224,1,220,8|0,0:0|0:0,0:0:0:0:
224,280,121645,2,0,P|152:216|232:152,1,220,8|0,0:0|0:0,0:0:0:0:
496,160,122349,5,0,0:0:0:0:
232,0,122817,1,0,0:0:0:0:
376,272,123286,1,0,0:0:0:0:
128,88,123755,1,0,0:0:0:0:
256,368,124224,1,0,0:0:0:0:
0,192,124692,1,0,0:0:0:0:
256,192,125161,12,0,127779,0:0:0:0:
