osu file format v9

[General]
AudioFilename: Breeze - .mp3
AudioLeadIn: 0
PreviewTime: 181841
Countdown: 0
SampleSet: Soft
StackLeniency: 0.7
Mode: 0
LetterboxInBreaks: 1

[Editor]
DistanceSpacing: 1.2
BeatDivisor: 4
GridSize: 4

[Metadata]
Title:La Plage
Artist:Breeze
Creator:Louis Cyphre
Version:Beginner
Source:
Tags:Lenor kanpakyin spboxer3 Reiji-RJ

[Difficulty]
HPDrainRate:1
CircleSize:3
OverallDifficulty:1
ApproachRate:2
SliderMultiplier:1
SliderTickRate:1

[Events]
//Background and Video events
0,0,"the_mermaid_by_elenadudina-d3e77b2.jpg"
//Break Periods
2,104204,107633
2,145716,154335
//Storyboard Layer 0 (Background)
//Storyboard Layer 1 (Fail)
//Storyboard Layer 2 (Pass)
//Storyboard Layer 3 (Foreground)
//Storyboard Sound Samples
//Background Colour Transformations
3,100,163,162,255

[TimingPoints]
20977,648.648648648649,4,2,2,30,1,0
62328,-100,4,1,1,40,0,0
62652,-100,4,2,1,40,0,0
77895,-100,4,1,1,40,0,0
78220,-100,4,2,1,40,0,0
88274,-100,4,1,1,40,0,0
88598,-100,4,2,1,40,0,0
109031,-100,4,1,1,40,0,0
109355,-100,4,2,1,40,0,0
124598,-100,4,1,1,50,0,0
124922,-100,4,2,1,50,0,0
145355,-100,4,2,1,40,0,0
171301,-100,4,1,1,40,0,0
171625,-100,4,2,1,40,0,0
197247,-100,4,1,1,40,0,0
197571,-100,4,2,1,40,0,0
218166,-100,4,1,1,40,0,0

[Colours]
Combo1 : 0,128,128
Combo2 : 0,128,192
Combo3 : 14,192,184

[HitObjects]
280,96,20977,2,0,B|384:40|480:112,3,200,0|0|0|0
232,288,26166,2,0,B|128:344|32:280,3,200
248,120,31355,6,0,B|263:319,1,200,2|0
352,56,33949,2,0,B|248:96|144:48,1,200,2|2
256,192,35409,12,2,37841
156,72,39139,5,2
168,312,40436,1,2
376,192,41733,6,0,B|432:128|408:48,1,150,2|0
344,40,43031,2,0,B|288:96|312:184,1,150,2|0
256,208,44328,2,0,B|184:180|108:208,1,150,2|0
108,272,45625,2,0,B|180:304|256:276,1,150,2|0
320,288,46922,5,2
188,88,48220,1,2
392,216,49517,1,2
156,184,50814,1,2
388,120,52112,6,0,B|428:192|372:264,1,150,2|2
436,288,53409,2,0,B|372:240|292:272,1,150,2|2
236,304,54706,2,0,B|84:288,1,150,2|2
100,224,56004,2,0,B|252:240,1,150,2|2
272,296,57301,5,2
184,72,58598,1,2
272,296,59895,1,0
88,256,62490,6,0,B|176:312|296:272,1,200,4|2
392,320,64436,2,0,B|424:272|400:208,1,100,0|2
312,144,65733,2,0,B|280:184|304:248,3,100,0|2|0|2
192,288,68328,6,0,B|92:288,1,100,0|2
48,176,69625,2,0,B|160:176,1,100,0|2
256,128,70922,2,0,B|280:176|256:232,1,100,0|2
344,312,72220,2,0,B|392:360,2,50,0|2|2
408,208,73517,6,0,B|416:96,1,100,0|2
296,80,74814,2,0,B|304:192,1,100,0|2
192,216,76112,2,0,B|200:104,1,100,0|2
88,80,77409,2,0,B|104:136,2,50,0|2|4
56,200,78706,5,4
128,296,79355,2,0,B|176:264|240:288,1,100,8|4
280,296,80328,1,8
336,320,80652,2,0,B|384:336|448:304,1,100,8|4
432,192,81949,6,0,B|464:144|440:88,1,100,8|4
392,64,82922,1,8
336,80,83247,2,0,B|304:120|320:184,1,100,8|4
216,232,84544,6,0,B|112:248,1,100,8|4
64,224,85517,1,8
52,164,85841,2,0,B|156:148,1,100,8|4
260,96,87139,6,0,B|252:208,2,100,8|4|4
368,152,89085,6,0,B|466:167,1,100,4|8
424,280,90382,1,4
304,296,91031,1,8
184,272,91679,2,0,B|136:296|84:279,1,100,4|8
128,168,92977,2,0,B|176:144|240:168,1,100,4|8
328,232,94274,6,0,B|344:128,1,100,4|8
456,96,95571,2,0,B|440:200,1,100,4|8
400,312,96868,2,0,B|296:336,1,100,4|8
184,312,98166,1,4
64,288,98814,1,8
144,200,99463,6,0,B|120:152|144:96,1,100,4|8
240,32,100760,2,0,B|264:80|240:136,1,100,4|8
304,232,102058,2,0,B|280:288|304:336,1,100,4|8
408,280,103355,1,4
408,160,104004,5,2
424,288,109193,6,0,B|392:280|352:296|320:288,3,100,4|4|8|4
216,248,111787,1,8
224,128,112436,2,0,B|256:112|296:144|328:128,2,100,4|8|4
216,248,114382,1,8
104,296,115031,6,0,B|104:184,1,100,4|8
216,248,116328,2,0,B|216:136,1,100,4|8
328,192,117625,2,0,B|328:88,1,100,4|8
440,136,118922,2,0,B|440:32,1,100,4|8
320,48,120220,6,0,B|264:32|208:64,1,100,4|8
160,160,121517,2,0,B|216:176|264:144,1,100,4|8
328,240,122814,2,0,B|272:224|216:256,1,100,4|8
168,352,124111,2,4,B|224:368|272:336,1,100,4|4
384,336,125409,5,4
448,232,126058,2,0,B|464:176|448:128,1,100,8|4
432,72,127031,1,8
376,80,127355,2,0,B|264:80,1,100,8|4
304,200,128652,6,0,B|204:200,1,100,8|4
144,216,129625,1,8
120,160,129949,2,0,B|96:104|120:56,1,100,8|4
232,40,131247,6,0,B|256:88|232:144,1,100,8|4
232,200,132220,1,8
240,256,132544,2,0,B|216:304|240:360,1,100,8|4
352,328,133841,6,0,B|352:224,1,100,8|4
404,196,134814,1,8
456,168,135139,2,0,B|456:56,1,100,8|4
336,64,136436,6,0,B|288:40|232:64,1,100,8|4
120,80,137733,1,8
72,192,138382,2,0,B|56:240|72:296,1,100,4|8
176,344,139679,2,0,B|192:288|176:240,1,100,4|8
288,200,140977,6,0,B|272:152|288:96,1,100,4|8
392,40,142274,2,0,B|408:88|392:144,1,100,4|8
344,248,143571,2,0,B|392:226|440:250,1,100,4|8
368,344,144868,2,0,B|320:368|272:344,1,100,4|8
416,216,155895,6,0,B|424:320,2,100,8|4|2
312,152,157841,2,0,B|320:96,2,50,4|0|0
200,120,159139,2,0,B|208:224,1,100,4|2
104,280,160436,2,0,B|88:336,2,50,4|0|0
224,296,161733,6,0,B|224:192,1,100,4|2
336,248,163031,2,0,B|336:144,1,100,4|0
448,200,164328,2,0,B|448:96,1,100,4|2
336,148,165625,2,0,B|336:248,1,100,4|0
256,336,166922,6,0,B|208:352|152:336,1,100,4|2
80,248,168220,2,0,B|128:232|184:248,1,100,4|0
248,144,169517,2,0,B|200:168|144:144,1,100,4|2
72,56,170814,2,0,B|120:40|176:56,1,100,4|4
288,72,172112,5,4
408,56,172760,2,0,B|424:160,1,100,8|4
432,216,173733,1,8
440,272,174058,5,8
328,312,174706,1,4
208,320,175355,2,0,B|192:272|208:216,1,100,8|4
216,160,176328,1,8
208,104,176652,5,8
320,56,177301,1,4
432,96,177949,2,0,B|440:208,1,100,8|4
472,248,178922,2,8,B|456:312,1,50
344,312,179895,5,4
224,296,180544,2,0,B|176:280|120:304,1,100,8|4
72,320,181517,2,8,B|56:256,1,50
144,184,182490,6,0,B|120:72,1,100,4|8
240,112,183787,2,0,B|260:209,1,100,4|8
328,312,185085,2,0,B|368:208,1,100,4|8
480,208,186382,2,0,B|444:301,1,100,4|8
328,312,187679,6,0,B|280:336|224:312,1,100,4|8
112,328,188977,2,0,B|88:280|112:232,1,100,4|8
200,152,190274,2,0,B|224:200|200:248,1,100,4|8
104,176,191571,2,0,B|80:128|104:80,1,100,4|8
224,64,192868,6,0,B|272:40|320:64,1,100,4|8
400,152,194166,2,0,B|352:176|296:152,1,100,4|8
184,168,195463,2,0,B|184:272,1,100,4|8
280,336,196760,2,4,B|280:232,1,100,4|4
184,168,198058,6,0,B|136:184|80:168,1,100,4|8
160,72,199355,2,0,B|216:72,2,50,4|8|8
232,168,200652,2,0,B|280:184|336:168,1,100,4|8
400,72,201949,2,0,B|352:72,2,50,4|8|8
408,192,203247,6,0,B|432:240|416:296,1,100,4|8
312,344,204544,2,0,B|304:288,1,50,4|8
248,280,205193,2,0,B|200:296|144:288,1,100,8|4
80,192,206490,2,0,B|128:176|192:184,1,100,8|4
296,168,207787,1,8
408,200,208436,6,0,B|432:152|408:104,1,100,4|8
304,48,209733,2,0,B|312:104,2,50,4|8|8
200,104,211031,2,0,B|176:152|200:200,1,100,4|8
88,248,212328,2,0,B|96:192,2,50,4|8|8
184,320,213625,6,0,B|296:328,1,100,4|8
400,328,214922,2,0,B|424:312|432:280,1,50,4|8
384,248,215571,2,0,B|376:192|416:144,1,100,8|4
344,56,216868,2,0,B|232:64,1,100,8|4
136,104,218166,5,4
